Subcategories

VA - Unforgettable: Jazz Love Songs (2001) {GMG}

Posted By: TestTickles
VA - Unforgettable: Jazz Love Songs (2001) {GMG}

VA - Unforgettable: Jazz Love Songs (2001) {GMG}
EAC Rip | FLAC with CUE and LOG | scans | 298 mb
MP3 CBR 320 kbps | RAR | 132 mb
Genre: jazz, vocal jazz, blues

Unforgettable: Jazz Love Songs is a 2001 Russian-made compilation CD of powerful jazz music of the romantic variety. This was released by GMG Records, listed as ООО «ГМГ-Компакт» elsewhere.

VA - Unforgettable: Jazz Love Songs (2001) {GMG}

01. Nina Simone - My Baby Just Cares For Me (3:37)
02. Frank Sinatra - Summer Wind (2:54)
03. Natalie Cole - L-O-V-E (2:33)
04. Ray Charles - Cry (3:31)
05. Ella Fitzgerald - All The Things You Are (3:18)
06. Louis Armstrong - What A Wonderful World (2:19)
07. Etta James - In My Diary (2:36)
08. Stan Getz & Joao Gilberto - Desafinado (4:14)
09. Blossom Dearie - Lover Man (2:48)
10. Nat King Cole - Let There Be Love (2:45)
11. Sarah Vaughan - Misty (3:03)
12. Louis Armstrong & Ella Fitzgerald - Under A Blanket Of Blue (4:19)
13. Billie Holiday - I Get A Kick Out Of You (5:40)
14. Ray Charles & Betty Carter - Baby It's Cold Outside (4:09)
15. Lou Rawls - Oh What A Beautiful Morning (4:33)
16. Dinah Washington - Unforgettable (2:44)

Exact Audio Copy V1.0 beta 3 from 29. August 2011

Отчёт EAC об извлечении, выполненном 14. апрель 2017, 11:14

VA / Unforgettable: Jazz Love Songs

Дисковод: ASUS DRW-1814BLT Adapter: 4 ID: 0

Режим чтения : Достоверность
Использование точного потока : Да
Отключение кэша аудио : Да
Использование указателей C2 : Нет

Коррекция смещения при чтении : 6
Способность читать области Lead-in и Lead-out : Нет
Заполнение пропущенных сэмплов тишиной : Да
Удаление блоков с тишиной в начале и конце : Нет
При вычислениях CRC использовались нулевые сэмплы : Да
Интерфейс : Встроенный Win32-интерфейс для Win NT/2000
Обработка зазоров : Добавлено к предыдущему треку

Выходной формат : Пользовательский кодировщик
Выбранный битрейт : 128 kBit/s
Качество : Высокий
Добавление ID3-тега : Нет
Утилита сжатия : C:\Program Files\Exact Audio Copy\Flac\flac.exe
Дополнительные параметры : -V -8 -T "Genre=%genre%" -T "Artist=%artist%" -T "Title=%title%" -T "Album=%albumtitle%" -T "Date=%year%" -T "Tracknumber=%tracknr%" -T "Comment=EAC1.0b2 FLAC -8" %source%


TOC извлечённого CD

Трек | Старт | Длительность | Начальный сектор | Конечный сектор
––––––––––––––––––––––––––––––––––-
1 | 0:00.00 | 3:37.40 | 0 | 16314
2 | 3:37.40 | 2:54.67 | 16315 | 29431
3 | 6:32.32 | 2:33.69 | 29432 | 40975
4 | 9:06.26 | 3:31.47 | 40976 | 56847
5 | 12:37.73 | 3:18.37 | 56848 | 71734
6 | 15:56.35 | 2:19.55 | 71735 | 82214
7 | 18:16.15 | 2:36.54 | 82215 | 93968
8 | 20:52.69 | 4:14.00 | 93969 | 113018
9 | 25:06.69 | 2:48.18 | 113019 | 125636
10 | 27:55.12 | 2:45.68 | 125637 | 138079
11 | 30:41.05 | 3:03.45 | 138080 | 151849
12 | 33:44.50 | 4:19.00 | 151850 | 171274
13 | 38:03.50 | 5:40.28 | 171275 | 196802
14 | 43:44.03 | 4:09.10 | 196803 | 215487
15 | 47:53.13 | 4:33.30 | 215488 | 235992
16 | 52:26.43 | 2:44.55 | 235993 | 248347


Трек 1

Имя файла C:\cuntfist\FLAC\VA - Unforgettable, Jazz Love Songs (2001) [FLAC] {GMG}\01 - My Baby Just Cares For Me.wav

Длина предзазора 0:00:02.00

Пиковый уровень 83.2 %
Скорость извлечения 4.8 X
Качество трека 100.0 %
CRC теста 3984B277
CRC копии 3984B277
Точность не определена (достоверность 1) [DB5D9531], AccurateRip вернул [4C6C54A8] (AR v2)
Копирование… OK

Трек 2

Имя файла C:\cuntfist\FLAC\VA - Unforgettable, Jazz Love Songs (2001) [FLAC] {GMG}\02 - Summer Wind.wav

Пиковый уровень 93.8 %
Скорость извлечения 5.0 X
Качество трека 100.0 %
CRC теста E447DB11
CRC копии E447DB11
Точность не определена (достоверность 1) [13246112], AccurateRip вернул [EE8297E3] (AR v2)
Копирование… OK

Трек 3

Имя файла C:\cuntfist\FLAC\VA - Unforgettable, Jazz Love Songs (2001) [FLAC] {GMG}\03 - L-O-V-E.wav

Пиковый уровень 85.2 %
Скорость извлечения 5.1 X
Качество трека 100.0 %
CRC теста D6C57E52
CRC копии D6C57E52
Точность не определена (достоверность 1) [4AF152ED], AccurateRip вернул [2ED61F6E] (AR v2)
Копирование… OK

Трек 4

Имя файла C:\cuntfist\FLAC\VA - Unforgettable, Jazz Love Songs (2001) [FLAC] {GMG}\04 - Cry.wav

Пиковый уровень 71.4 %
Скорость извлечения 5.8 X
Качество трека 100.0 %
CRC теста EAC84550
CRC копии EAC84550
Точность не определена (достоверность 1) [319482F1], AccurateRip вернул [C08549D9] (AR v2)
Копирование… OK

Трек 5

Имя файла C:\cuntfist\FLAC\VA - Unforgettable, Jazz Love Songs (2001) [FLAC] {GMG}\05 - All The things You Are.wav

Пиковый уровень 97.7 %
Скорость извлечения 6.0 X
Качество трека 100.0 %
CRC теста C9DDD672
CRC копии C9DDD672
Точность не определена (достоверность 1) [A98E79F3], AccurateRip вернул [AD68B148] (AR v2)
Копирование… OK

Трек 6

Имя файла C:\cuntfist\FLAC\VA - Unforgettable, Jazz Love Songs (2001) [FLAC] {GMG}\06 - What A Wonderful World.wav

Пиковый уровень 82.5 %
Скорость извлечения 5.9 X
Качество трека 100.0 %
CRC теста F6BD7152
CRC копии F6BD7152
Точность не определена (достоверность 1) [EA0054A2], AccurateRip вернул [E8DF1D24] (AR v2)
Копирование… OK

Трек 7

Имя файла C:\cuntfist\FLAC\VA - Unforgettable, Jazz Love Songs (2001) [FLAC] {GMG}\07 - In My Diary.wav

Пиковый уровень 63.3 %
Скорость извлечения 4.2 X
Качество трека 99.9 %
CRC теста 772D9B6C
CRC копии 772D9B6C
Точность не определена (достоверность 1) [9195A30F], AccurateRip вернул [5F4E642C] (AR v2)
Копирование… OK

Трек 8

Имя файла C:\cuntfist\FLAC\VA - Unforgettable, Jazz Love Songs (2001) [FLAC] {GMG}\08 - Desafinado.wav

Пиковый уровень 98.0 %
Скорость извлечения 6.9 X
Качество трека 100.0 %
CRC теста 22564833
CRC копии 22564833
Точность не определена (достоверность 1) [2DF3F1EC], AccurateRip вернул [A777F493] (AR v2)
Копирование… OK

Трек 9

Имя файла C:\cuntfist\FLAC\VA - Unforgettable, Jazz Love Songs (2001) [FLAC] {GMG}\09 - Lover Man.wav

Пиковый уровень 88.9 %
Скорость извлечения 6.8 X
Качество трека 100.0 %
CRC теста 8D8DB1E9
CRC копии 8D8DB1E9
Точность не определена (достоверность 1) [A2AFBF7F], AccurateRip вернул [82A37957] (AR v2)
Копирование… OK

Трек 10

Имя файла C:\cuntfist\FLAC\VA - Unforgettable, Jazz Love Songs (2001) [FLAC] {GMG}\10 - Let There Be Love.wav

Пиковый уровень 94.4 %
Скорость извлечения 7.1 X
Качество трека 100.0 %
CRC теста 1DB7CD31
CRC копии 1DB7CD31
Точность не определена (достоверность 1) [757A689E], AccurateRip вернул [610249A4] (AR v2)
Копирование… OK

Трек 11

Имя файла C:\cuntfist\FLAC\VA - Unforgettable, Jazz Love Songs (2001) [FLAC] {GMG}\11 - Misty.wav

Пиковый уровень 47.1 %
Скорость извлечения 5.1 X
Качество трека 99.9 %
CRC теста 2B6B46D0
CRC копии 2B6B46D0
Точность не определена (достоверность 1) [9BCEA718], AccurateRip вернул [726852B5] (AR v2)
Копирование… OK

Трек 12

Имя файла C:\cuntfist\FLAC\VA - Unforgettable, Jazz Love Songs (2001) [FLAC] {GMG}\12 - Under A Blanket Of Blue.wav

Пиковый уровень 83.7 %
Скорость извлечения 8.1 X
Качество трека 100.0 %
CRC теста 61EF2E50
CRC копии 61EF2E50
Точность не определена (достоверность 1) [CF91DB60], AccurateRip вернул [439FBEFF] (AR v2)
Копирование… OK

Трек 13

Имя файла C:\cuntfist\FLAC\VA - Unforgettable, Jazz Love Songs (2001) [FLAC] {GMG}\13 - I Get A Kick Out Of You.wav

Пиковый уровень 88.9 %
Скорость извлечения 8.7 X
Качество трека 100.0 %
CRC теста 923A6632
CRC копии 923A6632
Точность не определена (достоверность 1) [0F5D1BEE], AccurateRip вернул [AE1E8B59] (AR v2)
Копирование… OK

Трек 14

Имя файла C:\cuntfist\FLAC\VA - Unforgettable, Jazz Love Songs (2001) [FLAC] {GMG}\14 - Baby It's Cold Outside.wav

Пиковый уровень 80.0 %
Скорость извлечения 8.7 X
Качество трека 100.0 %
CRC теста C7869397
CRC копии C7869397
Точность не определена (достоверность 1) [E2DA5963], AccurateRip вернул [0C7FD758] (AR v2)
Копирование… OK

Трек 15

Имя файла C:\cuntfist\FLAC\VA - Unforgettable, Jazz Love Songs (2001) [FLAC] {GMG}\15 - Oh What A Beautiful Morning.wav

Пиковый уровень 100.0 %
Скорость извлечения 9.1 X
Качество трека 100.0 %
CRC теста 744F5217
CRC копии 744F5217
Точность не определена (достоверность 1) [10A3B4F5], AccurateRip вернул [EC8FC5DF] (AR v2)
Копирование… OK

Трек 16

Имя файла C:\cuntfist\FLAC\VA - Unforgettable, Jazz Love Songs (2001) [FLAC] {GMG}\16 - Unforgettable.wav

Пиковый уровень 94.3 %
Скорость извлечения 8.5 X
Качество трека 100.0 %
CRC теста 628F8E9B
CRC копии 628F8E9B
Точность не определена (достоверность 1) [0946E3C8], AccurateRip вернул [1D36F3D1] (AR v2)
Копирование… OK


Ни один трек не прошёл проверки на точность
В вашей базе может быть иной вариант штамповки диска

Ошибок не произошло

Конец отчёта

==== Контрольная сумма отчёта 8F506971264885A63659F9D3A09AB75334366B30327043F35F3DF1E1FC9D8405 ====


VA - Unforgettable: Jazz Love Songs (2001) {GMG}


Thank you to the original uploader.