Tags
Language
Tags

Uriah Heep - Conquest (1980) [2006, Japanese Paper Sleeve Mini-LP CD]

Posted By: BlondStyle
Uriah Heep - Conquest (1980) [2006, Japanese Paper Sleeve Mini-LP CD]

Uriah Heep - Conquest (1980) [2006, Japanese Paper Sleeve Mini-LP CD]
Rock, Hard Rock, AOR | EAC Rip | FLAC, Img+CUE+LOG+Scans (JPEG) | 01:01:06 | 495,48 Mb
Label: Sanctuary Midline/BMG Japan (Japan) | Cat.# BVCM-37739 | Released: 2006-07-29 (1980)
Uriah Heep - Conquest (1980) [2006, Japanese Paper Sleeve Mini-LP CD]

"Conquest" is the 13th album by British rock band Uriah Heep. It was released in 1980 (No U.S. release). 1979-80 was a period of change for Heep, with John Sloman taking over lead vocal duties, Lee Kerslake bowing out from behind the drumstool, and main songwriter Ken Hensley ultimately leaving the band. Taken together with the commercial rock sound of the album, this is the most contentious era of Uriah Heep's history, with many fans believing Conquest is the group's worst record. Despite this era being regarded in hindsight as something of a disaster by Hensley as well as Mick Box, the album did receive some positive reviews at the time, namely a five-star rating from Record Mirror and three-and-a-half stars from Geoff Barton in Sounds. It also sold well enough to crack the Top 40 of the UK album charts, whereas all three of the band's previous records with John Lawton had failed to chart in the UK at all. The original UK release came in a single, matte LP sleeve, stickered with 'Special 10th Anniversary Price £3.99', with the liner being heavy-stock card, complete with lyrics. It credits Trevor Bolder with vocals on "It Ain't Easy" but it is, in fact, Sloman. The album was never issued in North America and was difficult to find there even as an import. The cover photograph, taken by Martin Poole, is based on the famous image of the raising of the second flag at Iwo Jima.
~Wikipedia
Uriah Heep's first new album in almost two years, and their first, too, since the departure of vocalist John Lawton, was all but overlooked at the time of its release, and that despite Heep being very much in the forefront of the bands lionized by the then-prevalent New Wave or British Heavy Metal. Certainly, new vocalist John Sloman was cut in that mold, and if bandmates Mick Box, Chris Slade, Trevor Bolder, and Ken Hensley do sometimes seem a little uncertain about the newcomer's talents, it should also be noted that this is the freshest-sounding Heep album since the mid-'70s. No longer attempting to trade off former glories, the band is hard and sharp throughout, with the eight tracks averaging out around the five-minute mark, and all being designed according to what they could bring to the live show – which, at this time, was seething. The one-two punch of the opening "No Return" and "Imagination" certainly take no prisoners and, while Conquest would ultimately prove a false dawn (a very different lineup recorded Heep's next album, Abominog), at the time, fans could scarcely have asked for anything more.
~Review by Dave Thompson

Uriah Heep - Conquest (1980) [2006, Japanese Paper Sleeve Mini-LP CD]

Uriah Heep - Conquest (1980) [2006, Japanese Paper Sleeve Mini-LP CD]




Release of this album: 1980, February [LP Bronze, Cat.# BRONX 524, UK]
Release of this CD: 2006, July, 29 [CD Sanctuary Midline/BMG Japan (Japan), Cat.# BVCM-37739 / EAN 4988017641972]
℗&© 2004 Sanctuary Records Group Ltd.
Sanctuary Midline is a label of Sanctuary Records Group Ltd.
Manufactured by BMG Japan, Inc., Tokyo, Japan.
Made in Japan


Notes: Remastered (K2 24bit) Reissue with 5 Bonus Tracks. A part of "Uriah Heep Original Paper Sleeve Collection" series. Comes in a CD sized papersleeve album replica, with Obi-strip, printed inner-sleeve and insert of notes mostly in Japanese (also included English lyrics).

Credits:

Bass Guitar, Backing Vocals – Trevor Bolder
Design – Karl Bosley, Lindy Curry, Martin Poole
Drums [Staccato], Percussion – Chris Slade
Engineer [Assistant] – Darren Burn, David Kemp, Julian Cooper, Nick Rogers
Executive Producer – Gerry Bron
Guitar – Mick Box
Lead Vocals, Backing Vocals, Piano, Percussion – John Sloman
Producer – Uriah Heep
Producer, Engineer – John Gallen
Remastered By – Mike Brown
Remastered By, Reissue Producer – Robert M Corich
Vocoder, Organ, Piano, Guitar, Backing Vocals, Performer [Obx] – Ken Hensley


Tracklist:

01. No Return
02. Imagination
03. Feelings
04. Fools
05. Carry On
06. Won't Have To Wait Too Long
07. Out On The Street
08. It Ain't Easy
Bonus Tracks:
09. Love Stealer (Single A-Side)
10. Been Hurt (Single B-Side)
11. Think It Over (Single A-Side)
12. Lying (Out Take - Previously Unreleased)
13. Feelings (Live - Previously Unreleased)

Exact Audio Copy V1.3 from 2. September 2016

EAC extraction logfile from 1. September 2018, 10:36

Uriah Heep / Conquest (BVCM-37739)

Used drive : TSSTcorpCDDVDW SH-224GB Adapter: 1 ID: 0

Read mode : Secure
Utilize accurate stream : Yes
Defeat audio cache : Yes
Make use of C2 pointers : No

Read offset correction : 6
Overread into Lead-In and Lead-Out : No
Fill up missing offset samples with silence : Yes
Delete leading and trailing silent blocks : No
Null samples used in CRC calculations : Yes
Used interface : Native Win32 interface for Win NT & 2000

Used output format : User Defined Encoder
Selected bitrate : 128 kBit/s
Quality : High
Add ID3 tag : No
Command line compressor : C:\Program Files (x86)\Exact Audio Copy\FLAC\FLAC.EXE
Additional command line options : -V -8 -T "Date=%year%" -T "Genre=%genre%" %source%


TOC of the extracted CD

Track | Start | Length | Start sector | End sector
––––––––––––––––––––––––––––-
1 | 0:00.00 | 6:02.18 | 0 | 27167
2 | 6:02.18 | 5:48.70 | 27168 | 53337
3 | 11:51.13 | 5:25.01 | 53338 | 77713
4 | 17:16.14 | 5:01.02 | 77714 | 100290
5 | 22:17.16 | 3:55.58 | 100291 | 117973
6 | 26:12.74 | 4:51.21 | 117974 | 139819
7 | 31:04.20 | 5:51.45 | 139820 | 166189
8 | 36:55.65 | 5:47.22 | 166190 | 192236
9 | 42:43.12 | 3:27.53 | 192237 | 207814
10 | 46:10.65 | 3:57.08 | 207815 | 225597
11 | 50:07.73 | 3:33.53 | 225598 | 241625
12 | 53:41.51 | 4:40.17 | 241626 | 262642
13 | 58:21.68 | 2:44.09 | 262643 | 274951


Range status and errors

Selected range

Filename F:\ЕАС\rwa12\Uriah Heep - Conquest (BVCM-37739).wav

Peak level 98.8 %
Extraction speed 3.0 X
Range quality 100.0 %
Test CRC AB4C9E09
Copy CRC AB4C9E09
Copy OK

No errors occurred


AccurateRip summary

Track 1 accurately ripped (confidence 3) [4C43BBC3] (AR v1)
Track 2 accurately ripped (confidence 3) [A8B4FB0F] (AR v1)
Track 3 accurately ripped (confidence 3) [72BFA8B1] (AR v1)
Track 4 accurately ripped (confidence 3) [F4CB486C] (AR v1)
Track 5 accurately ripped (confidence 3) [D61BFAC7] (AR v1)
Track 6 accurately ripped (confidence 3) [90FB2A07] (AR v1)
Track 7 accurately ripped (confidence 3) [3DFED56A] (AR v1)
Track 8 accurately ripped (confidence 3) [E887C021] (AR v1)
Track 9 accurately ripped (confidence 3) [28BFDD5F] (AR v1)
Track 10 accurately ripped (confidence 3) [5A0ADAF3] (AR v1)
Track 11 accurately ripped (confidence 3) [A0D5899F] (AR v1)
Track 12 accurately ripped (confidence 3) [C8C912BF] (AR v1)
Track 13 accurately ripped (confidence 3) [C84FF563] (AR v1)

All tracks accurately ripped

End of status report

–– CUETools DB Plugin V2.1.6

[CTDB TOCID: JNBq9H9iDmkrHIQP65rzEusRpac-] found
Submit result: JNBq9H9iDmkrHIQP65rzEusRpac- has been confirmed
Track | CTDB Status
1 | ( 5/40) Accurately ripped
2 | ( 5/40) Accurately ripped
3 | ( 5/40) Accurately ripped
4 | ( 5/40) Accurately ripped
5 | ( 5/40) Accurately ripped
6 | ( 5/40) Accurately ripped
7 | ( 5/40) Accurately ripped
8 | ( 5/40) Accurately ripped
9 | ( 5/40) Accurately ripped
10 | ( 5/40) Accurately ripped
11 | ( 5/40) Accurately ripped
12 | ( 5/40) Accurately ripped
13 | ( 5/40) Accurately ripped


==== Log checksum B64BF7BF39AA38663F1F1A8A7E4993A2AA4F160421528C805B3A2C36CB4B3604 ====

––––––––––––––––––––––––––––––––––––––––
Analyzed: Uriah Heep / Conquest (BVCM-37739)
––––––––––––––––––––––––––––––––––––––––

DR Peak RMS Duration Track
––––––––––––––––––––––––––––––––––––––––
DR6 -0.10 dB -8.58 dB 6:02 01-No Return
DR8 -0.10 dB -10.28 dB 5:49 02-Imagination
DR7 -0.10 dB -8.22 dB 5:25 03-Feelings
DR6 -0.10 dB -9.09 dB 5:01 04-Fools
DR6 -0.10 dB -7.47 dB 3:56 05-Carry On
DR6 -0.10 dB -7.62 dB 4:51 06-Won't Have To Wait Too Long
DR8 -0.10 dB -12.00 dB 5:52 07-Out On The Street
DR7 -0.10 dB -9.96 dB 5:47 08-It Ain't Easy
DR7 -0.10 dB -8.84 dB 3:28 09-Love Stealer (Single A Side)
DR7 -0.10 dB -8.56 dB 3:57 10-Been Hurt (Single B Side)
DR6 -0.10 dB -8.18 dB 3:34 11-Think It Over (Single A Side)
DR7 -0.10 dB -9.25 dB 4:40 12-Lying (Out-Take)
DR8 -0.10 dB -8.72 dB 2:44 13-Feelings (Live)
––––––––––––––––––––––––––––––––––––––––

Number of tracks: 13
Official DR value: DR7

Samplerate: 44100 Hz
Channels: 2
Bits per sample: 16
Bitrate: 1002 kbps
Codec: FLAC
================================================================================

Thanks to rwa12

♫~Welcome To My Blog~♫

password: BlondStyle