Subcategories
Tags
Language
Tags

VA - 100 Italian Hits (4CD, 2018)

Posted By: ciklon5
VA - 100 Italian Hits (4CD, 2018)

VA - 100 Italian Hits (4CD, 2018)
FLAC (tracks+cue,log) | 4:59:53 | 1,46 Gb
Genre: Italian Vocal Pop, Ballad, Easy Listening / Label: Not Now Music

The years between the advent of rock and roll and the coming of the Beatles, 1955 to 1962, were some of the most glorious in the history of popular music, and, in America, major stars were created and everlasting songs written. It is fascinating to play 100 Italian Hits and hear what was happening in Italy at the same time. This collection contains 100 romantic singles, all of which made the Italian charts and many of which also became international successes, sometimes in the original Italian, but other times with English lyrics. The contents are likely to be very familiar to you.

Track List:
CD 1
01. Tony Renis - Quando, Quando, Quando
02. Mina - Nessuno
03. Adriano Celentano - 24.000 Baci
04. Caterina Valente - Personalitá
05. Claudio Villa - 'O Sole Mio
06. Sophia Loren - Felicita
07. Luigi Tenco - Mi Sono Innamorato Di Te
08. Nella Colombo - Lla Ri' Lli Ra'
09. Giorgio Gaber - Le Strade Di Notte
10. Milva - Violino Tzigano
11. Renato Rascel - Arrividerci Roma
12. Gino Paoli - Sassi
13. Carla Boni - Viale D'Autunno
14. Mario Lanza - Parlami D'Amore Mariù
15. Alida Chelli - Dalla Mia Finestra Sul Cortile
16. Roberto Murolo - Anema 'E Core
17. Ornela Vanoni - Cercami
18. Gianni Meccia - Il Pullover
19. Silvia Guidi - Qualcuno Mi Ama
20. Nico Fidenco - Lasciami Il Tuo Sorriso
21. Marisa Del Frate - Malinconico Autunno
22. Giorgio Gaber - Non Arrossire
23. Betty Curtis - Tango Del Mare
24. Marino Marini - Come Prima
25. Dino & His Orchestra Romano - Il Tuo Cuore

CD 2
01. Domenico Modugno - Nel Blu Dipinto Di Blu (Volare)
02. Cocki Mazzetti - Un Faccè
03. Fausto Papetti - La Dolce Vita
04. Milva - Tango Italiano
05. Adriano & I Ribelli Celentano - Stai Lontana Da Me
06. Nilla Pizzi - Colpevole
07. Giorgio Gaber - Una Fetta Di Limone
08. Carla Boni - Mambo Italiano
09. Gianni Meccia - Il Barrattolo
10. Nico Fidenco & Luiz Orquestra Enriquez - Su Nel Cielo
11. Donatella - L'Abbraccio
12. Franca Raimondi - Aprite Le Finestre
13. Little Tony - Princess
14. Umberto Bindi - Il Nostro Concerto (Our Concerto)
15. Dino & His Orchestra Romano - La Migliavacca
16. Gino Paoli - La Gatta
17. Nini Rosso - Ballata Della Tromba
18. Dalida - Itsi Bitsi Petit Bikini
19. Rita Pavone - La Partita Di Pallone
20. Mina - Eclisse Twist
21. Sophia Loren - Woman Of The River (Mambo Bacan)
22. Tony Dallara - Romantica
23. Flo Sandon's - Tipitipitipso
24. Betty Curtis - Ti Volgio Tanto Bene
25. Roberto Murolo - Torna A Surriento

CD 3
01. Adriano Celentano - Nata Per Me
02. Flo Sandon's - Non Dimenticar
03. Gino Paoli - Il Cielo In Una Stanza
04. Dalida - Bambino
05. Fausto Papetti - Estate Violenta
06. Vinicio - Tarantella Napoletana
07. Mina - Briciole Di Baci
08. Nicola Arigliano - Carina
09. Renato Rascel - Te Voglio Bene (Tanto Tanto)
10. Miranda Martino - Me Ne Infischio
11. Giorgio Gaber - La Ballata Del Cerutti
12. Nilla Pizzi - Grazie Dei Fior
13. Renato Carosone - Guaglione
14. Aurelio Fierro - 'A Pizza C'A Pummarda
15. Sophia Loren - Che M'È Mparato A Fa'
16. Rita Pavone - Amore Twist
17. Teddy Reno - 'A' Come Amore
18. Umberto Bindi - E'Vero
19. Luciano Tajoli - Buongiorno Tristezza
20. Jula De Palma - Tua
21. Gianni Morandi - Fatti Mandare Dalla Mamma A Prendere Il Latte
22. Fred Buscaglione - Eri Piccola Cosi
23. Maria Paris - Tuppe-Tuppe, Mariscià
24. Beniamino Gigli - Santa Lucia
25. Natalino Otto - Oho Aha (Ciao)

CD 4
01. Renato Carosone - Tu Vuò Fà L'Americano
02. Anna Maria - Il Segreto
03. Adriano Celentano - Buonasera Signorina
04. Sophia Loren - Bing! Bang! Bong!
05. Dino & His Orchestra Romano - La Bella Alcamo
06. Tonina Torricelli - Gondolì, Gondolà
07. Miranda Martino - Stasera Tornero
08. Gino Latilla - Tutte Le Mamme
09. Ornella Vanoni - Se Qualcuno Ti Dira
10. Edoardo Vianello - Il Capello
11. Gino Paoli - Senza Fine
12. Marino Marini - La Più Bella Del Mondo
13. Carlo Buti - Ritorna, Amor
14. Giorgio Consolini - Il Torrente
15. Milva - Stanotte Al Luna Park
16. Umberto Bindi - Arrivederci
17. Carla Boni - Come Giuda
18. Nico Fidenco - Legata A Un Granello Di Sabbia
19. Roberto Murolo - Serenata A Margellina
20. Maria Monti - Zitella Cha Cha Cha
21. Rocco Granata - Marina
22. Giorgio Gaber - Geneviève
23. Mina - Pesci Rossi
24. Gianni Meccia - L'Ultima Lettera
25. Mario Quartet Marini - Ciao Ciao Bambina (Piove)

Exact Audio Copy V1.3 from 2. September 2016

EAC extraction logfile from 18. November 2019, 11:58

Various Artists / 100 Italian Hits

Used drive : PLEXTOR PX-891SAF Adapter: 1 ID: 0

Read mode : Secure
Utilize accurate stream : Yes
Defeat audio cache : Yes
Make use of C2 pointers : No

Read offset correction : 6
Overread into Lead-In and Lead-Out : No
Fill up missing offset samples with silence : Yes
Delete leading and trailing silent blocks : No
Null samples used in CRC calculations : Yes
Used interface : Native Win32 interface for Win NT & 2000
Gap handling : Appended to previous track

Used output format : User Defined Encoder
Selected bitrate : 1024 kBit/s
Quality : High
Add ID3 tag : No
Command line compressor : C:\Program Files (x86)\Exact Audio Copy\Flac\flac.exe
Additional command line options : -8 -V -T "ARTIST=%artist%" -T "TITLE=%title%" -T "ALBUM=%albumtitle%" -T "DATE=%year%" -T "TRACKNUMBER=%tracknr%" -T "GENRE=%genre%" -T "PERFORMER=%albuminterpret%" -T "COMPOSER=%composer%" %haslyrics%–tag-from-file=LYRICS="%lyricsfile%"%haslyrics% -T "ALBUMARTIST=%albumartist%" -T "DISCNUMBER=%cdnumber%" -T "TOTALDISCS=%totalcds%" -T "TOTALTRACKS=%numtracks%" -T "COMMENT=%comment%" %source% -o %dest%


TOC of the extracted CD

Track | Start | Length | Start sector | End sector
––––––––––––––––––––––––––––-
1 | 0:00.00 | 3:06.70 | 0 | 14019
2 | 3:06.70 | 2:14.71 | 14020 | 24140
3 | 5:21.66 | 2:16.33 | 24141 | 34373
4 | 7:38.24 | 2:37.51 | 34374 | 46199
5 | 10:16.00 | 3:00.66 | 46200 | 59765
6 | 13:16.66 | 3:21.04 | 59766 | 74844
7 | 16:37.70 | 2:46.16 | 74845 | 87310
8 | 19:24.11 | 3:04.18 | 87311 | 101128
9 | 22:28.29 | 3:32.48 | 101129 | 117076
10 | 26:01.02 | 3:19.02 | 117077 | 132003
11 | 29:20.04 | 3:41.51 | 132004 | 148629
12 | 33:01.55 | 4:23.30 | 148630 | 168384
13 | 37:25.10 | 3:15.59 | 168385 | 183068
14 | 40:40.69 | 2:38.30 | 183069 | 194948
15 | 43:19.24 | 2:42.34 | 194949 | 207132
16 | 46:01.58 | 3:30.50 | 207133 | 222932
17 | 49:32.33 | 4:19.08 | 222933 | 242365
18 | 53:51.41 | 2:43.10 | 242366 | 254600
19 | 56:34.51 | 2:59.39 | 254601 | 268064
20 | 59:34.15 | 2:29.68 | 268065 | 279307
21 | 62:04.08 | 3:50.50 | 279308 | 296607
22 | 65:54.58 | 2:24.20 | 296608 | 307427
23 | 68:19.03 | 2:12.45 | 307428 | 317372
24 | 70:31.48 | 2:40.22 | 317373 | 329394
25 | 73:11.70 | 2:56.53 | 329395 | 342647


Track 1

Filename D:\#EAC new\#wav+flac\VA - 100 Italian Hits\cd 1\01. Tony Renis - Quando, Quando, Quando.wav

Pre-gap length 0:00:02.00

Peak level 98.4 %
Extraction speed 5.3 X
Track quality 100.0 %
Test CRC 6DA71FD4
Copy CRC 6DA71FD4
Accurately ripped (confidence 1) [100CDDD4] (AR v2)
Copy OK

Track 2

Filename D:\#EAC new\#wav+flac\VA - 100 Italian Hits\cd 1\02. Mina - Nessuno.wav

Pre-gap length 0:00:01.77

Peak level 98.3 %
Extraction speed 5.3 X
Track quality 100.0 %
Test CRC 6F82CEA9
Copy CRC 6F82CEA9
Accurately ripped (confidence 1) [2727EC5E] (AR v2)
Copy OK

Track 3

Filename D:\#EAC new\#wav+flac\VA - 100 Italian Hits\cd 1\03. Adriano Celentano - 24.000 Baci.wav

Pre-gap length 0:00:01.77

Peak level 98.3 %
Extraction speed 4.3 X
Track quality 99.9 %
Test CRC AB5DC9D6
Copy CRC AB5DC9D6
Accurately ripped (confidence 1) [ED96ACCF] (AR v2)
Copy OK

Track 4

Filename D:\#EAC new\#wav+flac\VA - 100 Italian Hits\cd 1\04. Caterina Valente - Personalitá.wav

Pre-gap length 0:00:01.77

Peak level 98.5 %
Extraction speed 4.7 X
Track quality 99.9 %
Test CRC 34EAF174
Copy CRC 34EAF174
Accurately ripped (confidence 1) [CB344DD2] (AR v2)
Copy OK

Track 5

Filename D:\#EAC new\#wav+flac\VA - 100 Italian Hits\cd 1\05. Claudio Villa - 'O Sole Mio.wav

Pre-gap length 0:00:01.77

Peak level 98.3 %
Extraction speed 6.5 X
Track quality 100.0 %
Test CRC 1F42E6B1
Copy CRC 1F42E6B1
Accurately ripped (confidence 1) [FC593940] (AR v2)
Copy OK

Track 6

Filename D:\#EAC new\#wav+flac\VA - 100 Italian Hits\cd 1\06. Sophia Loren - Felicita.wav

Pre-gap length 0:00:01.77

Peak level 98.3 %
Extraction speed 6.9 X
Track quality 100.0 %
Test CRC DD335C38
Copy CRC DD335C38
Accurately ripped (confidence 1) [82278B1B] (AR v2)
Copy OK

Track 7

Filename D:\#EAC new\#wav+flac\VA - 100 Italian Hits\cd 1\07. Luigi Tenco - Mi Sono Innamorato Di Te.wav

Pre-gap length 0:00:01.77

Peak level 98.3 %
Extraction speed 7.1 X
Track quality 100.0 %
Test CRC BBD1D138
Copy CRC BBD1D138
Accurately ripped (confidence 1) [4DF681D2] (AR v2)
Copy OK

Track 8

Filename D:\#EAC new\#wav+flac\VA - 100 Italian Hits\cd 1\08. Nella Colombo - Lla Ri' Lli Ra'.wav

Pre-gap length 0:00:01.77

Peak level 98.3 %
Extraction speed 5.8 X
Track quality 99.9 %
Test CRC 1244D389
Copy CRC 1244D389
Accurately ripped (confidence 1) [4E6234C2] (AR v2)
Copy OK

Track 9

Filename D:\#EAC new\#wav+flac\VA - 100 Italian Hits\cd 1\09. Giorgio Gaber - Le Strade Di Notte.wav

Pre-gap length 0:00:01.77

Peak level 98.4 %
Extraction speed 7.8 X
Track quality 100.0 %
Test CRC 0FA1701F
Copy CRC 0FA1701F
Accurately ripped (confidence 1) [AA6A6B05] (AR v2)
Copy OK

Track 10

Filename D:\#EAC new\#wav+flac\VA - 100 Italian Hits\cd 1\10. Milva - Violino Tzigano.wav

Pre-gap length 0:00:01.77

Peak level 98.3 %
Extraction speed 8.1 X
Track quality 100.0 %
Test CRC E597015D
Copy CRC E597015D
Accurately ripped (confidence 1) [60805AFB] (AR v2)
Copy OK

Track 11

Filename D:\#EAC new\#wav+flac\VA - 100 Italian Hits\cd 1\11. Renato Rascel - Arrividerci Roma.wav

Pre-gap length 0:00:01.77

Peak level 98.3 %
Extraction speed 8.4 X
Track quality 100.0 %
Test CRC 087D6619
Copy CRC 087D6619
Accurately ripped (confidence 1) [3FB4A7A4] (AR v2)
Copy OK

Track 12

Filename D:\#EAC new\#wav+flac\VA - 100 Italian Hits\cd 1\12. Gino Paoli - Sassi.wav

Pre-gap length 0:00:01.77

Peak level 98.3 %
Extraction speed 8.9 X
Track quality 100.0 %
Test CRC D498B3EF
Copy CRC D498B3EF
Accurately ripped (confidence 1) [BAC925DA] (AR v2)
Copy OK

Track 13

Filename D:\#EAC new\#wav+flac\VA - 100 Italian Hits\cd 1\13. Carla Boni - Viale D'Autunno.wav

Pre-gap length 0:00:01.77

Peak level 98.4 %
Extraction speed 8.9 X
Track quality 100.0 %
Test CRC D4B6E52C
Copy CRC D4B6E52C
Accurately ripped (confidence 1) [813D219F] (AR v2)
Copy OK

Track 14

Filename D:\#EAC new\#wav+flac\VA - 100 Italian Hits\cd 1\14. Mario Lanza - Parlami D'Amore Mariù.wav

Pre-gap length 0:00:01.77

Peak level 98.4 %
Extraction speed 8.7 X
Track quality 100.0 %
Test CRC 9268AE52
Copy CRC 9268AE52
Accurately ripped (confidence 1) [A956425D] (AR v2)
Copy OK

Track 15

Filename D:\#EAC new\#wav+flac\VA - 100 Italian Hits\cd 1\15. Alida Chelli - Dalla Mia Finestra Sul Cortile.wav

Pre-gap length 0:00:01.77

Peak level 98.4 %
Extraction speed 8.9 X
Track quality 100.0 %
Test CRC 92F20ED4
Copy CRC 92F20ED4
Accurately ripped (confidence 1) [5858F37A] (AR v2)
Copy OK

Track 16

Filename D:\#EAC new\#wav+flac\VA - 100 Italian Hits\cd 1\16. Roberto Murolo - Anema 'E Core.wav

Pre-gap length 0:00:01.77

Peak level 98.3 %
Extraction speed 9.6 X
Track quality 100.0 %
Test CRC 1C581C4B
Copy CRC 1C581C4B
Accurately ripped (confidence 1) [5139546E] (AR v2)
Copy OK

Track 17

Filename D:\#EAC new\#wav+flac\VA - 100 Italian Hits\cd 1\17. Ornela Vanoni - Cercami.wav

Pre-gap length 0:00:01.77

Peak level 98.3 %
Extraction speed 10.1 X
Track quality 100.0 %
Test CRC CD9C5FF7
Copy CRC CD9C5FF7
Accurately ripped (confidence 1) [1440FC72] (AR v2)
Copy OK

Track 18

Filename D:\#EAC new\#wav+flac\VA - 100 Italian Hits\cd 1\18. Gianni Meccia - Il Pullover.wav

Pre-gap length 0:00:01.77

Peak level 98.4 %
Extraction speed 9.6 X
Track quality 100.0 %
Test CRC C99435C3
Copy CRC C99435C3
Accurately ripped (confidence 1) [C67E283D] (AR v2)
Copy OK

Track 19

Filename D:\#EAC new\#wav+flac\VA - 100 Italian Hits\cd 1\19. Silvia Guidi - Qualcuno Mi Ama.wav

Pre-gap length 0:00:01.77

Peak level 98.3 %
Extraction speed 10.1 X
Track quality 100.0 %
Test CRC 6456EC3C
Copy CRC 6456EC3C
Accurately ripped (confidence 1) [2BCF6720] (AR v2)
Copy OK

Track 20

Filename D:\#EAC new\#wav+flac\VA - 100 Italian Hits\cd 1\20. Nico Fidenco - Lasciami Il Tuo Sorriso.wav

Pre-gap length 0:00:01.77

Peak level 98.3 %
Extraction speed 9.8 X
Track quality 100.0 %
Test CRC 2021C50B
Copy CRC 2021C50B
Accurately ripped (confidence 1) [DB9CF90A] (AR v2)
Copy OK

Track 21

Filename D:\#EAC new\#wav+flac\VA - 100 Italian Hits\cd 1\21. Marisa Del Frate - Malinconico Autunno.wav

Pre-gap length 0:00:01.77

Peak level 98.3 %
Extraction speed 10.7 X
Track quality 100.0 %
Test CRC 4FEA2812
Copy CRC 4FEA2812
Accurately ripped (confidence 1) [A09C0188] (AR v2)
Copy OK

Track 22

Filename D:\#EAC new\#wav+flac\VA - 100 Italian Hits\cd 1\22. Giorgio Gaber - Non Arrossire.wav

Pre-gap length 0:00:01.77

Peak level 98.3 %
Extraction speed 10.0 X
Track quality 100.0 %
Test CRC 4C55AE85
Copy CRC 4C55AE85
Accurately ripped (confidence 1) [C87CCBAE] (AR v2)
Copy OK

Track 23

Filename D:\#EAC new\#wav+flac\VA - 100 Italian Hits\cd 1\23. Betty Curtis - Tango Del Mare.wav

Pre-gap length 0:00:01.77

Peak level 98.3 %
Extraction speed 10.0 X
Track quality 100.0 %
Test CRC AD6C7691
Copy CRC AD6C7691
Accurately ripped (confidence 1) [3A0D1B75] (AR v2)
Copy OK

Track 24

Filename D:\#EAC new\#wav+flac\VA - 100 Italian Hits\cd 1\24. Marino Marini - Come Prima.wav

Pre-gap length 0:00:01.77

Peak level 98.3 %
Extraction speed 10.6 X
Track quality 100.0 %
Test CRC 857C7B76
Copy CRC 857C7B76
Accurately ripped (confidence 1) [21907B84] (AR v2)
Copy OK

Track 25

Filename D:\#EAC new\#wav+flac\VA - 100 Italian Hits\cd 1\25. Dino & His Orchestra Romano - Il Tuo Cuore.wav

Pre-gap length 0:00:01.77

Peak level 98.4 %
Extraction speed 10.8 X
Track quality 100.0 %
Test CRC 4F877E88
Copy CRC 4F877E88
Accurately ripped (confidence 1) [96C983CD] (AR v2)
Copy OK


All tracks accurately ripped

No errors occurred

End of status report

–– CUETools DB Plugin V2.1.6

[CTDB TOCID: 6wukvHnkDaMLzx0rwFcrhaNYHgY-] found
Submit result: 6wukvHnkDaMLzx0rwFcrhaNYHgY- has been confirmed
Track | CTDB Status
1 | (1/1) Accurately ripped
2 | (1/1) Accurately ripped
3 | (1/1) Accurately ripped
4 | (1/1) Accurately ripped
5 | (1/1) Accurately ripped
6 | (1/1) Accurately ripped
7 | (1/1) Accurately ripped
8 | (1/1) Accurately ripped
9 | (1/1) Accurately ripped
10 | (1/1) Accurately ripped
11 | (1/1) Accurately ripped
12 | (1/1) Accurately ripped
13 | (1/1) Accurately ripped
14 | (1/1) Accurately ripped
15 | (1/1) Accurately ripped
16 | (1/1) Accurately ripped
17 | (1/1) Accurately ripped
18 | (1/1) Accurately ripped
19 | (1/1) Accurately ripped
20 | (1/1) Accurately ripped
21 | (1/1) Accurately ripped
22 | (1/1) Accurately ripped
23 | (1/1) Accurately ripped
24 | (1/1) Accurately ripped
25 | (1/1) Accurately ripped


==== Log checksum CB2E9CFAA70C777055B56E6F258342074F1F9BC689D107D5DCC01D442D7130DC ====

––––––––––––––––––––––––––––––

Exact Audio Copy V1.3 from 2. September 2016

EAC extraction logfile from 18. November 2019, 11:58

Various Artists / 100 Italian Hits

Used drive : PLEXTOR PX-891SAF Adapter: 1 ID: 0

Read mode : Secure
Utilize accurate stream : Yes
Defeat audio cache : Yes
Make use of C2 pointers : No

Read offset correction : 6
Overread into Lead-In and Lead-Out : No
Fill up missing offset samples with silence : Yes
Delete leading and trailing silent blocks : No
Null samples used in CRC calculations : Yes
Used interface : Native Win32 interface for Win NT & 2000
Gap handling : Appended to previous track

Used output format : User Defined Encoder
Selected bitrate : 1024 kBit/s
Quality : High
Add ID3 tag : No
Command line compressor : C:\Program Files (x86)\Exact Audio Copy\Flac\flac.exe
Additional command line options : -8 -V -T "ARTIST=%artist%" -T "TITLE=%title%" -T "ALBUM=%albumtitle%" -T "DATE=%year%" -T "TRACKNUMBER=%tracknr%" -T "GENRE=%genre%" -T "PERFORMER=%albuminterpret%" -T "COMPOSER=%composer%" %haslyrics%–tag-from-file=LYRICS="%lyricsfile%"%haslyrics% -T "ALBUMARTIST=%albumartist%" -T "DISCNUMBER=%cdnumber%" -T "TOTALDISCS=%totalcds%" -T "TOTALTRACKS=%numtracks%" -T "COMMENT=%comment%" %source% -o %dest%


TOC of the extracted CD

Track | Start | Length | Start sector | End sector
––––––––––––––––––––––––––––-
1 | 0:00.00 | 3:06.70 | 0 | 14019
2 | 3:06.70 | 2:14.71 | 14020 | 24140
3 | 5:21.66 | 2:16.33 | 24141 | 34373
4 | 7:38.24 | 2:37.51 | 34374 | 46199
5 | 10:16.00 | 3:00.66 | 46200 | 59765
6 | 13:16.66 | 3:21.04 | 59766 | 74844
7 | 16:37.70 | 2:46.16 | 74845 | 87310
8 | 19:24.11 | 3:04.18 | 87311 | 101128
9 | 22:28.29 | 3:32.48 | 101129 | 117076
10 | 26:01.02 | 3:19.02 | 117077 | 132003
11 | 29:20.04 | 3:41.51 | 132004 | 148629
12 | 33:01.55 | 4:23.30 | 148630 | 168384
13 | 37:25.10 | 3:15.59 | 168385 | 183068
14 | 40:40.69 | 2:38.30 | 183069 | 194948
15 | 43:19.24 | 2:42.34 | 194949 | 207132
16 | 46:01.58 | 3:30.50 | 207133 | 222932
17 | 49:32.33 | 4:19.08 | 222933 | 242365
18 | 53:51.41 | 2:43.10 | 242366 | 254600
19 | 56:34.51 | 2:59.39 | 254601 | 268064
20 | 59:34.15 | 2:29.68 | 268065 | 279307
21 | 62:04.08 | 3:50.50 | 279308 | 296607
22 | 65:54.58 | 2:24.20 | 296608 | 307427
23 | 68:19.03 | 2:12.45 | 307428 | 317372
24 | 70:31.48 | 2:40.22 | 317373 | 329394
25 | 73:11.70 | 2:56.53 | 329395 | 342647


Track 1

Filename D:\#EAC new\#wav+flac\VA - 100 Italian Hits\cd 1\01. Tony Renis - Quando, Quando, Quando.wav

Pre-gap length 0:00:02.00

Peak level 98.4 %
Extraction speed 5.3 X
Track quality 100.0 %
Test CRC 6DA71FD4
Copy CRC 6DA71FD4
Accurately ripped (confidence 1) [100CDDD4] (AR v2)
Copy OK

Track 2

Filename D:\#EAC new\#wav+flac\VA - 100 Italian Hits\cd 1\02. Mina - Nessuno.wav

Pre-gap length 0:00:01.77

Peak level 98.3 %
Extraction speed 5.3 X
Track quality 100.0 %
Test CRC 6F82CEA9
Copy CRC 6F82CEA9
Accurately ripped (confidence 1) [2727EC5E] (AR v2)
Copy OK

Track 3

Filename D:\#EAC new\#wav+flac\VA - 100 Italian Hits\cd 1\03. Adriano Celentano - 24.000 Baci.wav

Pre-gap length 0:00:01.77

Peak level 98.3 %
Extraction speed 4.3 X
Track quality 99.9 %
Test CRC AB5DC9D6
Copy CRC AB5DC9D6
Accurately ripped (confidence 1) [ED96ACCF] (AR v2)
Copy OK

Track 4

Filename D:\#EAC new\#wav+flac\VA - 100 Italian Hits\cd 1\04. Caterina Valente - Personalitá.wav

Pre-gap length 0:00:01.77

Peak level 98.5 %
Extraction speed 4.7 X
Track quality 99.9 %
Test CRC 34EAF174
Copy CRC 34EAF174
Accurately ripped (confidence 1) [CB344DD2] (AR v2)
Copy OK

Track 5

Filename D:\#EAC new\#wav+flac\VA - 100 Italian Hits\cd 1\05. Claudio Villa - 'O Sole Mio.wav

Pre-gap length 0:00:01.77

Peak level 98.3 %
Extraction speed 6.5 X
Track quality 100.0 %
Test CRC 1F42E6B1
Copy CRC 1F42E6B1
Accurately ripped (confidence 1) [FC593940] (AR v2)
Copy OK

Track 6

Filename D:\#EAC new\#wav+flac\VA - 100 Italian Hits\cd 1\06. Sophia Loren - Felicita.wav

Pre-gap length 0:00:01.77

Peak level 98.3 %
Extraction speed 6.9 X
Track quality 100.0 %
Test CRC DD335C38
Copy CRC DD335C38
Accurately ripped (confidence 1) [82278B1B] (AR v2)
Copy OK

Track 7

Filename D:\#EAC new\#wav+flac\VA - 100 Italian Hits\cd 1\07. Luigi Tenco - Mi Sono Innamorato Di Te.wav

Pre-gap length 0:00:01.77

Peak level 98.3 %
Extraction speed 7.1 X
Track quality 100.0 %
Test CRC BBD1D138
Copy CRC BBD1D138
Accurately ripped (confidence 1) [4DF681D2] (AR v2)
Copy OK

Track 8

Filename D:\#EAC new\#wav+flac\VA - 100 Italian Hits\cd 1\08. Nella Colombo - Lla Ri' Lli Ra'.wav

Pre-gap length 0:00:01.77

Peak level 98.3 %
Extraction speed 5.8 X
Track quality 99.9 %
Test CRC 1244D389
Copy CRC 1244D389
Accurately ripped (confidence 1) [4E6234C2] (AR v2)
Copy OK

Track 9

Filename D:\#EAC new\#wav+flac\VA - 100 Italian Hits\cd 1\09. Giorgio Gaber - Le Strade Di Notte.wav

Pre-gap length 0:00:01.77

Peak level 98.4 %
Extraction speed 7.8 X
Track quality 100.0 %
Test CRC 0FA1701F
Copy CRC 0FA1701F
Accurately ripped (confidence 1) [AA6A6B05] (AR v2)
Copy OK

Track 10

Filename D:\#EAC new\#wav+flac\VA - 100 Italian Hits\cd 1\10. Milva - Violino Tzigano.wav

Pre-gap length 0:00:01.77

Peak level 98.3 %
Extraction speed 8.1 X
Track quality 100.0 %
Test CRC E597015D
Copy CRC E597015D
Accurately ripped (confidence 1) [60805AFB] (AR v2)
Copy OK

Track 11

Filename D:\#EAC new\#wav+flac\VA - 100 Italian Hits\cd 1\11. Renato Rascel - Arrividerci Roma.wav

Pre-gap length 0:00:01.77

Peak level 98.3 %
Extraction speed 8.4 X
Track quality 100.0 %
Test CRC 087D6619
Copy CRC 087D6619
Accurately ripped (confidence 1) [3FB4A7A4] (AR v2)
Copy OK

Track 12

Filename D:\#EAC new\#wav+flac\VA - 100 Italian Hits\cd 1\12. Gino Paoli - Sassi.wav

Pre-gap length 0:00:01.77

Peak level 98.3 %
Extraction speed 8.9 X
Track quality 100.0 %
Test CRC D498B3EF
Copy CRC D498B3EF
Accurately ripped (confidence 1) [BAC925DA] (AR v2)
Copy OK

Track 13

Filename D:\#EAC new\#wav+flac\VA - 100 Italian Hits\cd 1\13. Carla Boni - Viale D'Autunno.wav

Pre-gap length 0:00:01.77

Peak level 98.4 %
Extraction speed 8.9 X
Track quality 100.0 %
Test CRC D4B6E52C
Copy CRC D4B6E52C
Accurately ripped (confidence 1) [813D219F] (AR v2)
Copy OK

Track 14

Filename D:\#EAC new\#wav+flac\VA - 100 Italian Hits\cd 1\14. Mario Lanza - Parlami D'Amore Mariù.wav

Pre-gap length 0:00:01.77

Peak level 98.4 %
Extraction speed 8.7 X
Track quality 100.0 %
Test CRC 9268AE52
Copy CRC 9268AE52
Accurately ripped (confidence 1) [A956425D] (AR v2)
Copy OK

Track 15

Filename D:\#EAC new\#wav+flac\VA - 100 Italian Hits\cd 1\15. Alida Chelli - Dalla Mia Finestra Sul Cortile.wav

Pre-gap length 0:00:01.77

Peak level 98.4 %
Extraction speed 8.9 X
Track quality 100.0 %
Test CRC 92F20ED4
Copy CRC 92F20ED4
Accurately ripped (confidence 1) [5858F37A] (AR v2)
Copy OK

Track 16

Filename D:\#EAC new\#wav+flac\VA - 100 Italian Hits\cd 1\16. Roberto Murolo - Anema 'E Core.wav

Pre-gap length 0:00:01.77

Peak level 98.3 %
Extraction speed 9.6 X
Track quality 100.0 %
Test CRC 1C581C4B
Copy CRC 1C581C4B
Accurately ripped (confidence 1) [5139546E] (AR v2)
Copy OK

Track 17

Filename D:\#EAC new\#wav+flac\VA - 100 Italian Hits\cd 1\17. Ornela Vanoni - Cercami.wav

Pre-gap length 0:00:01.77

Peak level 98.3 %
Extraction speed 10.1 X
Track quality 100.0 %
Test CRC CD9C5FF7
Copy CRC CD9C5FF7
Accurately ripped (confidence 1) [1440FC72] (AR v2)
Copy OK

Track 18

Filename D:\#EAC new\#wav+flac\VA - 100 Italian Hits\cd 1\18. Gianni Meccia - Il Pullover.wav

Pre-gap length 0:00:01.77

Peak level 98.4 %
Extraction speed 9.6 X
Track quality 100.0 %
Test CRC C99435C3
Copy CRC C99435C3
Accurately ripped (confidence 1) [C67E283D] (AR v2)
Copy OK

Track 19

Filename D:\#EAC new\#wav+flac\VA - 100 Italian Hits\cd 1\19. Silvia Guidi - Qualcuno Mi Ama.wav

Pre-gap length 0:00:01.77

Peak level 98.3 %
Extraction speed 10.1 X
Track quality 100.0 %
Test CRC 6456EC3C
Copy CRC 6456EC3C
Accurately ripped (confidence 1) [2BCF6720] (AR v2)
Copy OK

Track 20

Filename D:\#EAC new\#wav+flac\VA - 100 Italian Hits\cd 1\20. Nico Fidenco - Lasciami Il Tuo Sorriso.wav

Pre-gap length 0:00:01.77

Peak level 98.3 %
Extraction speed 9.8 X
Track quality 100.0 %
Test CRC 2021C50B
Copy CRC 2021C50B
Accurately ripped (confidence 1) [DB9CF90A] (AR v2)
Copy OK

Track 21

Filename D:\#EAC new\#wav+flac\VA - 100 Italian Hits\cd 1\21. Marisa Del Frate - Malinconico Autunno.wav

Pre-gap length 0:00:01.77

Peak level 98.3 %
Extraction speed 10.7 X
Track quality 100.0 %
Test CRC 4FEA2812
Copy CRC 4FEA2812
Accurately ripped (confidence 1) [A09C0188] (AR v2)
Copy OK

Track 22

Filename D:\#EAC new\#wav+flac\VA - 100 Italian Hits\cd 1\22. Giorgio Gaber - Non Arrossire.wav

Pre-gap length 0:00:01.77

Peak level 98.3 %
Extraction speed 10.0 X
Track quality 100.0 %
Test CRC 4C55AE85
Copy CRC 4C55AE85
Accurately ripped (confidence 1) [C87CCBAE] (AR v2)
Copy OK

Track 23

Filename D:\#EAC new\#wav+flac\VA - 100 Italian Hits\cd 1\23. Betty Curtis - Tango Del Mare.wav

Pre-gap length 0:00:01.77

Peak level 98.3 %
Extraction speed 10.0 X
Track quality 100.0 %
Test CRC AD6C7691
Copy CRC AD6C7691
Accurately ripped (confidence 1) [3A0D1B75] (AR v2)
Copy OK

Track 24

Filename D:\#EAC new\#wav+flac\VA - 100 Italian Hits\cd 1\24. Marino Marini - Come Prima.wav

Pre-gap length 0:00:01.77

Peak level 98.3 %
Extraction speed 10.6 X
Track quality 100.0 %
Test CRC 857C7B76
Copy CRC 857C7B76
Accurately ripped (confidence 1) [21907B84] (AR v2)
Copy OK

Track 25

Filename D:\#EAC new\#wav+flac\VA - 100 Italian Hits\cd 1\25. Dino & His Orchestra Romano - Il Tuo Cuore.wav

Pre-gap length 0:00:01.77

Peak level 98.4 %
Extraction speed 10.8 X
Track quality 100.0 %
Test CRC 4F877E88
Copy CRC 4F877E88
Accurately ripped (confidence 1) [96C983CD] (AR v2)
Copy OK


All tracks accurately ripped

No errors occurred

End of status report

–– CUETools DB Plugin V2.1.6

[CTDB TOCID: 6wukvHnkDaMLzx0rwFcrhaNYHgY-] found
Submit result: 6wukvHnkDaMLzx0rwFcrhaNYHgY- has been confirmed
Track | CTDB Status
1 | (1/1) Accurately ripped
2 | (1/1) Accurately ripped
3 | (1/1) Accurately ripped
4 | (1/1) Accurately ripped
5 | (1/1) Accurately ripped
6 | (1/1) Accurately ripped
7 | (1/1) Accurately ripped
8 | (1/1) Accurately ripped
9 | (1/1) Accurately ripped
10 | (1/1) Accurately ripped
11 | (1/1) Accurately ripped
12 | (1/1) Accurately ripped
13 | (1/1) Accurately ripped
14 | (1/1) Accurately ripped
15 | (1/1) Accurately ripped
16 | (1/1) Accurately ripped
17 | (1/1) Accurately ripped
18 | (1/1) Accurately ripped
19 | (1/1) Accurately ripped
20 | (1/1) Accurately ripped
21 | (1/1) Accurately ripped
22 | (1/1) Accurately ripped
23 | (1/1) Accurately ripped
24 | (1/1) Accurately ripped
25 | (1/1) Accurately ripped


==== Log checksum CB2E9CFAA70C777055B56E6F258342074F1F9BC689D107D5DCC01D442D7130DC ====

Exact Audio Copy V1.3 from 2. September 2016

EAC extraction logfile from 18. November 2019, 12:24

Various Artists / 100 Italian Hits

Used drive : PLEXTOR PX-891SAF Adapter: 1 ID: 0

Read mode : Secure
Utilize accurate stream : Yes
Defeat audio cache : Yes
Make use of C2 pointers : No

Read offset correction : 6
Overread into Lead-In and Lead-Out : No
Fill up missing offset samples with silence : Yes
Delete leading and trailing silent blocks : No
Null samples used in CRC calculations : Yes
Used interface : Native Win32 interface for Win NT & 2000
Gap handling : Appended to previous track

Used output format : User Defined Encoder
Selected bitrate : 1024 kBit/s
Quality : High
Add ID3 tag : No
Command line compressor : C:\Program Files (x86)\Exact Audio Copy\Flac\flac.exe
Additional command line options : -8 -V -T "ARTIST=%artist%" -T "TITLE=%title%" -T "ALBUM=%albumtitle%" -T "DATE=%year%" -T "TRACKNUMBER=%tracknr%" -T "GENRE=%genre%" -T "PERFORMER=%albuminterpret%" -T "COMPOSER=%composer%" %haslyrics%–tag-from-file=LYRICS="%lyricsfile%"%haslyrics% -T "ALBUMARTIST=%albumartist%" -T "DISCNUMBER=%cdnumber%" -T "TOTALDISCS=%totalcds%" -T "TOTALTRACKS=%numtracks%" -T "COMMENT=%comment%" %source% -o %dest%


TOC of the extracted CD

Track | Start | Length | Start sector | End sector
––––––––––––––––––––––––––––-
1 | 0:00.00 | 3:27.08 | 0 | 15532
2 | 3:27.08 | 2:27.48 | 15533 | 26605
3 | 5:54.56 | 2:33.38 | 26606 | 38118
4 | 8:28.19 | 4:30.32 | 38119 | 58400
5 | 12:58.51 | 2:13.57 | 58401 | 68432
6 | 15:12.33 | 4:43.13 | 68433 | 89670
7 | 19:55.46 | 1:39.07 | 89671 | 97102
8 | 21:34.53 | 2:23.34 | 97103 | 107861
9 | 23:58.12 | 3:05.08 | 107862 | 121744
10 | 27:03.20 | 2:34.37 | 121745 | 133331
11 | 29:37.57 | 3:31.14 | 133332 | 149170
12 | 33:08.71 | 2:35.27 | 149171 | 160822
13 | 35:44.23 | 1:52.12 | 160823 | 169234
14 | 37:36.35 | 5:26.68 | 169235 | 193752
15 | 43:03.28 | 2:29.56 | 193753 | 204983
16 | 45:33.09 | 2:20.73 | 204984 | 215556
17 | 47:54.07 | 2:54.25 | 215557 | 228631
18 | 50:48.32 | 2:18.15 | 228632 | 238996
19 | 53:06.47 | 2:11.48 | 238997 | 248869
20 | 55:18.20 | 2:45.26 | 248870 | 261270
21 | 58:03.46 | 3:27.24 | 261271 | 276819
22 | 61:30.70 | 3:17.30 | 276820 | 291624
23 | 64:48.25 | 2:58.13 | 291625 | 304987
24 | 67:46.38 | 3:04.49 | 304988 | 318836
25 | 70:51.12 | 1:51.07 | 318837 | 327168


Track 1

Filename D:\#EAC new\#wav+flac\VA - 100 Italian Hits\cd 2\01. Domenico Modugno - Nel Blu Dipinto Di Blu (Volare).wav

Pre-gap length 0:00:02.00

Peak level 98.3 %
Extraction speed 5.2 X
Track quality 100.0 %
Test CRC 7E2BB183
Copy CRC 7E2BB183
Accurately ripped (confidence 1) [39D679AD] (AR v2)
Copy OK

Track 2

Filename D:\#EAC new\#wav+flac\VA - 100 Italian Hits\cd 2\02. Cocki Mazzetti - Un Faccè.wav

Pre-gap length 0:00:01.77

Peak level 98.2 %
Extraction speed 5.3 X
Track quality 100.0 %
Test CRC 348ED090
Copy CRC 348ED090
Accurately ripped (confidence 1) [9983E4EA] (AR v2)
Copy OK

Track 3

Filename D:\#EAC new\#wav+flac\VA - 100 Italian Hits\cd 2\03. Fausto Papetti - La Dolce Vita.wav

Pre-gap length 0:00:01.77

Peak level 98.3 %
Extraction speed 5.6 X
Track quality 100.0 %
Test CRC 4D551AD0
Copy CRC 4D551AD0
Accurately ripped (confidence 1) [51DB1438] (AR v2)
Copy OK

Track 4

Filename D:\#EAC new\#wav+flac\VA - 100 Italian Hits\cd 2\04. Milva - Tango Italiano.wav

Pre-gap length 0:00:01.77

Peak level 98.3 %
Extraction speed 6.5 X
Track quality 100.0 %
Test CRC 9D2CBF81
Copy CRC 9D2CBF81
Accurately ripped (confidence 1) [6CDCAFD0] (AR v2)
Copy OK

Track 5

Filename D:\#EAC new\#wav+flac\VA - 100 Italian Hits\cd 2\05. Adriano & I Ribelli Celentano - Stai Lontana Da Me.wav

Pre-gap length 0:00:01.77

Peak level 98.3 %
Extraction speed 4.5 X
Track quality 99.9 %
Test CRC 4406CEE4
Copy CRC 4406CEE4
Accurately ripped (confidence 1) [DD7E78D6] (AR v2)
Copy OK

Track 6

Filename D:\#EAC new\#wav+flac\VA - 100 Italian Hits\cd 2\06. Nilla Pizzi - Colpevole.wav

Pre-gap length 0:00:01.77

Peak level 98.3 %
Extraction speed 6.1 X
Track quality 99.9 %
Test CRC C0122B13
Copy CRC C0122B13
Accurately ripped (confidence 1) [ED8C12D2] (AR v2)
Copy OK

Track 7

Filename D:\#EAC new\#wav+flac\VA - 100 Italian Hits\cd 2\07. Giorgio Gaber - Una Fetta Di Limone.wav

Pre-gap length 0:00:01.77

Peak level 98.3 %
Extraction speed 6.3 X
Track quality 100.0 %
Test CRC C3C3BEDA
Copy CRC C3C3BEDA
Accurately ripped (confidence 1) [F9A81E71] (AR v2)
Copy OK

Track 8

Filename D:\#EAC new\#wav+flac\VA - 100 Italian Hits\cd 2\08. Carla Boni - Mambo Italiano.wav

Pre-gap length 0:00:01.77

Peak level 98.3 %
Extraction speed 6.9 X
Track quality 100.0 %
Test CRC ACA3BD89
Copy CRC ACA3BD89
Accurately ripped (confidence 1) [3F4669FE] (AR v2)
Copy OK

Track 9

Filename D:\#EAC new\#wav+flac\VA - 100 Italian Hits\cd 2\09. Gianni Meccia - Il Barrattolo.wav

Pre-gap length 0:00:01.77

Peak level 98.3 %
Extraction speed 7.5 X
Track quality 100.0 %
Test CRC 6C0B21FD
Copy CRC 6C0B21FD
Accurately ripped (confidence 1) [E9781A3B] (AR v2)
Copy OK

Track 10

Filename D:\#EAC new\#wav+flac\VA - 100 Italian Hits\cd 2\10. Nico Fidenco & Luiz Orquestra Enriquez - Su Nel Cielo.wav

Pre-gap length 0:00:01.77

Peak level 98.5 %
Extraction speed 7.5 X
Track quality 100.0 %
Test CRC 0985BB14
Copy CRC 0985BB14
Accurately ripped (confidence 1) [A43D44A6] (AR v2)
Copy OK

Track 11

Filename D:\#EAC new\#wav+flac\VA - 100 Italian Hits\cd 2\11. Donatella - L'Abbraccio.wav

Pre-gap length 0:00:01.77

Peak level 98.3 %
Extraction speed 8.1 X
Track quality 100.0 %
Test CRC 2792BD95
Copy CRC 2792BD95
Accurately ripped (confidence 1) [E4558C24] (AR v2)
Copy OK

Track 12

Filename D:\#EAC new\#wav+flac\VA - 100 Italian Hits\cd 2\12. Franca Raimondi - Aprite Le Finestre.wav

Pre-gap length 0:00:01.77

Peak level 98.3 %
Extraction speed 6.0 X
Track quality 99.9 %
Test CRC E16C677C
Copy CRC E16C677C
Accurately ripped (confidence 1) [24198A13] (AR v2)
Copy OK

Track 13

Filename D:\#EAC new\#wav+flac\VA - 100 Italian Hits\cd 2\13. Little Tony - Princess.wav

Pre-gap length 0:00:01.77

Peak level 98.3 %
Extraction speed 7.6 X
Track quality 100.0 %
Test CRC 0DC583AE
Copy CRC 0DC583AE
Accurately ripped (confidence 1) [C79F25A3] (AR v2)
Copy OK

Track 14

Filename D:\#EAC new\#wav+flac\VA - 100 Italian Hits\cd 2\14. Umberto Bindi - Il Nostro Concerto (Our Concerto).wav

Pre-gap length 0:00:01.77

Peak level 98.3 %
Extraction speed 9.3 X
Track quality 100.0 %
Test CRC DB8222D7
Copy CRC DB8222D7
Accurately ripped (confidence 1) [510BBE6F] (AR v2)
Copy OK

Track 15

Filename D:\#EAC new\#wav+flac\VA - 100 Italian Hits\cd 2\15. Dino & His Orchestra Romano - La Migliavacca.wav

Pre-gap length 0:00:01.77

Peak level 98.3 %
Extraction speed 6.5 X
Track quality 99.9 %
Test CRC 98DF04F8
Copy CRC 98DF04F8
Accurately ripped (confidence 1) [A3DD6261] (AR v2)
Copy OK

Track 16

Filename D:\#EAC new\#wav+flac\VA - 100 Italian Hits\cd 2\16. Gino Paoli - La Gatta.wav

Pre-gap length 0:00:01.77

Peak level 98.3 %
Extraction speed 8.6 X
Track quality 100.0 %
Test CRC 63296BFD
Copy CRC 63296BFD
Accurately ripped (confidence 1) [4CEB61F1] (AR v2)
Copy OK

Track 17

Filename D:\#EAC new\#wav+flac\VA - 100 Italian Hits\cd 2\17. Nini Rosso - Ballata Della Tromba.wav

Pre-gap length 0:00:01.77

Peak level 98.3 %
Extraction speed 9.2 X
Track quality 100.0 %
Test CRC 9F9D70B2
Copy CRC 9F9D70B2
Accurately ripped (confidence 1) [04196223] (AR v2)
Copy OK

Track 18

Filename D:\#EAC new\#wav+flac\VA - 100 Italian Hits\cd 2\18. Dalida - Itsi Bitsi Petit Bikini.wav

Pre-gap length 0:00:01.77

Peak level 98.3 %
Extraction speed 9.0 X
Track quality 100.0 %
Test CRC 92F32E17
Copy CRC 92F32E17
Accurately ripped (confidence 1) [048C5F38] (AR v2)
Copy OK

Track 19

Filename D:\#EAC new\#wav+flac\VA - 100 Italian Hits\cd 2\19. Rita Pavone - La Partita Di Pallone.wav

Pre-gap length 0:00:01.77

Peak level 98.6 %
Extraction speed 9.1 X
Track quality 100.0 %
Test CRC 4CB0B75C
Copy CRC 4CB0B75C
Accurately ripped (confidence 1) [87637B0C] (AR v2)
Copy OK

Track 20

Filename D:\#EAC new\#wav+flac\VA - 100 Italian Hits\cd 2\20. Mina - Eclisse Twist.wav

Pre-gap length 0:00:01.77

Peak level 98.3 %
Extraction speed 7.2 X
Track quality 99.9 %
Test CRC 331F4463
Copy CRC 331F4463
Accurately ripped (confidence 1) [52418C91] (AR v2)
Copy OK

Track 21

Filename D:\#EAC new\#wav+flac\VA - 100 Italian Hits\cd 2\21. Sophia Loren - Woman Of The River (Mambo Bacan).wav

Pre-gap length 0:00:01.77

Peak level 98.3 %
Extraction speed 10.0 X
Track quality 100.0 %
Test CRC 0F721ED6
Copy CRC 0F721ED6
Accurately ripped (confidence 1) [6006A791] (AR v2)
Copy OK

Track 22

Filename D:\#EAC new\#wav+flac\VA - 100 Italian Hits\cd 2\22. Tony Dallara - Romantica.wav

Pre-gap length 0:00:01.77

Peak level 98.3 %
Extraction speed 10.2 X
Track quality 100.0 %
Test CRC 55E78EFA
Copy CRC 55E78EFA
Accurately ripped (confidence 1) [903A153C] (AR v2)
Copy OK

Track 23

Filename D:\#EAC new\#wav+flac\VA - 100 Italian Hits\cd 2\23. Flo Sandon's - Tipitipitipso.wav

Pre-gap length 0:00:01.77

Peak level 98.3 %
Extraction speed 10.3 X
Track quality 100.0 %
Test CRC 476071EA
Copy CRC 476071EA
Accurately ripped (confidence 1) [6EEA6284] (AR v2)
Copy OK

Track 24

Filename D:\#EAC new\#wav+flac\VA - 100 Italian Hits\cd 2\24. Betty Curtis - Ti Volgio Tanto Bene.wav

Pre-gap length 0:00:01.77

Peak level 98.3 %
Extraction speed 10.4 X
Track quality 100.0 %
Test CRC A2FB95F4
Copy CRC A2FB95F4
Accurately ripped (confidence 1) [CA38C7E3] (AR v2)
Copy OK

Track 25

Filename D:\#EAC new\#wav+flac\VA - 100 Italian Hits\cd 2\25. Roberto Murolo - Torna A Surriento.wav

Pre-gap length 0:00:01.77

Peak level 98.3 %
Extraction speed 9.4 X
Track quality 100.0 %
Test CRC 08041F84
Copy CRC 08041F84
Accurately ripped (confidence 1) [6AC2E3D6] (AR v2)
Copy OK


All tracks accurately ripped

No errors occurred

End of status report

–– CUETools DB Plugin V2.1.6

[CTDB TOCID: yGPZWPJc2_b9gGr4iwcMN6THYq4-] found
Submit result: yGPZWPJc2_b9gGr4iwcMN6THYq4- has been confirmed
Track | CTDB Status
1 | (1/1) Accurately ripped
2 | (1/1) Accurately ripped
3 | (1/1) Accurately ripped
4 | (1/1) Accurately ripped
5 | (1/1) Accurately ripped
6 | (1/1) Accurately ripped
7 | (1/1) Accurately ripped
8 | (1/1) Accurately ripped
9 | (1/1) Accurately ripped
10 | (1/1) Accurately ripped
11 | (1/1) Accurately ripped
12 | (1/1) Accurately ripped
13 | (1/1) Accurately ripped
14 | (1/1) Accurately ripped
15 | (1/1) Accurately ripped
16 | (1/1) Accurately ripped
17 | (1/1) Accurately ripped
18 | (1/1) Accurately ripped
19 | (1/1) Accurately ripped
20 | (1/1) Accurately ripped
21 | (1/1) Accurately ripped
22 | (1/1) Accurately ripped
23 | (1/1) Accurately ripped
24 | (1/1) Accurately ripped
25 | (1/1) Accurately ripped


==== Log checksum 7D29A7DD88DB9722F15D0B29468CEDA1A788B94314866131C9ED3A7C8AE417B8 ====

––––––––––––––––––––––––––––––

Exact Audio Copy V1.3 from 2. September 2016

EAC extraction logfile from 18. November 2019, 12:24

Various Artists / 100 Italian Hits

Used drive : PLEXTOR PX-891SAF Adapter: 1 ID: 0

Read mode : Secure
Utilize accurate stream : Yes
Defeat audio cache : Yes
Make use of C2 pointers : No

Read offset correction : 6
Overread into Lead-In and Lead-Out : No
Fill up missing offset samples with silence : Yes
Delete leading and trailing silent blocks : No
Null samples used in CRC calculations : Yes
Used interface : Native Win32 interface for Win NT & 2000
Gap handling : Appended to previous track

Used output format : User Defined Encoder
Selected bitrate : 1024 kBit/s
Quality : High
Add ID3 tag : No
Command line compressor : C:\Program Files (x86)\Exact Audio Copy\Flac\flac.exe
Additional command line options : -8 -V -T "ARTIST=%artist%" -T "TITLE=%title%" -T "ALBUM=%albumtitle%" -T "DATE=%year%" -T "TRACKNUMBER=%tracknr%" -T "GENRE=%genre%" -T "PERFORMER=%albuminterpret%" -T "COMPOSER=%composer%" %haslyrics%–tag-from-file=LYRICS="%lyricsfile%"%haslyrics% -T "ALBUMARTIST=%albumartist%" -T "DISCNUMBER=%cdnumber%" -T "TOTALDISCS=%totalcds%" -T "TOTALTRACKS=%numtracks%" -T "COMMENT=%comment%" %source% -o %dest%


TOC of the extracted CD

Track | Start | Length | Start sector | End sector
––––––––––––––––––––––––––––-
1 | 0:00.00 | 3:27.08 | 0 | 15532
2 | 3:27.08 | 2:27.48 | 15533 | 26605
3 | 5:54.56 | 2:33.38 | 26606 | 38118
4 | 8:28.19 | 4:30.32 | 38119 | 58400
5 | 12:58.51 | 2:13.57 | 58401 | 68432
6 | 15:12.33 | 4:43.13 | 68433 | 89670
7 | 19:55.46 | 1:39.07 | 89671 | 97102
8 | 21:34.53 | 2:23.34 | 97103 | 107861
9 | 23:58.12 | 3:05.08 | 107862 | 121744
10 | 27:03.20 | 2:34.37 | 121745 | 133331
11 | 29:37.57 | 3:31.14 | 133332 | 149170
12 | 33:08.71 | 2:35.27 | 149171 | 160822
13 | 35:44.23 | 1:52.12 | 160823 | 169234
14 | 37:36.35 | 5:26.68 | 169235 | 193752
15 | 43:03.28 | 2:29.56 | 193753 | 204983
16 | 45:33.09 | 2:20.73 | 204984 | 215556
17 | 47:54.07 | 2:54.25 | 215557 | 228631
18 | 50:48.32 | 2:18.15 | 228632 | 238996
19 | 53:06.47 | 2:11.48 | 238997 | 248869
20 | 55:18.20 | 2:45.26 | 248870 | 261270
21 | 58:03.46 | 3:27.24 | 261271 | 276819
22 | 61:30.70 | 3:17.30 | 276820 | 291624
23 | 64:48.25 | 2:58.13 | 291625 | 304987
24 | 67:46.38 | 3:04.49 | 304988 | 318836
25 | 70:51.12 | 1:51.07 | 318837 | 327168


Track 1

Filename D:\#EAC new\#wav+flac\VA - 100 Italian Hits\cd 2\01. Domenico Modugno - Nel Blu Dipinto Di Blu (Volare).wav

Pre-gap length 0:00:02.00

Peak level 98.3 %
Extraction speed 5.2 X
Track quality 100.0 %
Test CRC 7E2BB183
Copy CRC 7E2BB183
Accurately ripped (confidence 1) [39D679AD] (AR v2)
Copy OK

Track 2

Filename D:\#EAC new\#wav+flac\VA - 100 Italian Hits\cd 2\02. Cocki Mazzetti - Un Faccè.wav

Pre-gap length 0:00:01.77

Peak level 98.2 %
Extraction speed 5.3 X
Track quality 100.0 %
Test CRC 348ED090
Copy CRC 348ED090
Accurately ripped (confidence 1) [9983E4EA] (AR v2)
Copy OK

Track 3

Filename D:\#EAC new\#wav+flac\VA - 100 Italian Hits\cd 2\03. Fausto Papetti - La Dolce Vita.wav

Pre-gap length 0:00:01.77

Peak level 98.3 %
Extraction speed 5.6 X
Track quality 100.0 %
Test CRC 4D551AD0
Copy CRC 4D551AD0
Accurately ripped (confidence 1) [51DB1438] (AR v2)
Copy OK

Track 4

Filename D:\#EAC new\#wav+flac\VA - 100 Italian Hits\cd 2\04. Milva - Tango Italiano.wav

Pre-gap length 0:00:01.77

Peak level 98.3 %
Extraction speed 6.5 X
Track quality 100.0 %
Test CRC 9D2CBF81
Copy CRC 9D2CBF81
Accurately ripped (confidence 1) [6CDCAFD0] (AR v2)
Copy OK

Track 5

Filename D:\#EAC new\#wav+flac\VA - 100 Italian Hits\cd 2\05. Adriano & I Ribelli Celentano - Stai Lontana Da Me.wav

Pre-gap length 0:00:01.77

Peak level 98.3 %
Extraction speed 4.5 X
Track quality 99.9 %
Test CRC 4406CEE4
Copy CRC 4406CEE4
Accurately ripped (confidence 1) [DD7E78D6] (AR v2)
Copy OK

Track 6

Filename D:\#EAC new\#wav+flac\VA - 100 Italian Hits\cd 2\06. Nilla Pizzi - Colpevole.wav

Pre-gap length 0:00:01.77

Peak level 98.3 %
Extraction speed 6.1 X
Track quality 99.9 %
Test CRC C0122B13
Copy CRC C0122B13
Accurately ripped (confidence 1) [ED8C12D2] (AR v2)
Copy OK

Track 7

Filename D:\#EAC new\#wav+flac\VA - 100 Italian Hits\cd 2\07. Giorgio Gaber - Una Fetta Di Limone.wav

Pre-gap length 0:00:01.77

Peak level 98.3 %
Extraction speed 6.3 X
Track quality 100.0 %
Test CRC C3C3BEDA
Copy CRC C3C3BEDA
Accurately ripped (confidence 1) [F9A81E71] (AR v2)
Copy OK

Track 8

Filename D:\#EAC new\#wav+flac\VA - 100 Italian Hits\cd 2\08. Carla Boni - Mambo Italiano.wav

Pre-gap length 0:00:01.77

Peak level 98.3 %
Extraction speed 6.9 X
Track quality 100.0 %
Test CRC ACA3BD89
Copy CRC ACA3BD89
Accurately ripped (confidence 1) [3F4669FE] (AR v2)
Copy OK

Track 9

Filename D:\#EAC new\#wav+flac\VA - 100 Italian Hits\cd 2\09. Gianni Meccia - Il Barrattolo.wav

Pre-gap length 0:00:01.77

Peak level 98.3 %
Extraction speed 7.5 X
Track quality 100.0 %
Test CRC 6C0B21FD
Copy CRC 6C0B21FD
Accurately ripped (confidence 1) [E9781A3B] (AR v2)
Copy OK

Track 10

Filename D:\#EAC new\#wav+flac\VA - 100 Italian Hits\cd 2\10. Nico Fidenco & Luiz Orquestra Enriquez - Su Nel Cielo.wav

Pre-gap length 0:00:01.77

Peak level 98.5 %
Extraction speed 7.5 X
Track quality 100.0 %
Test CRC 0985BB14
Copy CRC 0985BB14
Accurately ripped (confidence 1) [A43D44A6] (AR v2)
Copy OK

Track 11

Filename D:\#EAC new\#wav+flac\VA - 100 Italian Hits\cd 2\11. Donatella - L'Abbraccio.wav

Pre-gap length 0:00:01.77

Peak level 98.3 %
Extraction speed 8.1 X
Track quality 100.0 %
Test CRC 2792BD95
Copy CRC 2792BD95
Accurately ripped (confidence 1) [E4558C24] (AR v2)
Copy OK

Track 12

Filename D:\#EAC new\#wav+flac\VA - 100 Italian Hits\cd 2\12. Franca Raimondi - Aprite Le Finestre.wav

Pre-gap length 0:00:01.77

Peak level 98.3 %
Extraction speed 6.0 X
Track quality 99.9 %
Test CRC E16C677C
Copy CRC E16C677C
Accurately ripped (confidence 1) [24198A13] (AR v2)
Copy OK

Track 13

Filename D:\#EAC new\#wav+flac\VA - 100 Italian Hits\cd 2\13. Little Tony - Princess.wav

Pre-gap length 0:00:01.77

Peak level 98.3 %
Extraction speed 7.6 X
Track quality 100.0 %
Test CRC 0DC583AE
Copy CRC 0DC583AE
Accurately ripped (confidence 1) [C79F25A3] (AR v2)
Copy OK

Track 14

Filename D:\#EAC new\#wav+flac\VA - 100 Italian Hits\cd 2\14. Umberto Bindi - Il Nostro Concerto (Our Concerto).wav

Pre-gap length 0:00:01.77

Peak level 98.3 %
Extraction speed 9.3 X
Track quality 100.0 %
Test CRC DB8222D7
Copy CRC DB8222D7
Accurately ripped (confidence 1) [510BBE6F] (AR v2)
Copy OK

Track 15

Filename D:\#EAC new\#wav+flac\VA - 100 Italian Hits\cd 2\15. Dino & His Orchestra Romano - La Migliavacca.wav

Pre-gap length 0:00:01.77

Peak level 98.3 %
Extraction speed 6.5 X
Track quality 99.9 %
Test CRC 98DF04F8
Copy CRC 98DF04F8
Accurately ripped (confidence 1) [A3DD6261] (AR v2)
Copy OK

Track 16

Filename D:\#EAC new\#wav+flac\VA - 100 Italian Hits\cd 2\16. Gino Paoli - La Gatta.wav

Pre-gap length 0:00:01.77

Peak level 98.3 %
Extraction speed 8.6 X
Track quality 100.0 %
Test CRC 63296BFD
Copy CRC 63296BFD
Accurately ripped (confidence 1) [4CEB61F1] (AR v2)
Copy OK

Track 17

Filename D:\#EAC new\#wav+flac\VA - 100 Italian Hits\cd 2\17. Nini Rosso - Ballata Della Tromba.wav

Pre-gap length 0:00:01.77

Peak level 98.3 %
Extraction speed 9.2 X
Track quality 100.0 %
Test CRC 9F9D70B2
Copy CRC 9F9D70B2
Accurately ripped (confidence 1) [04196223] (AR v2)
Copy OK

Track 18

Filename D:\#EAC new\#wav+flac\VA - 100 Italian Hits\cd 2\18. Dalida - Itsi Bitsi Petit Bikini.wav

Pre-gap length 0:00:01.77

Peak level 98.3 %
Extraction speed 9.0 X
Track quality 100.0 %
Test CRC 92F32E17
Copy CRC 92F32E17
Accurately ripped (confidence 1) [048C5F38] (AR v2)
Copy OK

Track 19

Filename D:\#EAC new\#wav+flac\VA - 100 Italian Hits\cd 2\19. Rita Pavone - La Partita Di Pallone.wav

Pre-gap length 0:00:01.77

Peak level 98.6 %
Extraction speed 9.1 X
Track quality 100.0 %
Test CRC 4CB0B75C
Copy CRC 4CB0B75C
Accurately ripped (confidence 1) [87637B0C] (AR v2)
Copy OK

Track 20

Filename D:\#EAC new\#wav+flac\VA - 100 Italian Hits\cd 2\20. Mina - Eclisse Twist.wav

Pre-gap length 0:00:01.77

Peak level 98.3 %
Extraction speed 7.2 X
Track quality 99.9 %
Test CRC 331F4463
Copy CRC 331F4463
Accurately ripped (confidence 1) [52418C91] (AR v2)
Copy OK

Track 21

Filename D:\#EAC new\#wav+flac\VA - 100 Italian Hits\cd 2\21. Sophia Loren - Woman Of The River (Mambo Bacan).wav

Pre-gap length 0:00:01.77

Peak level 98.3 %
Extraction speed 10.0 X
Track quality 100.0 %
Test CRC 0F721ED6
Copy CRC 0F721ED6
Accurately ripped (confidence 1) [6006A791] (AR v2)
Copy OK

Track 22

Filename D:\#EAC new\#wav+flac\VA - 100 Italian Hits\cd 2\22. Tony Dallara - Romantica.wav

Pre-gap length 0:00:01.77

Peak level 98.3 %
Extraction speed 10.2 X
Track quality 100.0 %
Test CRC 55E78EFA
Copy CRC 55E78EFA
Accurately ripped (confidence 1) [903A153C] (AR v2)
Copy OK

Track 23

Filename D:\#EAC new\#wav+flac\VA - 100 Italian Hits\cd 2\23. Flo Sandon's - Tipitipitipso.wav

Pre-gap length 0:00:01.77

Peak level 98.3 %
Extraction speed 10.3 X
Track quality 100.0 %
Test CRC 476071EA
Copy CRC 476071EA
Accurately ripped (confidence 1) [6EEA6284] (AR v2)
Copy OK

Track 24

Filename D:\#EAC new\#wav+flac\VA - 100 Italian Hits\cd 2\24. Betty Curtis - Ti Volgio Tanto Bene.wav

Pre-gap length 0:00:01.77

Peak level 98.3 %
Extraction speed 10.4 X
Track quality 100.0 %
Test CRC A2FB95F4
Copy CRC A2FB95F4
Accurately ripped (confidence 1) [CA38C7E3] (AR v2)
Copy OK

Track 25

Filename D:\#EAC new\#wav+flac\VA - 100 Italian Hits\cd 2\25. Roberto Murolo - Torna A Surriento.wav

Pre-gap length 0:00:01.77

Peak level 98.3 %
Extraction speed 9.4 X
Track quality 100.0 %
Test CRC 08041F84
Copy CRC 08041F84
Accurately ripped (confidence 1) [6AC2E3D6] (AR v2)
Copy OK


All tracks accurately ripped

No errors occurred

End of status report

–– CUETools DB Plugin V2.1.6

[CTDB TOCID: yGPZWPJc2_b9gGr4iwcMN6THYq4-] found
Submit result: yGPZWPJc2_b9gGr4iwcMN6THYq4- has been confirmed
Track | CTDB Status
1 | (1/1) Accurately ripped
2 | (1/1) Accurately ripped
3 | (1/1) Accurately ripped
4 | (1/1) Accurately ripped
5 | (1/1) Accurately ripped
6 | (1/1) Accurately ripped
7 | (1/1) Accurately ripped
8 | (1/1) Accurately ripped
9 | (1/1) Accurately ripped
10 | (1/1) Accurately ripped
11 | (1/1) Accurately ripped
12 | (1/1) Accurately ripped
13 | (1/1) Accurately ripped
14 | (1/1) Accurately ripped
15 | (1/1) Accurately ripped
16 | (1/1) Accurately ripped
17 | (1/1) Accurately ripped
18 | (1/1) Accurately ripped
19 | (1/1) Accurately ripped
20 | (1/1) Accurately ripped
21 | (1/1) Accurately ripped
22 | (1/1) Accurately ripped
23 | (1/1) Accurately ripped
24 | (1/1) Accurately ripped
25 | (1/1) Accurately ripped


==== Log checksum 7D29A7DD88DB9722F15D0B29468CEDA1A788B94314866131C9ED3A7C8AE417B8 ====

Exact Audio Copy V1.3 from 2. September 2016

EAC extraction logfile from 18. November 2019, 12:52

Various Artists / 100 Italian Hits

Used drive : PLEXTOR PX-891SAF Adapter: 1 ID: 0

Read mode : Secure
Utilize accurate stream : Yes
Defeat audio cache : Yes
Make use of C2 pointers : No

Read offset correction : 6
Overread into Lead-In and Lead-Out : No
Fill up missing offset samples with silence : Yes
Delete leading and trailing silent blocks : No
Null samples used in CRC calculations : Yes
Used interface : Native Win32 interface for Win NT & 2000
Gap handling : Appended to previous track

Used output format : User Defined Encoder
Selected bitrate : 1024 kBit/s
Quality : High
Add ID3 tag : No
Command line compressor : C:\Program Files (x86)\Exact Audio Copy\Flac\flac.exe
Additional command line options : -8 -V -T "ARTIST=%artist%" -T "TITLE=%title%" -T "ALBUM=%albumtitle%" -T "DATE=%year%" -T "TRACKNUMBER=%tracknr%" -T "GENRE=%genre%" -T "PERFORMER=%albuminterpret%" -T "COMPOSER=%composer%" %haslyrics%–tag-from-file=LYRICS="%lyricsfile%"%haslyrics% -T "ALBUMARTIST=%albumartist%" -T "DISCNUMBER=%cdnumber%" -T "TOTALDISCS=%totalcds%" -T "TOTALTRACKS=%numtracks%" -T "COMMENT=%comment%" %source% -o %dest%


TOC of the extracted CD

Track | Start | Length | Start sector | End sector
––––––––––––––––––––––––––––-
1 | 0:00.00 | 2:45.55 | 0 | 12429
2 | 2:45.55 | 3:30.11 | 12430 | 28190
3 | 6:15.66 | 2:07.21 | 28191 | 37736
4 | 8:23.12 | 3:34.49 | 37737 | 53835
5 | 11:57.61 | 2:32.30 | 53836 | 65265
6 | 14:30.16 | 2:23.31 | 65266 | 76021
7 | 16:53.47 | 2:35.63 | 76022 | 87709
8 | 19:29.35 | 3:01.41 | 87710 | 101325
9 | 22:31.01 | 3:29.37 | 101326 | 117037
10 | 26:00.38 | 2:55.19 | 117038 | 130181
11 | 28:55.57 | 3:49.25 | 130182 | 147381
12 | 32:45.07 | 3:47.16 | 147382 | 164422
13 | 36:32.23 | 2:23.36 | 164423 | 175183
14 | 38:55.59 | 3:26.07 | 175184 | 190640
15 | 42:21.66 | 3:10.56 | 190641 | 204946
16 | 45:32.47 | 1:51.51 | 204947 | 213322
17 | 47:24.23 | 3:07.08 | 213323 | 227355
18 | 50:31.31 | 4:42.42 | 227356 | 248547
19 | 55:13.73 | 3:38.51 | 248548 | 264948
20 | 58:52.49 | 3:16.60 | 264949 | 279708
21 | 62:09.34 | 2:12.04 | 279709 | 289612
22 | 64:21.38 | 2:53.46 | 289613 | 302633
23 | 67:15.09 | 5:04.14 | 302634 | 325447
24 | 72:19.23 | 2:39.33 | 325448 | 337405
25 | 74:58.56 | 3:09.15 | 337406 | 351595


Track 1

Filename D:\#EAC new\#wav+flac\VA - 100 Italian Hits\cd 3\01. Adriano Celentano - Nata Per Me.wav

Pre-gap length 0:00:02.00

Peak level 98.3 %
Extraction speed 5.4 X
Track quality 100.0 %
Test CRC 4DD7FCF9
Copy CRC 4DD7FCF9
Accurately ripped (confidence 1) [18A396A1] (AR v2)
Copy OK

Track 2

Filename D:\#EAC new\#wav+flac\VA - 100 Italian Hits\cd 3\02. Flo Sandon's - Non Dimenticar.wav

Pre-gap length 0:00:01.77

Peak level 98.2 %
Extraction speed 4.8 X
Track quality 99.9 %
Test CRC BE0EA282
Copy CRC BE0EA282
Accurately ripped (confidence 1) [C28610BA] (AR v2)
Copy OK

Track 3

Filename D:\#EAC new\#wav+flac\VA - 100 Italian Hits\cd 3\03. Gino Paoli - Il Cielo In Una Stanza.wav

Pre-gap length 0:00:01.77

Peak level 98.3 %
Extraction speed 5.7 X
Track quality 100.0 %
Test CRC 385BDCC8
Copy CRC 385BDCC8
Accurately ripped (confidence 1) [39792047] (AR v2)
Copy OK

Track 4

Filename D:\#EAC new\#wav+flac\VA - 100 Italian Hits\cd 3\04. Dalida - Bambino.wav

Pre-gap length 0:00:01.77

Peak level 98.3 %
Extraction speed 6.6 X
Track quality 100.0 %
Test CRC 6138984A
Copy CRC 6138984A
Accurately ripped (confidence 1) [CB1088E1] (AR v2)
Copy OK

Track 5

Filename D:\#EAC new\#wav+flac\VA - 100 Italian Hits\cd 3\05. Fausto Papetti - Estate Violenta.wav

Pre-gap length 0:00:01.77

Peak level 98.3 %
Extraction speed 5.1 X
Track quality 99.9 %
Test CRC 73A7C3A8
Copy CRC 73A7C3A8
Accurately ripped (confidence 1) [CACB7750] (AR v2)
Copy OK

Track 6

Filename D:\#EAC new\#wav+flac\VA - 100 Italian Hits\cd 3\06. Vinicio - Tarantella Napoletana.wav

Pre-gap length 0:00:01.77

Peak level 98.4 %
Extraction speed 5.0 X
Track quality 99.9 %
Test CRC 69A6DC00
Copy CRC 69A6DC00
Accurately ripped (confidence 1) [F6125BE7] (AR v2)
Copy OK

Track 7

Filename D:\#EAC new\#wav+flac\VA - 100 Italian Hits\cd 3\07. Mina - Briciole Di Baci.wav

Pre-gap length 0:00:01.77

Peak level 98.4 %
Extraction speed 7.0 X
Track quality 100.0 %
Test CRC 736A9B41
Copy CRC 736A9B41
Accurately ripped (confidence 1) [71B19957] (AR v2)
Copy OK

Track 8

Filename D:\#EAC new\#wav+flac\VA - 100 Italian Hits\cd 3\08. Nicola Arigliano - Carina.wav

Pre-gap length 0:00:01.77

Peak level 98.3 %
Extraction speed 7.4 X
Track quality 100.0 %
Test CRC 346254D4
Copy CRC 346254D4
Accurately ripped (confidence 1) [F3EDE376] (AR v2)
Copy OK

Track 9

Filename D:\#EAC new\#wav+flac\VA - 100 Italian Hits\cd 3\09. Renato Rascel - Te Voglio Bene (Tanto Tanto).wav

Pre-gap length 0:00:01.77

Peak level 93.3 %
Extraction speed 6.3 X
Track quality 99.9 %
Test CRC F86F5AC6
Copy CRC F86F5AC6
Accurately ripped (confidence 1) [AF6CD524] (AR v2)
Copy OK

Track 10

Filename D:\#EAC new\#wav+flac\VA - 100 Italian Hits\cd 3\10. Miranda Martino - Me Ne Infischio.wav

Pre-gap length 0:00:01.77

Peak level 98.4 %
Extraction speed 6.1 X
Track quality 99.9 %
Test CRC 8C7CDA17
Copy CRC 8C7CDA17
Accurately ripped (confidence 1) [5C2A917D] (AR v2)
Copy OK

Track 11

Filename D:\#EAC new\#wav+flac\VA - 100 Italian Hits\cd 3\11. Giorgio Gaber - La Ballata Del Cerutti.wav

Pre-gap length 0:00:01.77

Peak level 98.3 %
Extraction speed 8.6 X
Track quality 100.0 %
Test CRC 8D1594F9
Copy CRC 8D1594F9
Accurately ripped (confidence 1) [5C902449] (AR v2)
Copy OK

Track 12

Filename D:\#EAC new\#wav+flac\VA - 100 Italian Hits\cd 3\12. Nilla Pizzi - Grazie Dei Fior.wav

Pre-gap length 0:00:01.77

Peak level 98.3 %
Extraction speed 8.8 X
Track quality 100.0 %
Test CRC E5C73AF6
Copy CRC E5C73AF6
Accurately ripped (confidence 1) [19877E2F] (AR v2)
Copy OK

Track 13

Filename D:\#EAC new\#wav+flac\VA - 100 Italian Hits\cd 3\13. Renato Carosone - Guaglione.wav

Pre-gap length 0:00:01.77

Peak level 98.3 %
Extraction speed 8.4 X
Track quality 100.0 %
Test CRC 5E95F32B
Copy CRC 5E95F32B
Accurately ripped (confidence 1) [BF3C3EA3] (AR v2)
Copy OK

Track 14

Filename D:\#EAC new\#wav+flac\VA - 100 Italian Hits\cd 3\14. Aurelio Fierro - 'A Pizza C'A Pummarda.wav

Pre-gap length 0:00:01.77

Peak level 98.3 %
Extraction speed 9.2 X
Track quality 100.0 %
Test CRC E8F769C5
Copy CRC E8F769C5
Accurately ripped (confidence 1) [32E5F10D] (AR v2)
Copy OK

Track 15

Filename D:\#EAC new\#wav+flac\VA - 100 Italian Hits\cd 3\15. Sophia Loren - Che M'È Mparato A Fa'.wav

Pre-gap length 0:00:01.77

Peak level 98.3 %
Extraction speed 9.4 X
Track quality 100.0 %
Test CRC F252377C
Copy CRC F252377C
Accurately ripped (confidence 1) [F0A4FDEA] (AR v2)
Copy OK

Track 16

Filename D:\#EAC new\#wav+flac\VA - 100 Italian Hits\cd 3\16. Rita Pavone - Amore Twist.wav

Pre-gap length 0:00:01.77

Peak level 98.3 %
Extraction speed 8.5 X
Track quality 100.0 %
Test CRC 3F30E0CC
Copy CRC 3F30E0CC
Accurately ripped (confidence 1) [1E5053C6] (AR v2)
Copy OK

Track 17

Filename D:\#EAC new\#wav+flac\VA - 100 Italian Hits\cd 3\17. Teddy Reno - 'A' Come Amore.wav

Pre-gap length 0:00:01.77

Peak level 98.3 %
Extraction speed 9.6 X
Track quality 100.0 %
Test CRC 14BE9706
Copy CRC 14BE9706
Accurately ripped (confidence 1) [3D3D4FFD] (AR v2)
Copy OK

Track 18

Filename D:\#EAC new\#wav+flac\VA - 100 Italian Hits\cd 3\18. Umberto Bindi - E'Vero.wav

Pre-gap length 0:00:01.77

Peak level 98.3 %
Extraction speed 10.4 X
Track quality 100.0 %
Test CRC 46DBDEE0
Copy CRC 46DBDEE0
Accurately ripped (confidence 1) [C69308A7] (AR v2)
Copy OK

Track 19

Filename D:\#EAC new\#wav+flac\VA - 100 Italian Hits\cd 3\19. Luciano Tajoli - Buongiorno Tristezza.wav

Pre-gap length 0:00:01.77

Peak level 98.3 %
Extraction speed 10.3 X
Track quality 100.0 %
Test CRC 21B2F3AE
Copy CRC 21B2F3AE
Accurately ripped (confidence 1) [44BFAB24] (AR v2)
Copy OK

Track 20

Filename D:\#EAC new\#wav+flac\VA - 100 Italian Hits\cd 3\20. Jula De Palma - Tua.wav

Pre-gap length 0:00:01.77

Peak level 98.3 %
Extraction speed 10.4 X
Track quality 100.0 %
Test CRC 51072205
Copy CRC 51072205
Accurately ripped (confidence 1) [DFC6440F] (AR v2)
Copy OK

Track 21

Filename D:\#EAC new\#wav+flac\VA - 100 Italian Hits\cd 3\21. Gianni Morandi - Fatti Mandare Dalla Mamma A Prendere Il Latte.wav

Pre-gap length 0:00:01.77

Peak level 98.3 %
Extraction speed 9.9 X
Track quality 100.0 %
Test CRC F5F5DD3B
Copy CRC F5F5DD3B
Accurately ripped (confidence 1) [ECFC67AE] (AR v2)
Copy OK

Track 22

Filename D:\#EAC new\#wav+flac\VA - 100 Italian Hits\cd 3\22. Fred Buscaglione - Eri Piccola Cosi.wav

Pre-gap length 0:00:01.77

Peak level 98.3 %
Extraction speed 7.9 X
Track quality 99.9 %
Test CRC B0C04077
Copy CRC B0C04077
Accurately ripped (confidence 1) [23CA4C0D] (AR v2)
Copy OK

Track 23

Filename D:\#EAC new\#wav+flac\VA - 100 Italian Hits\cd 3\23. Maria Paris - Tuppe-Tuppe, Mariscià.wav

Pre-gap length 0:00:01.77

Peak level 98.3 %
Extraction speed 11.6 X
Track quality 100.0 %
Test CRC 198754CB
Copy CRC 198754CB
Accurately ripped (confidence 1) [A14798DE] (AR v2)
Copy OK

Track 24

Filename D:\#EAC new\#wav+flac\VA - 100 Italian Hits\cd 3\24. Beniamino Gigli - Santa Lucia.wav

Pre-gap length 0:00:01.77

Peak level 98.3 %
Extraction speed 10.9 X
Track quality 100.0 %
Test CRC 7FE50C50
Copy CRC 7FE50C50
Accurately ripped (confidence 1) [19A39D5F] (AR v2)
Copy OK

Track 25

Filename D:\#EAC new\#wav+flac\VA - 100 Italian Hits\cd 3\25. Natalino Otto - Oho Aha (Ciao).wav

Pre-gap length 0:00:01.77

Peak level 98.3 %
Extraction speed 11.0 X
Track quality 100.0 %
Test CRC E4724021
Copy CRC E4724021
Accurately ripped (confidence 1) [DD845B0C] (AR v2)
Copy OK


All tracks accurately ripped

No errors occurred

End of status report

–– CUETools DB Plugin V2.1.6

[CTDB TOCID: BKqpcJPK9iO3Cj1y24i6l6Nyr.g-] found
Submit result: BKqpcJPK9iO3Cj1y24i6l6Nyr.g- has been confirmed
Track | CTDB Status
1 | (1/1) Accurately ripped
2 | (1/1) Accurately ripped
3 | (1/1) Accurately ripped
4 | (1/1) Accurately ripped
5 | (1/1) Accurately ripped
6 | (1/1) Accurately ripped
7 | (1/1) Accurately ripped
8 | (1/1) Accurately ripped
9 | (1/1) Accurately ripped
10 | (1/1) Accurately ripped
11 | (1/1) Accurately ripped
12 | (1/1) Accurately ripped
13 | (1/1) Accurately ripped
14 | (1/1) Accurately ripped
15 | (1/1) Accurately ripped
16 | (1/1) Accurately ripped
17 | (1/1) Accurately ripped
18 | (1/1) Accurately ripped
19 | (1/1) Accurately ripped
20 | (1/1) Accurately ripped
21 | (1/1) Accurately ripped
22 | (1/1) Accurately ripped
23 | (1/1) Accurately ripped
24 | (1/1) Accurately ripped
25 | (1/1) Accurately ripped


==== Log checksum 1436C478B3DF5BE6935F596AC82CE678302C768201BD886A28F71F3552AC920A ====

––––––––––––––––––––––––––––––

Exact Audio Copy V1.3 from 2. September 2016

EAC extraction logfile from 18. November 2019, 12:52

Various Artists / 100 Italian Hits

Used drive : PLEXTOR PX-891SAF Adapter: 1 ID: 0

Read mode : Secure
Utilize accurate stream : Yes
Defeat audio cache : Yes
Make use of C2 pointers : No

Read offset correction : 6
Overread into Lead-In and Lead-Out : No
Fill up missing offset samples with silence : Yes
Delete leading and trailing silent blocks : No
Null samples used in CRC calculations : Yes
Used interface : Native Win32 interface for Win NT & 2000
Gap handling : Appended to previous track

Used output format : User Defined Encoder
Selected bitrate : 1024 kBit/s
Quality : High
Add ID3 tag : No
Command line compressor : C:\Program Files (x86)\Exact Audio Copy\Flac\flac.exe
Additional command line options : -8 -V -T "ARTIST=%artist%" -T "TITLE=%title%" -T "ALBUM=%albumtitle%" -T "DATE=%year%" -T "TRACKNUMBER=%tracknr%" -T "GENRE=%genre%" -T "PERFORMER=%albuminterpret%" -T "COMPOSER=%composer%" %haslyrics%–tag-from-file=LYRICS="%lyricsfile%"%haslyrics% -T "ALBUMARTIST=%albumartist%" -T "DISCNUMBER=%cdnumber%" -T "TOTALDISCS=%totalcds%" -T "TOTALTRACKS=%numtracks%" -T "COMMENT=%comment%" %source% -o %dest%


TOC of the extracted CD

Track | Start | Length | Start sector | End sector
––––––––––––––––––––––––––––-
1 | 0:00.00 | 2:45.55 | 0 | 12429
2 | 2:45.55 | 3:30.11 | 12430 | 28190
3 | 6:15.66 | 2:07.21 | 28191 | 37736
4 | 8:23.12 | 3:34.49 | 37737 | 53835
5 | 11:57.61 | 2:32.30 | 53836 | 65265
6 | 14:30.16 | 2:23.31 | 65266 | 76021
7 | 16:53.47 | 2:35.63 | 76022 | 87709
8 | 19:29.35 | 3:01.41 | 87710 | 101325
9 | 22:31.01 | 3:29.37 | 101326 | 117037
10 | 26:00.38 | 2:55.19 | 117038 | 130181
11 | 28:55.57 | 3:49.25 | 130182 | 147381
12 | 32:45.07 | 3:47.16 | 147382 | 164422
13 | 36:32.23 | 2:23.36 | 164423 | 175183
14 | 38:55.59 | 3:26.07 | 175184 | 190640
15 | 42:21.66 | 3:10.56 | 190641 | 204946
16 | 45:32.47 | 1:51.51 | 204947 | 213322
17 | 47:24.23 | 3:07.08 | 213323 | 227355
18 | 50:31.31 | 4:42.42 | 227356 | 248547
19 | 55:13.73 | 3:38.51 | 248548 | 264948
20 | 58:52.49 | 3:16.60 | 264949 | 279708
21 | 62:09.34 | 2:12.04 | 279709 | 289612
22 | 64:21.38 | 2:53.46 | 289613 | 302633
23 | 67:15.09 | 5:04.14 | 302634 | 325447
24 | 72:19.23 | 2:39.33 | 325448 | 337405
25 | 74:58.56 | 3:09.15 | 337406 | 351595


Track 1

Filename D:\#EAC new\#wav+flac\VA - 100 Italian Hits\cd 3\01. Adriano Celentano - Nata Per Me.wav

Pre-gap length 0:00:02.00

Peak level 98.3 %
Extraction speed 5.4 X
Track quality 100.0 %
Test CRC 4DD7FCF9
Copy CRC 4DD7FCF9
Accurately ripped (confidence 1) [18A396A1] (AR v2)
Copy OK

Track 2

Filename D:\#EAC new\#wav+flac\VA - 100 Italian Hits\cd 3\02. Flo Sandon's - Non Dimenticar.wav

Pre-gap length 0:00:01.77

Peak level 98.2 %
Extraction speed 4.8 X
Track quality 99.9 %
Test CRC BE0EA282
Copy CRC BE0EA282
Accurately ripped (confidence 1) [C28610BA] (AR v2)
Copy OK

Track 3

Filename D:\#EAC new\#wav+flac\VA - 100 Italian Hits\cd 3\03. Gino Paoli - Il Cielo In Una Stanza.wav

Pre-gap length 0:00:01.77

Peak level 98.3 %
Extraction speed 5.7 X
Track quality 100.0 %
Test CRC 385BDCC8
Copy CRC 385BDCC8
Accurately ripped (confidence 1) [39792047] (AR v2)
Copy OK

Track 4

Filename D:\#EAC new\#wav+flac\VA - 100 Italian Hits\cd 3\04. Dalida - Bambino.wav

Pre-gap length 0:00:01.77

Peak level 98.3 %
Extraction speed 6.6 X
Track quality 100.0 %
Test CRC 6138984A
Copy CRC 6138984A
Accurately ripped (confidence 1) [CB1088E1] (AR v2)
Copy OK

Track 5

Filename D:\#EAC new\#wav+flac\VA - 100 Italian Hits\cd 3\05. Fausto Papetti - Estate Violenta.wav

Pre-gap length 0:00:01.77

Peak level 98.3 %
Extraction speed 5.1 X
Track quality 99.9 %
Test CRC 73A7C3A8
Copy CRC 73A7C3A8
Accurately ripped (confidence 1) [CACB7750] (AR v2)
Copy OK

Track 6

Filename D:\#EAC new\#wav+flac\VA - 100 Italian Hits\cd 3\06. Vinicio - Tarantella Napoletana.wav

Pre-gap length 0:00:01.77

Peak level 98.4 %
Extraction speed 5.0 X
Track quality 99.9 %
Test CRC 69A6DC00
Copy CRC 69A6DC00
Accurately ripped (confidence 1) [F6125BE7] (AR v2)
Copy OK

Track 7

Filename D:\#EAC new\#wav+flac\VA - 100 Italian Hits\cd 3\07. Mina - Briciole Di Baci.wav

Pre-gap length 0:00:01.77

Peak level 98.4 %
Extraction speed 7.0 X
Track quality 100.0 %
Test CRC 736A9B41
Copy CRC 736A9B41
Accurately ripped (confidence 1) [71B19957] (AR v2)
Copy OK

Track 8

Filename D:\#EAC new\#wav+flac\VA - 100 Italian Hits\cd 3\08. Nicola Arigliano - Carina.wav

Pre-gap length 0:00:01.77

Peak level 98.3 %
Extraction speed 7.4 X
Track quality 100.0 %
Test CRC 346254D4
Copy CRC 346254D4
Accurately ripped (confidence 1) [F3EDE376] (AR v2)
Copy OK

Track 9

Filename D:\#EAC new\#wav+flac\VA - 100 Italian Hits\cd 3\09. Renato Rascel - Te Voglio Bene (Tanto Tanto).wav

Pre-gap length 0:00:01.77

Peak level 93.3 %
Extraction speed 6.3 X
Track quality 99.9 %
Test CRC F86F5AC6
Copy CRC F86F5AC6
Accurately ripped (confidence 1) [AF6CD524] (AR v2)
Copy OK

Track 10

Filename D:\#EAC new\#wav+flac\VA - 100 Italian Hits\cd 3\10. Miranda Martino - Me Ne Infischio.wav

Pre-gap length 0:00:01.77

Peak level 98.4 %
Extraction speed 6.1 X
Track quality 99.9 %
Test CRC 8C7CDA17
Copy CRC 8C7CDA17
Accurately ripped (confidence 1) [5C2A917D] (AR v2)
Copy OK

Track 11

Filename D:\#EAC new\#wav+flac\VA - 100 Italian Hits\cd 3\11. Giorgio Gaber - La Ballata Del Cerutti.wav

Pre-gap length 0:00:01.77

Peak level 98.3 %
Extraction speed 8.6 X
Track quality 100.0 %
Test CRC 8D1594F9
Copy CRC 8D1594F9
Accurately ripped (confidence 1) [5C902449] (AR v2)
Copy OK

Track 12

Filename D:\#EAC new\#wav+flac\VA - 100 Italian Hits\cd 3\12. Nilla Pizzi - Grazie Dei Fior.wav

Pre-gap length 0:00:01.77

Peak level 98.3 %
Extraction speed 8.8 X
Track quality 100.0 %
Test CRC E5C73AF6
Copy CRC E5C73AF6
Accurately ripped (confidence 1) [19877E2F] (AR v2)
Copy OK

Track 13

Filename D:\#EAC new\#wav+flac\VA - 100 Italian Hits\cd 3\13. Renato Carosone - Guaglione.wav

Pre-gap length 0:00:01.77

Peak level 98.3 %
Extraction speed 8.4 X
Track quality 100.0 %
Test CRC 5E95F32B
Copy CRC 5E95F32B
Accurately ripped (confidence 1) [BF3C3EA3] (AR v2)
Copy OK

Track 14

Filename D:\#EAC new\#wav+flac\VA - 100 Italian Hits\cd 3\14. Aurelio Fierro - 'A Pizza C'A Pummarda.wav

Pre-gap length 0:00:01.77

Peak level 98.3 %
Extraction speed 9.2 X
Track quality 100.0 %
Test CRC E8F769C5
Copy CRC E8F769C5
Accurately ripped (confidence 1) [32E5F10D] (AR v2)
Copy OK

Track 15

Filename D:\#EAC new\#wav+flac\VA - 100 Italian Hits\cd 3\15. Sophia Loren - Che M'È Mparato A Fa'.wav

Pre-gap length 0:00:01.77

Peak level 98.3 %
Extraction speed 9.4 X
Track quality 100.0 %
Test CRC F252377C
Copy CRC F252377C
Accurately ripped (confidence 1) [F0A4FDEA] (AR v2)
Copy OK

Track 16

Filename D:\#EAC new\#wav+flac\VA - 100 Italian Hits\cd 3\16. Rita Pavone - Amore Twist.wav

Pre-gap length 0:00:01.77

Peak level 98.3 %
Extraction speed 8.5 X
Track quality 100.0 %
Test CRC 3F30E0CC
Copy CRC 3F30E0CC
Accurately ripped (confidence 1) [1E5053C6] (AR v2)
Copy OK

Track 17

Filename D:\#EAC new\#wav+flac\VA - 100 Italian Hits\cd 3\17. Teddy Reno - 'A' Come Amore.wav

Pre-gap length 0:00:01.77

Peak level 98.3 %
Extraction speed 9.6 X
Track quality 100.0 %
Test CRC 14BE9706
Copy CRC 14BE9706
Accurately ripped (confidence 1) [3D3D4FFD] (AR v2)
Copy OK

Track 18

Filename D:\#EAC new\#wav+flac\VA - 100 Italian Hits\cd 3\18. Umberto Bindi - E'Vero.wav

Pre-gap length 0:00:01.77

Peak level 98.3 %
Extraction speed 10.4 X
Track quality 100.0 %
Test CRC 46DBDEE0
Copy CRC 46DBDEE0
Accurately ripped (confidence 1) [C69308A7] (AR v2)
Copy OK

Track 19

Filename D:\#EAC new\#wav+flac\VA - 100 Italian Hits\cd 3\19. Luciano Tajoli - Buongiorno Tristezza.wav

Pre-gap length 0:00:01.77

Peak level 98.3 %
Extraction speed 10.3 X
Track quality 100.0 %
Test CRC 21B2F3AE
Copy CRC 21B2F3AE
Accurately ripped (confidence 1) [44BFAB24] (AR v2)
Copy OK

Track 20

Filename D:\#EAC new\#wav+flac\VA - 100 Italian Hits\cd 3\20. Jula De Palma - Tua.wav

Pre-gap length 0:00:01.77

Peak level 98.3 %
Extraction speed 10.4 X
Track quality 100.0 %
Test CRC 51072205
Copy CRC 51072205
Accurately ripped (confidence 1) [DFC6440F] (AR v2)
Copy OK

Track 21

Filename D:\#EAC new\#wav+flac\VA - 100 Italian Hits\cd 3\21. Gianni Morandi - Fatti Mandare Dalla Mamma A Prendere Il Latte.wav

Pre-gap length 0:00:01.77

Peak level 98.3 %
Extraction speed 9.9 X
Track quality 100.0 %
Test CRC F5F5DD3B
Copy CRC F5F5DD3B
Accurately ripped (confidence 1) [ECFC67AE] (AR v2)
Copy OK

Track 22

Filename D:\#EAC new\#wav+flac\VA - 100 Italian Hits\cd 3\22. Fred Buscaglione - Eri Piccola Cosi.wav

Pre-gap length 0:00:01.77

Peak level 98.3 %
Extraction speed 7.9 X
Track quality 99.9 %
Test CRC B0C04077
Copy CRC B0C04077
Accurately ripped (confidence 1) [23CA4C0D] (AR v2)
Copy OK

Track 23

Filename D:\#EAC new\#wav+flac\VA - 100 Italian Hits\cd 3\23. Maria Paris - Tuppe-Tuppe, Mariscià.wav

Pre-gap length 0:00:01.77

Peak level 98.3 %
Extraction speed 11.6 X
Track quality 100.0 %
Test CRC 198754CB
Copy CRC 198754CB
Accurately ripped (confidence 1) [A14798DE] (AR v2)
Copy OK

Track 24

Filename D:\#EAC new\#wav+flac\VA - 100 Italian Hits\cd 3\24. Beniamino Gigli - Santa Lucia.wav

Pre-gap length 0:00:01.77

Peak level 98.3 %
Extraction speed 10.9 X
Track quality 100.0 %
Test CRC 7FE50C50
Copy CRC 7FE50C50
Accurately ripped (confidence 1) [19A39D5F] (AR v2)
Copy OK

Track 25

Filename D:\#EAC new\#wav+flac\VA - 100 Italian Hits\cd 3\25. Natalino Otto - Oho Aha (Ciao).wav

Pre-gap length 0:00:01.77

Peak level 98.3 %
Extraction speed 11.0 X
Track quality 100.0 %
Test CRC E4724021
Copy CRC E4724021
Accurately ripped (confidence 1) [DD845B0C] (AR v2)
Copy OK


All tracks accurately ripped

No errors occurred

End of status report

–– CUETools DB Plugin V2.1.6

[CTDB TOCID: BKqpcJPK9iO3Cj1y24i6l6Nyr.g-] found
Submit result: BKqpcJPK9iO3Cj1y24i6l6Nyr.g- has been confirmed
Track | CTDB Status
1 | (1/1) Accurately ripped
2 | (1/1) Accurately ripped
3 | (1/1) Accurately ripped
4 | (1/1) Accurately ripped
5 | (1/1) Accurately ripped
6 | (1/1) Accurately ripped
7 | (1/1) Accurately ripped
8 | (1/1) Accurately ripped
9 | (1/1) Accurately ripped
10 | (1/1) Accurately ripped
11 | (1/1) Accurately ripped
12 | (1/1) Accurately ripped
13 | (1/1) Accurately ripped
14 | (1/1) Accurately ripped
15 | (1/1) Accurately ripped
16 | (1/1) Accurately ripped
17 | (1/1) Accurately ripped
18 | (1/1) Accurately ripped
19 | (1/1) Accurately ripped
20 | (1/1) Accurately ripped
21 | (1/1) Accurately ripped
22 | (1/1) Accurately ripped
23 | (1/1) Accurately ripped
24 | (1/1) Accurately ripped
25 | (1/1) Accurately ripped


==== Log checksum 1436C478B3DF5BE6935F596AC82CE678302C768201BD886A28F71F3552AC920A ====

Exact Audio Copy V1.3 from 2. September 2016

EAC extraction logfile from 18. November 2019, 13:26

Various Artists / 100 Italian Hits

Used drive : PLEXTOR PX-891SAF Adapter: 1 ID: 0

Read mode : Secure
Utilize accurate stream : Yes
Defeat audio cache : Yes
Make use of C2 pointers : No

Read offset correction : 6
Overread into Lead-In and Lead-Out : No
Fill up missing offset samples with silence : Yes
Delete leading and trailing silent blocks : No
Null samples used in CRC calculations : Yes
Used interface : Native Win32 interface for Win NT & 2000
Gap handling : Appended to previous track

Used output format : User Defined Encoder
Selected bitrate : 1024 kBit/s
Quality : High
Add ID3 tag : No
Command line compressor : C:\Program Files (x86)\Exact Audio Copy\Flac\flac.exe
Additional command line options : -8 -V -T "ARTIST=%artist%" -T "TITLE=%title%" -T "ALBUM=%albumtitle%" -T "DATE=%year%" -T "TRACKNUMBER=%tracknr%" -T "GENRE=%genre%" -T "PERFORMER=%albuminterpret%" -T "COMPOSER=%composer%" %haslyrics%–tag-from-file=LYRICS="%lyricsfile%"%haslyrics% -T "ALBUMARTIST=%albumartist%" -T "DISCNUMBER=%cdnumber%" -T "TOTALDISCS=%totalcds%" -T "TOTALTRACKS=%numtracks%" -T "COMMENT=%comment%" %source% -o %dest%


TOC of the extracted CD

Track | Start | Length | Start sector | End sector
––––––––––––––––––––––––––––-
1 | 0:00.00 | 3:29.36 | 0 | 15710
2 | 3:29.36 | 2:45.14 | 15711 | 28099
3 | 6:14.50 | 2:46.54 | 28100 | 40603
4 | 9:01.29 | 2:23.52 | 40604 | 51380
5 | 11:25.06 | 3:31.02 | 51381 | 67207
6 | 14:56.08 | 3:35.16 | 67208 | 83348
7 | 18:31.24 | 3:19.54 | 83349 | 98327
8 | 21:51.03 | 1:42.68 | 98328 | 106045
9 | 23:33.71 | 3:20.42 | 106046 | 121087
10 | 26:54.38 | 2:25.52 | 121088 | 132014
11 | 29:20.15 | 2:06.63 | 132015 | 141527
12 | 31:27.03 | 3:04.33 | 141528 | 155360
13 | 34:31.36 | 3:16.20 | 155361 | 170080
14 | 37:47.56 | 3:21.28 | 170081 | 185183
15 | 41:09.09 | 4:33.04 | 185184 | 205662
16 | 45:42.13 | 2:14.30 | 205663 | 215742
17 | 47:56.43 | 3:15.12 | 215743 | 230379
18 | 51:11.55 | 4:05.62 | 230380 | 248816
19 | 55:17.42 | 2:41.13 | 248817 | 260904
20 | 57:58.55 | 2:35.06 | 260905 | 272535
21 | 60:33.61 | 2:44.51 | 272536 | 284886
22 | 63:18.37 | 1:52.46 | 284887 | 293332
23 | 65:11.08 | 2:22.11 | 293333 | 303993
24 | 67:33.19 | 2:44.36 | 303994 | 316329
25 | 70:17.55 | 2:35.06 | 316330 | 327960


Track 1

Filename D:\#EAC new\#wav+flac\VA - 100 Italian Hits\cd 4\01. Renato Carosone - Tu Vuò Fà L'Americano.wav

Pre-gap length 0:00:02.00

Peak level 98.4 %
Extraction speed 4.3 X
Track quality 99.9 %
Test CRC 8D913698
Copy CRC 8D913698
Accurately ripped (confidence 1) [BB0CC428] (AR v2)
Copy OK

Track 2

Filename D:\#EAC new\#wav+flac\VA - 100 Italian Hits\cd 4\02. Anna Maria - Il Segreto.wav

Pre-gap length 0:00:01.77

Peak level 98.3 %
Extraction speed 5.5 X
Track quality 100.0 %
Test CRC DAB12F73
Copy CRC DAB12F73
Accurately ripped (confidence 1) [156247C5] (AR v2)
Copy OK

Track 3

Filename D:\#EAC new\#wav+flac\VA - 100 Italian Hits\cd 4\03. Adriano Celentano - Buonasera Signorina.wav

Pre-gap length 0:00:01.77

Peak level 98.3 %
Extraction speed 5.7 X
Track quality 100.0 %
Test CRC 3652B770
Copy CRC 3652B770
Accurately ripped (confidence 1) [28073926] (AR v2)
Copy OK

Track 4

Filename D:\#EAC new\#wav+flac\VA - 100 Italian Hits\cd 4\04. Sophia Loren - Bing! Bang! Bong!.wav

Pre-gap length 0:00:01.77

Peak level 98.3 %
Extraction speed 5.9 X
Track quality 100.0 %
Test CRC 032427D4
Copy CRC 032427D4
Accurately ripped (confidence 1) [6B0334C7] (AR v2)
Copy OK

Track 5

Filename D:\#EAC new\#wav+flac\VA - 100 Italian Hits\cd 4\05. Dino & His Orchestra Romano - La Bella Alcamo.wav

Pre-gap length 0:00:01.77

Peak level 98.4 %
Extraction speed 6.6 X
Track quality 100.0 %
Test CRC 6B576AD2
Copy CRC 6B576AD2
Accurately ripped (confidence 1) [D10BEA35] (AR v2)
Copy OK

Track 6

Filename D:\#EAC new\#wav+flac\VA - 100 Italian Hits\cd 4\06. Tonina Torricelli - Gondolì, Gondolà.wav

Pre-gap length 0:00:01.77

Peak level 98.4 %
Extraction speed 6.9 X
Track quality 100.0 %
Test CRC C76D9D63
Copy CRC C76D9D63
Accurately ripped (confidence 1) [FDD9F61E] (AR v2)
Copy OK

Track 7

Filename D:\#EAC new\#wav+flac\VA - 100 Italian Hits\cd 4\07. Miranda Martino - Stasera Tornero.wav

Pre-gap length 0:00:01.77

Peak level 98.3 %
Extraction speed 7.1 X
Track quality 100.0 %
Test CRC 03676FE6
Copy CRC 03676FE6
Accurately ripped (confidence 1) [0F6B8586] (AR v2)
Copy OK

Track 8

Filename D:\#EAC new\#wav+flac\VA - 100 Italian Hits\cd 4\08. Gino Latilla - Tutte Le Mamme.wav

Pre-gap length 0:00:01.77

Peak level 98.2 %
Extraction speed 4.4 X
Track quality 99.8 %
Test CRC E6B7CF9C
Copy CRC E6B7CF9C
Accurately ripped (confidence 1) [4B052A3E] (AR v2)
Copy OK

Track 9

Filename D:\#EAC new\#wav+flac\VA - 100 Italian Hits\cd 4\09. Ornella Vanoni - Se Qualcuno Ti Dira.wav

Pre-gap length 0:00:01.77

Peak level 98.6 %
Extraction speed 7.6 X
Track quality 100.0 %
Test CRC AC86AB21
Copy CRC AC86AB21
Accurately ripped (confidence 1) [436639A2] (AR v2)
Copy OK

Track 10

Filename D:\#EAC new\#wav+flac\VA - 100 Italian Hits\cd 4\10. Edoardo Vianello - Il Capello.wav

Pre-gap length 0:00:01.77

Peak level 98.3 %
Extraction speed 7.5 X
Track quality 100.0 %
Test CRC EC2B0A0B
Copy CRC EC2B0A0B
Accurately ripped (confidence 1) [39F1F0F1] (AR v2)
Copy OK

Track 11

Filename D:\#EAC new\#wav+flac\VA - 100 Italian Hits\cd 4\11. Gino Paoli - Senza Fine.wav

Pre-gap length 0:00:01.77

Peak level 98.3 %
Extraction speed 7.2 X
Track quality 100.0 %
Test CRC CFD2C19C
Copy CRC CFD2C19C
Accurately ripped (confidence 1) [50FAEFA0] (AR v2)
Copy OK

Track 12

Filename D:\#EAC new\#wav+flac\VA - 100 Italian Hits\cd 4\12. Marino Marini - La Più Bella Del Mondo.wav

Pre-gap length 0:00:01.77

Peak level 98.2 %
Extraction speed 8.1 X
Track quality 100.0 %
Test CRC E579823D
Copy CRC E579823D
Accurately ripped (confidence 1) [17A1A2A0] (AR v2)
Copy OK

Track 13

Filename D:\#EAC new\#wav+flac\VA - 100 Italian Hits\cd 4\13. Carlo Buti - Ritorna, Amor.wav

Pre-gap length 0:00:01.77

Peak level 98.3 %
Extraction speed 8.4 X
Track quality 100.0 %
Test CRC 283F20CE
Copy CRC 283F20CE
Accurately ripped (confidence 1) [1C3916E9] (AR v2)
Copy OK

Track 14

Filename D:\#EAC new\#wav+flac\VA - 100 Italian Hits\cd 4\14. Giorgio Consolini - Il Torrente.wav

Pre-gap length 0:00:01.77

Peak level 98.3 %
Extraction speed 8.7 X
Track quality 100.0 %
Test CRC 6CB6B8CC
Copy CRC 6CB6B8CC
Accurately ripped (confidence 1) [833C94E3] (AR v2)
Copy OK

Track 15

Filename D:\#EAC new\#wav+flac\VA - 100 Italian Hits\cd 4\15. Milva - Stanotte Al Luna Park.wav

Pre-gap length 0:00:01.77

Peak level 98.3 %
Extraction speed 9.2 X
Track quality 100.0 %
Test CRC 7D086FCA
Copy CRC 7D086FCA
Accurately ripped (confidence 1) [BD0E95CE] (AR v2)
Copy OK

Track 16

Filename D:\#EAC new\#wav+flac\VA - 100 Italian Hits\cd 4\16. Umberto Bindi - Arrivederci.wav

Pre-gap length 0:00:01.77

Peak level 98.2 %
Extraction speed 8.5 X
Track quality 100.0 %
Test CRC 8A86291B
Copy CRC 8A86291B
Accurately ripped (confidence 1) [661FC5C5] (AR v2)
Copy OK

Track 17

Filename D:\#EAC new\#wav+flac\VA - 100 Italian Hits\cd 4\17. Carla Boni - Come Giuda.wav

Pre-gap length 0:00:01.77

Peak level 98.3 %
Extraction speed 9.4 X
Track quality 100.0 %
Test CRC B669C390
Copy CRC B669C390
Accurately ripped (confidence 1) [57EFF23D] (AR v2)
Copy OK

Track 18

Filename D:\#EAC new\#wav+flac\VA - 100 Italian Hits\cd 4\18. Nico Fidenco - Legata A Un Granello Di Sabbia.wav

Pre-gap length 0:00:01.77

Peak level 98.3 %
Extraction speed 9.9 X
Track quality 100.0 %
Test CRC BDE48A2A
Copy CRC BDE48A2A
Accurately ripped (confidence 1) [042606DE] (AR v2)
Copy OK

Track 19

Filename D:\#EAC new\#wav+flac\VA - 100 Italian Hits\cd 4\19. Roberto Murolo - Serenata A Margellina.wav

Pre-gap length 0:00:01.77

Peak level 98.3 %
Extraction speed 9.4 X
Track quality 100.0 %
Test CRC 616E4D3C
Copy CRC 616E4D3C
Accurately ripped (confidence 1) [A9571D04] (AR v2)
Copy OK

Track 20

Filename D:\#EAC new\#wav+flac\VA - 100 Italian Hits\cd 4\20. Maria Monti - Zitella Cha Cha Cha.wav

Pre-gap length 0:00:01.77

Peak level 98.3 %
Extraction speed 9.6 X
Track quality 100.0 %
Test CRC ACD5D2CA
Copy CRC ACD5D2CA
Accurately ripped (confidence 1) [DC38E7B9] (AR v2)
Copy OK

Track 21

Filename D:\#EAC new\#wav+flac\VA - 100 Italian Hits\cd 4\21. Rocco Granata - Marina.wav

Pre-gap length 0:00:01.77

Peak level 98.3 %
Extraction speed 7.3 X
Track quality 99.9 %
Test CRC 89D474BF
Copy CRC 89D474BF
Accurately ripped (confidence 1) [5C9C1B73] (AR v2)
Copy OK

Track 22

Filename D:\#EAC new\#wav+flac\VA - 100 Italian Hits\cd 4\22. Giorgio Gaber - Geneviève.wav

Pre-gap length 0:00:01.77

Peak level 98.3 %
Extraction speed 9.1 X
Track quality 100.0 %
Test CRC 316A02D9
Copy CRC 316A02D9
Accurately ripped (confidence 1) [757D2489] (AR v2)
Copy OK

Track 23

Filename D:\#EAC new\#wav+flac\VA - 100 Italian Hits\cd 4\23. Mina - Pesci Rossi.wav

Pre-gap length 0:00:01.77

Peak level 98.3 %
Extraction speed 9.6 X
Track quality 100.0 %
Test CRC 8963A744
Copy CRC 8963A744
Accurately ripped (confidence 1) [FC5EC660] (AR v2)
Copy OK

Track 24

Filename D:\#EAC new\#wav+flac\VA - 100 Italian Hits\cd 4\24. Gianni Meccia - L'Ultima Lettera.wav

Pre-gap length 0:00:01.77

Peak level 98.2 %
Extraction speed 10.1 X
Track quality 100.0 %
Test CRC DBF37CD8
Copy CRC DBF37CD8
Accurately ripped (confidence 1) [B34E4600] (AR v2)
Copy OK

Track 25

Filename D:\#EAC new\#wav+flac\VA - 100 Italian Hits\cd 4\25. Mario Quartet Marini - Ciao Ciao Bambina (Piove).wav

Pre-gap length 0:00:01.77

Peak level 98.3 %
Extraction speed 10.1 X
Track quality 100.0 %
Test CRC FE424B50
Copy CRC FE424B50
Accurately ripped (confidence 1) [EC8194AB] (AR v2)
Copy OK


All tracks accurately ripped

No errors occurred

End of status report

–– CUETools DB Plugin V2.1.6

[CTDB TOCID: Yv1Q5pm2LW6UAYN9nUsrwY5V8Nc-] found
Submit result: Yv1Q5pm2LW6UAYN9nUsrwY5V8Nc- has been confirmed
Track | CTDB Status
1 | (1/1) Accurately ripped
2 | (1/1) Accurately ripped
3 | (1/1) Accurately ripped
4 | (1/1) Accurately ripped
5 | (1/1) Accurately ripped
6 | (1/1) Accurately ripped
7 | (1/1) Accurately ripped
8 | (1/1) Accurately ripped
9 | (1/1) Accurately ripped
10 | (1/1) Accurately ripped
11 | (1/1) Accurately ripped
12 | (1/1) Accurately ripped
13 | (1/1) Accurately ripped
14 | (1/1) Accurately ripped
15 | (1/1) Accurately ripped
16 | (1/1) Accurately ripped
17 | (1/1) Accurately ripped
18 | (1/1) Accurately ripped
19 | (1/1) Accurately ripped
20 | (1/1) Accurately ripped
21 | (1/1) Accurately ripped
22 | (1/1) Accurately ripped
23 | (1/1) Accurately ripped
24 | (1/1) Accurately ripped
25 | (1/1) Accurately ripped


==== Log checksum 16F990519EA4AC1CE813386A42E36F34D51DA6A8BCAF914CAABE7A25866BFD22 ====

––––––––––––––––––––––––––––––

Exact Audio Copy V1.3 from 2. September 2016

EAC extraction logfile from 18. November 2019, 13:26

Various Artists / 100 Italian Hits

Used drive : PLEXTOR PX-891SAF Adapter: 1 ID: 0

Read mode : Secure
Utilize accurate stream : Yes
Defeat audio cache : Yes
Make use of C2 pointers : No

Read offset correction : 6
Overread into Lead-In and Lead-Out : No
Fill up missing offset samples with silence : Yes
Delete leading and trailing silent blocks : No
Null samples used in CRC calculations : Yes
Used interface : Native Win32 interface for Win NT & 2000
Gap handling : Appended to previous track

Used output format : User Defined Encoder
Selected bitrate : 1024 kBit/s
Quality : High
Add ID3 tag : No
Command line compressor : C:\Program Files (x86)\Exact Audio Copy\Flac\flac.exe
Additional command line options : -8 -V -T "ARTIST=%artist%" -T "TITLE=%title%" -T "ALBUM=%albumtitle%" -T "DATE=%year%" -T "TRACKNUMBER=%tracknr%" -T "GENRE=%genre%" -T "PERFORMER=%albuminterpret%" -T "COMPOSER=%composer%" %haslyrics%–tag-from-file=LYRICS="%lyricsfile%"%haslyrics% -T "ALBUMARTIST=%albumartist%" -T "DISCNUMBER=%cdnumber%" -T "TOTALDISCS=%totalcds%" -T "TOTALTRACKS=%numtracks%" -T "COMMENT=%comment%" %source% -o %dest%


TOC of the extracted CD

Track | Start | Length | Start sector | End sector
––––––––––––––––––––––––––––-
1 | 0:00.00 | 3:29.36 | 0 | 15710
2 | 3:29.36 | 2:45.14 | 15711 | 28099
3 | 6:14.50 | 2:46.54 | 28100 | 40603
4 | 9:01.29 | 2:23.52 | 40604 | 51380
5 | 11:25.06 | 3:31.02 | 51381 | 67207
6 | 14:56.08 | 3:35.16 | 67208 | 83348
7 | 18:31.24 | 3:19.54 | 83349 | 98327
8 | 21:51.03 | 1:42.68 | 98328 | 106045
9 | 23:33.71 | 3:20.42 | 106046 | 121087
10 | 26:54.38 | 2:25.52 | 121088 | 132014
11 | 29:20.15 | 2:06.63 | 132015 | 141527
12 | 31:27.03 | 3:04.33 | 141528 | 155360
13 | 34:31.36 | 3:16.20 | 155361 | 170080
14 | 37:47.56 | 3:21.28 | 170081 | 185183
15 | 41:09.09 | 4:33.04 | 185184 | 205662
16 | 45:42.13 | 2:14.30 | 205663 | 215742
17 | 47:56.43 | 3:15.12 | 215743 | 230379
18 | 51:11.55 | 4:05.62 | 230380 | 248816
19 | 55:17.42 | 2:41.13 | 248817 | 260904
20 | 57:58.55 | 2:35.06 | 260905 | 272535
21 | 60:33.61 | 2:44.51 | 272536 | 284886
22 | 63:18.37 | 1:52.46 | 284887 | 293332
23 | 65:11.08 | 2:22.11 | 293333 | 303993
24 | 67:33.19 | 2:44.36 | 303994 | 316329
25 | 70:17.55 | 2:35.06 | 316330 | 327960


Track 1

Filename D:\#EAC new\#wav+flac\VA - 100 Italian Hits\cd 4\01. Renato Carosone - Tu Vuò Fà L'Americano.wav

Pre-gap length 0:00:02.00

Peak level 98.4 %
Extraction speed 4.3 X
Track quality 99.9 %
Test CRC 8D913698
Copy CRC 8D913698
Accurately ripped (confidence 1) [BB0CC428] (AR v2)
Copy OK

Track 2

Filename D:\#EAC new\#wav+flac\VA - 100 Italian Hits\cd 4\02. Anna Maria - Il Segreto.wav

Pre-gap length 0:00:01.77

Peak level 98.3 %
Extraction speed 5.5 X
Track quality 100.0 %
Test CRC DAB12F73
Copy CRC DAB12F73
Accurately ripped (confidence 1) [156247C5] (AR v2)
Copy OK

Track 3

Filename D:\#EAC new\#wav+flac\VA - 100 Italian Hits\cd 4\03. Adriano Celentano - Buonasera Signorina.wav

Pre-gap length 0:00:01.77

Peak level 98.3 %
Extraction speed 5.7 X
Track quality 100.0 %
Test CRC 3652B770
Copy CRC 3652B770
Accurately ripped (confidence 1) [28073926] (AR v2)
Copy OK

Track 4

Filename D:\#EAC new\#wav+flac\VA - 100 Italian Hits\cd 4\04. Sophia Loren - Bing! Bang! Bong!.wav

Pre-gap length 0:00:01.77

Peak level 98.3 %
Extraction speed 5.9 X
Track quality 100.0 %
Test CRC 032427D4
Copy CRC 032427D4
Accurately ripped (confidence 1) [6B0334C7] (AR v2)
Copy OK

Track 5

Filename D:\#EAC new\#wav+flac\VA - 100 Italian Hits\cd 4\05. Dino & His Orchestra Romano - La Bella Alcamo.wav

Pre-gap length 0:00:01.77

Peak level 98.4 %
Extraction speed 6.6 X
Track quality 100.0 %
Test CRC 6B576AD2
Copy CRC 6B576AD2
Accurately ripped (confidence 1) [D10BEA35] (AR v2)
Copy OK

Track 6

Filename D:\#EAC new\#wav+flac\VA - 100 Italian Hits\cd 4\06. Tonina Torricelli - Gondolì, Gondolà.wav

Pre-gap length 0:00:01.77

Peak level 98.4 %
Extraction speed 6.9 X
Track quality 100.0 %
Test CRC C76D9D63
Copy CRC C76D9D63
Accurately ripped (confidence 1) [FDD9F61E] (AR v2)
Copy OK

Track 7

Filename D:\#EAC new\#wav+flac\VA - 100 Italian Hits\cd 4\07. Miranda Martino - Stasera Tornero.wav

Pre-gap length 0:00:01.77

Peak level 98.3 %
Extraction speed 7.1 X
Track quality 100.0 %
Test CRC 03676FE6
Copy CRC 03676FE6
Accurately ripped (confidence 1) [0F6B8586] (AR v2)
Copy OK

Track 8

Filename D:\#EAC new\#wav+flac\VA - 100 Italian Hits\cd 4\08. Gino Latilla - Tutte Le Mamme.wav

Pre-gap length 0:00:01.77

Peak level 98.2 %
Extraction speed 4.4 X
Track quality 99.8 %
Test CRC E6B7CF9C
Copy CRC E6B7CF9C
Accurately ripped (confidence 1) [4B052A3E] (AR v2)
Copy OK

Track 9

Filename D:\#EAC new\#wav+flac\VA - 100 Italian Hits\cd 4\09. Ornella Vanoni - Se Qualcuno Ti Dira.wav

Pre-gap length 0:00:01.77

Peak level 98.6 %
Extraction speed 7.6 X
Track quality 100.0 %
Test CRC AC86AB21
Copy CRC AC86AB21
Accurately ripped (confidence 1) [436639A2] (AR v2)
Copy OK

Track 10

Filename D:\#EAC new\#wav+flac\VA - 100 Italian Hits\cd 4\10. Edoardo Vianello - Il Capello.wav

Pre-gap length 0:00:01.77

Peak level 98.3 %
Extraction speed 7.5 X
Track quality 100.0 %
Test CRC EC2B0A0B
Copy CRC EC2B0A0B
Accurately ripped (confidence 1) [39F1F0F1] (AR v2)
Copy OK

Track 11

Filename D:\#EAC new\#wav+flac\VA - 100 Italian Hits\cd 4\11. Gino Paoli - Senza Fine.wav

Pre-gap length 0:00:01.77

Peak level 98.3 %
Extraction speed 7.2 X
Track quality 100.0 %
Test CRC CFD2C19C
Copy CRC CFD2C19C
Accurately ripped (confidence 1) [50FAEFA0] (AR v2)
Copy OK

Track 12

Filename D:\#EAC new\#wav+flac\VA - 100 Italian Hits\cd 4\12. Marino Marini - La Più Bella Del Mondo.wav

Pre-gap length 0:00:01.77

Peak level 98.2 %
Extraction speed 8.1 X
Track quality 100.0 %
Test CRC E579823D
Copy CRC E579823D
Accurately ripped (confidence 1) [17A1A2A0] (AR v2)
Copy OK

Track 13

Filename D:\#EAC new\#wav+flac\VA - 100 Italian Hits\cd 4\13. Carlo Buti - Ritorna, Amor.wav

Pre-gap length 0:00:01.77

Peak level 98.3 %
Extraction speed 8.4 X
Track quality 100.0 %
Test CRC 283F20CE
Copy CRC 283F20CE
Accurately ripped (confidence 1) [1C3916E9] (AR v2)
Copy OK

Track 14

Filename D:\#EAC new\#wav+flac\VA - 100 Italian Hits\cd 4\14. Giorgio Consolini - Il Torrente.wav

Pre-gap length 0:00:01.77

Peak level 98.3 %
Extraction speed 8.7 X
Track quality 100.0 %
Test CRC 6CB6B8CC
Copy CRC 6CB6B8CC
Accurately ripped (confidence 1) [833C94E3] (AR v2)
Copy OK

Track 15

Filename D:\#EAC new\#wav+flac\VA - 100 Italian Hits\cd 4\15. Milva - Stanotte Al Luna Park.wav

Pre-gap length 0:00:01.77

Peak level 98.3 %
Extraction speed 9.2 X
Track quality 100.0 %
Test CRC 7D086FCA
Copy CRC 7D086FCA
Accurately ripped (confidence 1) [BD0E95CE] (AR v2)
Copy OK

Track 16

Filename D:\#EAC new\#wav+flac\VA - 100 Italian Hits\cd 4\16. Umberto Bindi - Arrivederci.wav

Pre-gap length 0:00:01.77

Peak level 98.2 %
Extraction speed 8.5 X
Track quality 100.0 %
Test CRC 8A86291B
Copy CRC 8A86291B
Accurately ripped (confidence 1) [661FC5C5] (AR v2)
Copy OK

Track 17

Filename D:\#EAC new\#wav+flac\VA - 100 Italian Hits\cd 4\17. Carla Boni - Come Giuda.wav

Pre-gap length 0:00:01.77

Peak level 98.3 %
Extraction speed 9.4 X
Track quality 100.0 %
Test CRC B669C390
Copy CRC B669C390
Accurately ripped (confidence 1) [57EFF23D] (AR v2)
Copy OK

Track 18

Filename D:\#EAC new\#wav+flac\VA - 100 Italian Hits\cd 4\18. Nico Fidenco - Legata A Un Granello Di Sabbia.wav

Pre-gap length 0:00:01.77

Peak level 98.3 %
Extraction speed 9.9 X
Track quality 100.0 %
Test CRC BDE48A2A
Copy CRC BDE48A2A
Accurately ripped (confidence 1) [042606DE] (AR v2)
Copy OK

Track 19

Filename D:\#EAC new\#wav+flac\VA - 100 Italian Hits\cd 4\19. Roberto Murolo - Serenata A Margellina.wav

Pre-gap length 0:00:01.77

Peak level 98.3 %
Extraction speed 9.4 X
Track quality 100.0 %
Test CRC 616E4D3C
Copy CRC 616E4D3C
Accurately ripped (confidence 1) [A9571D04] (AR v2)
Copy OK

Track 20

Filename D:\#EAC new\#wav+flac\VA - 100 Italian Hits\cd 4\20. Maria Monti - Zitella Cha Cha Cha.wav

Pre-gap length 0:00:01.77

Peak level 98.3 %
Extraction speed 9.6 X
Track quality 100.0 %
Test CRC ACD5D2CA
Copy CRC ACD5D2CA
Accurately ripped (confidence 1) [DC38E7B9] (AR v2)
Copy OK

Track 21

Filename D:\#EAC new\#wav+flac\VA - 100 Italian Hits\cd 4\21. Rocco Granata - Marina.wav

Pre-gap length 0:00:01.77

Peak level 98.3 %
Extraction speed 7.3 X
Track quality 99.9 %
Test CRC 89D474BF
Copy CRC 89D474BF
Accurately ripped (confidence 1) [5C9C1B73] (AR v2)
Copy OK

Track 22

Filename D:\#EAC new\#wav+flac\VA - 100 Italian Hits\cd 4\22. Giorgio Gaber - Geneviève.wav

Pre-gap length 0:00:01.77

Peak level 98.3 %
Extraction speed 9.1 X
Track quality 100.0 %
Test CRC 316A02D9
Copy CRC 316A02D9
Accurately ripped (confidence 1) [757D2489] (AR v2)
Copy OK

Track 23

Filename D:\#EAC new\#wav+flac\VA - 100 Italian Hits\cd 4\23. Mina - Pesci Rossi.wav

Pre-gap length 0:00:01.77

Peak level 98.3 %
Extraction speed 9.6 X
Track quality 100.0 %
Test CRC 8963A744
Copy CRC 8963A744
Accurately ripped (confidence 1) [FC5EC660] (AR v2)
Copy OK

Track 24

Filename D:\#EAC new\#wav+flac\VA - 100 Italian Hits\cd 4\24. Gianni Meccia - L'Ultima Lettera.wav

Pre-gap length 0:00:01.77

Peak level 98.2 %
Extraction speed 10.1 X
Track quality 100.0 %
Test CRC DBF37CD8
Copy CRC DBF37CD8
Accurately ripped (confidence 1) [B34E4600] (AR v2)
Copy OK

Track 25

Filename D:\#EAC new\#wav+flac\VA - 100 Italian Hits\cd 4\25. Mario Quartet Marini - Ciao Ciao Bambina (Piove).wav

Pre-gap length 0:00:01.77

Peak level 98.3 %
Extraction speed 10.1 X
Track quality 100.0 %
Test CRC FE424B50
Copy CRC FE424B50
Accurately ripped (confidence 1) [EC8194AB] (AR v2)
Copy OK


All tracks accurately ripped

No errors occurred

End of status report

–– CUETools DB Plugin V2.1.6

[CTDB TOCID: Yv1Q5pm2LW6UAYN9nUsrwY5V8Nc-] found
Submit result: Yv1Q5pm2LW6UAYN9nUsrwY5V8Nc- has been confirmed
Track | CTDB Status
1 | (1/1) Accurately ripped
2 | (1/1) Accurately ripped
3 | (1/1) Accurately ripped
4 | (1/1) Accurately ripped
5 | (1/1) Accurately ripped
6 | (1/1) Accurately ripped
7 | (1/1) Accurately ripped
8 | (1/1) Accurately ripped
9 | (1/1) Accurately ripped
10 | (1/1) Accurately ripped
11 | (1/1) Accurately ripped
12 | (1/1) Accurately ripped
13 | (1/1) Accurately ripped
14 | (1/1) Accurately ripped
15 | (1/1) Accurately ripped
16 | (1/1) Accurately ripped
17 | (1/1) Accurately ripped
18 | (1/1) Accurately ripped
19 | (1/1) Accurately ripped
20 | (1/1) Accurately ripped
21 | (1/1) Accurately ripped
22 | (1/1) Accurately ripped
23 | (1/1) Accurately ripped
24 | (1/1) Accurately ripped
25 | (1/1) Accurately ripped


==== Log checksum 16F990519EA4AC1CE813386A42E36F34D51DA6A8BCAF914CAABE7A25866BFD22 ====