Tags
Language
Tags

VA - Car Songs The 70s (4CD, 2019)

Posted By: ciklon5
VA - Car Songs The 70s (4CD, 2019)

VA - Car Songs The 70s (4CD, 2019)
FLAC (tracks +cue+log+scans) | 4:32:15 | 1,8 Gb
Genre: Pop, Rock, Funk, Disco / Label: Crimson

Car Songs - The 70s is out now Crimson! 4CDs in a Slim Digipak Covering the Best Seventies Hits for Your Car Journey! Featuring: Earth, Wind & Fire, Village People, Heatwave, Boney M., David Essex, Bay City Rollers, Labelle, Mott The Hoople, The Emotions, Lulu, Ian Dury, Lou Reed, Wild Cherry + many more..

Track List:
Disc: 1
1. McFadden & Whitehead - Ain't No Stoppin' Us Now
2. Earth, Wind & Fire - September
3. Heatwave - Boogie Nights
4. The Emotions - Best of My Love
5. Boney M. - Daddy Cool
6. Village People - YMCA
7. Baccara - Yes Sir, I Can Boogie
8. Eruption - I Can't Stand the Rain
9. The Hues Corporation - Rock the Boat
10. Andrea True Connection - More, More, More
11. Cheryl Lynn - Got to Be Real
12. Tina Charles - I Love to Love
13. Melba Moore - This Is It
14. Sarah Brightman and Hot Gossip - I Lost My Heart to a Starship Trooper
15. First Choice - Armed & Extremely Dangerous
16. Dan Hartman - Instant Replay
17. Leo Sayer - You Make Me Feel Like Dancing
18. Barry Blue - Dancin' (On a Saturday Night)
19. The Three Degrees - When Will I See You Again
20. Harold Melvin & The Blue Notes - Don't Leave Me This Way

Disc: 2
1. Wild Cherry - Play That Funky Music
2. Sly & The Family Stone - Family Affair
3. LaBelle - Lady Marmalade
4. Freda Payne - Band Of Gold
5. The O'Jays - Love Train
6. Chairmen Of The Board - Give Me Just a Little More Time
7. New York City - I'm Doin' Fine Now
8. The Drifters - Kissin' in the Back Row of the Movies
9. Billy Ocean - Love Really Hurts Without You
10. Gladys Knight & The Pips - Midnight Train to Georgia
11. The Isley Brothers - That Lady (Part 1)
12. Bill Withers - Lovely Day
13. The Trammps - Hold Back the Night
14. The Tymes - Ms. Grace
15. The Fantastics - Something Old Something New
16. The Delfonics - Didn't I (Blow Your Mind This Time)
17. Raydio - Jack and Jill
18. Dionne Warwick - I'll Never Love This Way Again
19. Deniece Williams - Free
20. Art Garfunkel - I Only Have Eyes for You

Disc: 3
1. The Nolans - I'm in the Mood for Dancing
2. Lulu - The Man Who Sold The World
3. David Essex - Hold Me Close
4. Bay City Rollers - Bye Bye Baby
5. Chicory Tip - Son Of My Father
6. Clout - Substitute
7. Showaddywaddy - Under The Moon Of Love
8. Brotherhood Of Man - Save Your Kisses For Me
9. Guys 'n' Dolls - There's A Whole Lot Of Loving
10. Co-Co - Bad Old Days
11. Christie - Yellow River
12. Terry Jacks - Seasons in the Sun
13. Edison Lighthouse - Love Grows (Where My Rosemary Goes)
14. Lynn Anderson - Rose Garden
15. The New Seekers - I Get A Little Sentimental Over You
16. The Pearls - Guilty
17. Daryl Hall & John Oates - Rich Girl
18. David Soul - Don't Give Up On Us Baby
19. Eric Carmen - All by Myself
20. Harry Nilsson - Without You

Disc: 4
1. Boston - More Than a Feeling
2. Toto - Hold the Line
3. Ram Jam - Black Betty
4. The Guess Who - American Woman
5. Kansas - Carry On Wayward Son
6. Meat Loaf - You Took the Words Right Out of My Mouth (Hot Summer Night)
7. Blue Oyster Cult - (Don't Fear) The Reaper
8. Santana - She's Not There
9. Cheap Trick - I Want You to Want Me
10. Mott The Hoople - All the Young Dudes
11. The Only Ones - Another Girl Another Planet
12. Ian Dury & The Blockheads - Hit Me With Your Rhythm Stick
13. Lou Reed - Walk On the Wild Side
14. Billy Swan - I Can Help
15. Dolly Parton - Jolene
16. Tammy Wynette - Stand By Your Man
17. Charlie Rich - The Most Beautiful Girl
18. Smokie - Living Next Door to Alice
19. Labi Siffre - It Must Be Love
20. John Denver - Annie's Song

Exact Audio Copy V1.3 from 2. September 2016

EAC extraction logfile from 15. February 2019, 11:42

Various / Car Songs - The 70s - CD1

Used drive : ATAPI iHAS124 Y Adapter: 1 ID: 0

Read mode : Secure
Utilize accurate stream : Yes
Defeat audio cache : No
Make use of C2 pointers : Yes

Read offset correction : 48
Overread into Lead-In and Lead-Out : No
Fill up missing offset samples with silence : Yes
Delete leading and trailing silent blocks : No
Null samples used in CRC calculations : Yes
Used interface : Native Win32 interface for Win NT & 2000
Gap handling : Not detected, thus appended to previous track

Used output format : User Defined Encoder
Selected bitrate : 896 kBit/s
Quality : High
Add ID3 tag : No
Command line compressor : C:\Program Files (x86)\Exact Audio Copy\FLAC\FLAC.EXE
Additional command line options : -6 -V -T "ARTIST=%artist%" -T "TITLE=%title%" -T "ALBUM=%albumtitle%" -T "DATE=%year%" -T "TRACKNUMBER=%tracknr%" -T "GENRE=%genre%" -T "COMMENT=%comment%" -T "BAND=%albuminterpret%" -T "ALBUMARTIST=%albuminterpret%" -T "COMPOSER=%composer%" %haslyrics%–tag-from-file=LYRICS="%lyricsfile%"%haslyrics% -T "DISCNUMBER=%cdnumber%" -T "TOTALDISCS=%totalcds%" -T "TOTALTRACKS=%numtracks%" %hascover%–picture="%coverfile%"%hascover% %source% -o %dest%


TOC of the extracted CD

Track | Start | Length | Start sector | End sector
––––––––––––––––––––––––––––-
1 | 0:00.00 | 3:34.60 | 0 | 16109
2 | 3:34.60 | 3:35.36 | 16110 | 32270
3 | 7:10.21 | 3:37.15 | 32271 | 48560
4 | 10:47.36 | 3:39.22 | 48561 | 65007
5 | 14:26.58 | 3:28.33 | 65008 | 80640
6 | 17:55.16 | 3:43.11 | 80641 | 97376
7 | 21:38.27 | 4:31.57 | 97377 | 117758
8 | 26:10.09 | 3:06.55 | 117759 | 131763
9 | 29:16.64 | 3:07.62 | 131764 | 145850
10 | 32:24.51 | 3:10.00 | 145851 | 160100
11 | 35:34.51 | 3:46.30 | 160101 | 177080
12 | 39:21.06 | 3:03.68 | 177081 | 190873
13 | 42:24.74 | 3:30.30 | 190874 | 206653
14 | 45:55.29 | 4:19.50 | 206654 | 226128
15 | 50:15.04 | 2:47.51 | 226129 | 238704
16 | 53:02.55 | 3:27.13 | 238705 | 254242
17 | 56:29.68 | 2:51.30 | 254243 | 267097
18 | 59:21.23 | 3:11.69 | 267098 | 281491
19 | 62:33.17 | 3:00.02 | 281492 | 294993
20 | 65:33.19 | 3:53.57 | 294994 | 312525


Track 1

Filename A:\PsPBuRnOuT's MUSIC\DRIVE\CAR SONGS - The 70s\CAR SONGS - The 70s - CD1\01.McFadden & Whitehead - Ain't No Stoppin' Us Now.wav

Peak level 89.1 %
Extraction speed 9.1 X
Track quality 99.9 %
Copy CRC 307BF92F
Track not present in AccurateRip database
Copy OK

Track 2

Filename A:\PsPBuRnOuT's MUSIC\DRIVE\CAR SONGS - The 70s\CAR SONGS - The 70s - CD1\02.Earth, Wind & Fire - September.wav

Peak level 94.3 %
Extraction speed 10.9 X
Track quality 100.0 %
Copy CRC B89A95DD
Track not present in AccurateRip database
Copy OK

Track 3

Filename A:\PsPBuRnOuT's MUSIC\DRIVE\CAR SONGS - The 70s\CAR SONGS - The 70s - CD1\03.Heatwave - Boogie Nights.wav

Peak level 83.1 %
Extraction speed 11.2 X
Track quality 100.0 %
Copy CRC CA1F68E7
Track not present in AccurateRip database
Copy OK

Track 4

Filename A:\PsPBuRnOuT's MUSIC\DRIVE\CAR SONGS - The 70s\CAR SONGS - The 70s - CD1\04.The Emotions - Best Of My Love.wav

Peak level 85.1 %
Extraction speed 12.5 X
Track quality 100.0 %
Copy CRC 096E5CC6
Track not present in AccurateRip database
Copy OK

Track 5

Filename A:\PsPBuRnOuT's MUSIC\DRIVE\CAR SONGS - The 70s\CAR SONGS - The 70s - CD1\05.Boney M. - Daddy Cool.wav

Peak level 58.9 %
Extraction speed 13.3 X
Track quality 100.0 %
Copy CRC 7F3299BD
Track not present in AccurateRip database
Copy OK

Track 6

Filename A:\PsPBuRnOuT's MUSIC\DRIVE\CAR SONGS - The 70s\CAR SONGS - The 70s - CD1\06.Village People - YMCA.wav

Peak level 69.1 %
Extraction speed 13.9 X
Track quality 100.0 %
Copy CRC C8B4EF49
Track not present in AccurateRip database
Copy OK

Track 7

Filename A:\PsPBuRnOuT's MUSIC\DRIVE\CAR SONGS - The 70s\CAR SONGS - The 70s - CD1\07.Baccara - Yes Sir, I Can Boogie.wav

Peak level 68.9 %
Extraction speed 14.1 X
Track quality 100.0 %
Copy CRC A4D8A2C2
Track not present in AccurateRip database
Copy OK

Track 8

Filename A:\PsPBuRnOuT's MUSIC\DRIVE\CAR SONGS - The 70s\CAR SONGS - The 70s - CD1\08.Eruption - I Can't Stand The Rain.wav

Peak level 84.1 %
Extraction speed 14.7 X
Track quality 99.8 %
Copy CRC 86A69D44
Track not present in AccurateRip database
Copy OK

Track 9

Filename A:\PsPBuRnOuT's MUSIC\DRIVE\CAR SONGS - The 70s\CAR SONGS - The 70s - CD1\09.The Hues Corporation - Rock The Boat.wav

Peak level 84.1 %
Extraction speed 16.0 X
Track quality 100.0 %
Copy CRC B03852F4
Track not present in AccurateRip database
Copy OK

Track 10

Filename A:\PsPBuRnOuT's MUSIC\DRIVE\CAR SONGS - The 70s\CAR SONGS - The 70s - CD1\10.Andrea True Connection - More, More, More.wav

Peak level 79.4 %
Extraction speed 16.4 X
Track quality 100.0 %
Copy CRC FB9A43BE
Track not present in AccurateRip database
Copy OK

Track 11

Filename A:\PsPBuRnOuT's MUSIC\DRIVE\CAR SONGS - The 70s\CAR SONGS - The 70s - CD1\11.Cheryl Lynn - Got To Be Real.wav

Peak level 85.1 %
Extraction speed 16.8 X
Track quality 100.0 %
Copy CRC CBB344EA
Track not present in AccurateRip database
Copy OK

Track 12

Filename A:\PsPBuRnOuT's MUSIC\DRIVE\CAR SONGS - The 70s\CAR SONGS - The 70s - CD1\12.Tina Charles - I Love To Love.wav

Peak level 85.1 %
Extraction speed 17.5 X
Track quality 100.0 %
Copy CRC 60F79935
Track not present in AccurateRip database
Copy OK

Track 13

Filename A:\PsPBuRnOuT's MUSIC\DRIVE\CAR SONGS - The 70s\CAR SONGS - The 70s - CD1\13.Melba Moore - This Is It.wav

Peak level 85.1 %
Extraction speed 17.9 X
Track quality 100.0 %
Copy CRC BA4CBDFB
Track not present in AccurateRip database
Copy OK

Track 14

Filename A:\PsPBuRnOuT's MUSIC\DRIVE\CAR SONGS - The 70s\CAR SONGS - The 70s - CD1\14.Sarah Brightman And Hot Gossip - I Lost My Heart To A Starship Trooper.wav

Peak level 82.2 %
Extraction speed 17.6 X
Track quality 100.0 %
Copy CRC ED5D63F1
Track not present in AccurateRip database
Copy OK

Track 15

Filename A:\PsPBuRnOuT's MUSIC\DRIVE\CAR SONGS - The 70s\CAR SONGS - The 70s - CD1\15.First Choice - Armed & Extremley Dangerous.wav

Peak level 84.1 %
Extraction speed 19.1 X
Track quality 100.0 %
Copy CRC ED666B53
Track not present in AccurateRip database
Copy OK

Track 16

Filename A:\PsPBuRnOuT's MUSIC\DRIVE\CAR SONGS - The 70s\CAR SONGS - The 70s - CD1\16.Dan Hartman - Instant Replay.wav

Peak level 81.4 %
Extraction speed 19.4 X
Track quality 100.0 %
Copy CRC CF9DD903
Track not present in AccurateRip database
Copy OK

Track 17

Filename A:\PsPBuRnOuT's MUSIC\DRIVE\CAR SONGS - The 70s\CAR SONGS - The 70s - CD1\17.Leo Sayer - You Make Me Feel Like Dancing.wav

Peak level 90.3 %
Extraction speed 18.6 X
Track quality 100.0 %
Copy CRC 9588124A
Track not present in AccurateRip database
Copy OK

Track 18

Filename A:\PsPBuRnOuT's MUSIC\DRIVE\CAR SONGS - The 70s\CAR SONGS - The 70s - CD1\18.Barry Blue - Dancin' (On A Saturday Night).wav

Peak level 79.4 %
Extraction speed 15.0 X
Track quality 99.7 %
Copy CRC ECFF2B8B
Track not present in AccurateRip database
Copy OK

Track 19

Filename A:\PsPBuRnOuT's MUSIC\DRIVE\CAR SONGS - The 70s\CAR SONGS - The 70s - CD1\19.The Three Degrees - When Will I See You Again.wav

Peak level 82.2 %
Extraction speed 16.6 X
Track quality 99.8 %
Copy CRC AA73A5A5
Track not present in AccurateRip database
Copy OK

Track 20

Filename A:\PsPBuRnOuT's MUSIC\DRIVE\CAR SONGS - The 70s\CAR SONGS - The 70s - CD1\20.Harold Melvin & The Blue Notes - Don't Leave Me This Way.wav

Peak level 77.4 %
Extraction speed 20.3 X
Track quality 100.0 %
Copy CRC F3179C17
Track not present in AccurateRip database
Copy OK


None of the tracks are present in the AccurateRip database

No errors occurred

End of status report

–– CUETools DB Plugin V2.1.6

[CTDB TOCID: 8THFvwOWx44Hi.GmsZcBaecfZOY-] disk not present in database
Submit result: 8THFvwOWx44Hi.GmsZcBaecfZOY- has been uploaded

Exact Audio Copy V1.3 from 2. September 2016

EAC extraction logfile from 15. February 2019, 12:11

Various / Car Songs - The 70s - CD2

Used drive : ATAPI iHAS124 Y Adapter: 1 ID: 0

Read mode : Secure
Utilize accurate stream : Yes
Defeat audio cache : No
Make use of C2 pointers : Yes

Read offset correction : 48
Overread into Lead-In and Lead-Out : No
Fill up missing offset samples with silence : Yes
Delete leading and trailing silent blocks : No
Null samples used in CRC calculations : Yes
Used interface : Native Win32 interface for Win NT & 2000
Gap handling : Not detected, thus appended to previous track

Used output format : User Defined Encoder
Selected bitrate : 896 kBit/s
Quality : High
Add ID3 tag : No
Command line compressor : C:\Program Files (x86)\Exact Audio Copy\FLAC\FLAC.EXE
Additional command line options : -6 -V -T "ARTIST=%artist%" -T "TITLE=%title%" -T "ALBUM=%albumtitle%" -T "DATE=%year%" -T "TRACKNUMBER=%tracknr%" -T "GENRE=%genre%" -T "COMMENT=%comment%" -T "BAND=%albuminterpret%" -T "ALBUMARTIST=%albuminterpret%" -T "COMPOSER=%composer%" %haslyrics%–tag-from-file=LYRICS="%lyricsfile%"%haslyrics% -T "DISCNUMBER=%cdnumber%" -T "TOTALDISCS=%totalcds%" -T "TOTALTRACKS=%numtracks%" %hascover%–picture="%coverfile%"%hascover% %source% -o %dest%


TOC of the extracted CD

Track | Start | Length | Start sector | End sector
––––––––––––––––––––––––––––-
1 | 0:00.00 | 3:04.23 | 0 | 13822
2 | 3:04.23 | 3:05.36 | 13823 | 27733
3 | 6:09.59 | 3:55.64 | 27734 | 45422
4 | 10:05.48 | 2:53.35 | 45423 | 58432
5 | 12:59.08 | 2:59.29 | 58433 | 71886
6 | 15:58.37 | 2:37.06 | 71887 | 83667
7 | 18:35.43 | 2:50.48 | 83668 | 96465
8 | 21:26.16 | 3:31.62 | 96466 | 112352
9 | 24:58.03 | 3:03.72 | 112353 | 126149
10 | 28:02.00 | 4:38.45 | 126150 | 147044
11 | 32:40.45 | 3:14.27 | 147045 | 161621
12 | 35:54.72 | 4:12.41 | 161622 | 180562
13 | 40:07.38 | 3:45.64 | 180563 | 197501
14 | 43:53.27 | 3:24.55 | 197502 | 212856
15 | 47:18.07 | 2:47.07 | 212857 | 225388
16 | 50:05.14 | 3:22.71 | 225389 | 240609
17 | 53:28.10 | 4:35.28 | 240610 | 261262
18 | 58:03.38 | 3:30.66 | 261263 | 277078
19 | 61:34.29 | 2:51.46 | 277079 | 289949
20 | 64:26.00 | 3:36.32 | 289950 | 306181


Track 1

Filename A:\PsPBuRnOuT's MUSIC\DRIVE\CAR SONGS - The 70s\CAR SONGS - The 70s - CD2\01.Wild Cherry - Play That Funky Music.wav

Peak level 79.4 %
Extraction speed 9.4 X
Track quality 100.0 %
Copy CRC 35EC7E2E
Track not present in AccurateRip database
Copy OK

Track 2

Filename A:\PsPBuRnOuT's MUSIC\DRIVE\CAR SONGS - The 70s\CAR SONGS - The 70s - CD2\02.Sly & The Family Stone - Family Affair.wav

Peak level 94.3 %
Extraction speed 10.8 X
Track quality 100.0 %
Copy CRC 40319B03
Track not present in AccurateRip database
Copy OK

Track 3

Filename A:\PsPBuRnOuT's MUSIC\DRIVE\CAR SONGS - The 70s\CAR SONGS - The 70s - CD2\03.LaBelle - Lady Marmlade.wav

Peak level 78.5 %
Extraction speed 11.5 X
Track quality 100.0 %
Copy CRC 94BFFD2A
Track not present in AccurateRip database
Copy OK

Track 4

Filename A:\PsPBuRnOuT's MUSIC\DRIVE\CAR SONGS - The 70s\CAR SONGS - The 70s - CD2\04.Freda Payne - Band Of Gold.wav

Peak level 94.3 %
Extraction speed 12.4 X
Track quality 100.0 %
Copy CRC C3B29B9D
Track not present in AccurateRip database
Copy OK

Track 5

Filename A:\PsPBuRnOuT's MUSIC\DRIVE\CAR SONGS - The 70s\CAR SONGS - The 70s - CD2\05.The O'Jays - Love Train.wav

Peak level 94.3 %
Extraction speed 12.2 X
Track quality 99.8 %
Copy CRC 1A92EEA9
Track not present in AccurateRip database
Copy OK

Track 6

Filename A:\PsPBuRnOuT's MUSIC\DRIVE\CAR SONGS - The 70s\CAR SONGS - The 70s - CD2\06.Chairmen Of The Board - Give Me Just A Little More Time.wav

Peak level 73.7 %
Extraction speed 12.7 X
Track quality 99.8 %
Copy CRC 8BA5FCD3
Track not present in AccurateRip database
Copy OK

Track 7

Filename A:\PsPBuRnOuT's MUSIC\DRIVE\CAR SONGS - The 70s\CAR SONGS - The 70s - CD2\07.New York City - I'm Doin' Fine Now.wav

Peak level 82.2 %
Extraction speed 14.0 X
Track quality 100.0 %
Copy CRC CAED001B
Track not present in AccurateRip database
Copy OK

Track 8

Filename A:\PsPBuRnOuT's MUSIC\DRIVE\CAR SONGS - The 70s\CAR SONGS - The 70s - CD2\08.The Drifters - Kissin' In The Back Row Of The Movies.wav

Peak level 91.1 %
Extraction speed 14.0 X
Track quality 100.0 %
Copy CRC A7A9DBCE
Track not present in AccurateRip database
Copy OK

Track 9

Filename A:\PsPBuRnOuT's MUSIC\DRIVE\CAR SONGS - The 70s\CAR SONGS - The 70s - CD2\09.Billy Ocean - Love Really Hurts Without You.wav

Peak level 64.4 %
Extraction speed 15.2 X
Track quality 100.0 %
Copy CRC 053B60FE
Track not present in AccurateRip database
Copy OK

Track 10

Filename A:\PsPBuRnOuT's MUSIC\DRIVE\CAR SONGS - The 70s\CAR SONGS - The 70s - CD2\10.Gladys Knight & The Pips - Midnight Train To Georgia.wav

Peak level 94.3 %
Extraction speed 15.7 X
Track quality 100.0 %
Copy CRC F5242E5A
Track not present in AccurateRip database
Copy OK

Track 11

Filename A:\PsPBuRnOuT's MUSIC\DRIVE\CAR SONGS - The 70s\CAR SONGS - The 70s - CD2\11.The Isley Brothers - That Lady (Part 1).wav

Peak level 94.3 %
Extraction speed 15.6 X
Track quality 99.8 %
Copy CRC BB189194
Track not present in AccurateRip database
Copy OK

Track 12

Filename A:\PsPBuRnOuT's MUSIC\DRIVE\CAR SONGS - The 70s\CAR SONGS - The 70s - CD2\12.Bill Withers - Lovely Day.wav

Peak level 94.3 %
Extraction speed 16.3 X
Track quality 100.0 %
Copy CRC 55A3541C
Track not present in AccurateRip database
Copy OK

Track 13

Filename A:\PsPBuRnOuT's MUSIC\DRIVE\CAR SONGS - The 70s\CAR SONGS - The 70s - CD2\13.The Trammps - Hold Back The Night.wav

Peak level 94.3 %
Extraction speed 16.8 X
Track quality 100.0 %
Copy CRC 2B22B853
Track not present in AccurateRip database
Copy OK

Track 14

Filename A:\PsPBuRnOuT's MUSIC\DRIVE\CAR SONGS - The 70s\CAR SONGS - The 70s - CD2\14.The Tymes - Ms. Grace.wav

Peak level 91.1 %
Extraction speed 17.5 X
Track quality 100.0 %
Copy CRC 3ECB0D8F
Track not present in AccurateRip database
Copy OK

Track 15

Filename A:\PsPBuRnOuT's MUSIC\DRIVE\CAR SONGS - The 70s\CAR SONGS - The 70s - CD2\15.The Fantastics - Something Old Something New.wav

Peak level 94.3 %
Extraction speed 18.8 X
Track quality 100.0 %
Copy CRC B04AA3CC
Track not present in AccurateRip database
Copy OK

Track 16

Filename A:\PsPBuRnOuT's MUSIC\DRIVE\CAR SONGS - The 70s\CAR SONGS - The 70s - CD2\16.The Delfonics - Didn't I (Blow Your Mind This Time).wav

Peak level 95.6 %
Extraction speed 18.0 X
Track quality 100.0 %
Copy CRC F4F5673A
Track not present in AccurateRip database
Copy OK

Track 17

Filename A:\PsPBuRnOuT's MUSIC\DRIVE\CAR SONGS - The 70s\CAR SONGS - The 70s - CD2\17.Raydio - Jack And Jill.wav

Peak level 91.1 %
Extraction speed 19.3 X
Track quality 100.0 %
Copy CRC CE501837
Track not present in AccurateRip database
Copy OK

Track 18

Filename A:\PsPBuRnOuT's MUSIC\DRIVE\CAR SONGS - The 70s\CAR SONGS - The 70s - CD2\18.Dionne Warwick - I'll Never Love This Way Again.wav

Peak level 83.2 %
Extraction speed 19.0 X
Track quality 100.0 %
Copy CRC 31D19A8E
Track not present in AccurateRip database
Copy OK

Track 19

Filename A:\PsPBuRnOuT's MUSIC\DRIVE\CAR SONGS - The 70s\CAR SONGS - The 70s - CD2\19.Deniece Williams - Free.wav

Peak level 94.3 %
Extraction speed 19.6 X
Track quality 100.0 %
Copy CRC A61FE2A0
Track not present in AccurateRip database
Copy OK

Track 20

Filename A:\PsPBuRnOuT's MUSIC\DRIVE\CAR SONGS - The 70s\CAR SONGS - The 70s - CD2\20.Art Garfunkel - I Only Have Eyes For You.wav

Peak level 94.3 %
Extraction speed 20.9 X
Track quality 100.0 %
Copy CRC 8055A1AB
Track not present in AccurateRip database
Copy OK


None of the tracks are present in the AccurateRip database

No errors occurred

End of status report

–– CUETools DB Plugin V2.1.6

[CTDB TOCID: mv_i8zE3fGTIDFwrLzzaJmOVZLo-] disk not present in database
Submit result: mv_i8zE3fGTIDFwrLzzaJmOVZLo- has been uploaded

Exact Audio Copy V1.3 from 2. September 2016

EAC extraction logfile from 15. February 2019, 12:45

Various / Car Songs - The 70s - CD3

Used drive : ATAPI iHAS124 Y Adapter: 1 ID: 0

Read mode : Secure
Utilize accurate stream : Yes
Defeat audio cache : No
Make use of C2 pointers : Yes

Read offset correction : 48
Overread into Lead-In and Lead-Out : No
Fill up missing offset samples with silence : Yes
Delete leading and trailing silent blocks : No
Null samples used in CRC calculations : Yes
Used interface : Native Win32 interface for Win NT & 2000
Gap handling : Not detected, thus appended to previous track

Used output format : User Defined Encoder
Selected bitrate : 896 kBit/s
Quality : High
Add ID3 tag : No
Command line compressor : C:\Program Files (x86)\Exact Audio Copy\FLAC\FLAC.EXE
Additional command line options : -6 -V -T "ARTIST=%artist%" -T "TITLE=%title%" -T "ALBUM=%albumtitle%" -T "DATE=%year%" -T "TRACKNUMBER=%tracknr%" -T "GENRE=%genre%" -T "COMMENT=%comment%" -T "BAND=%albuminterpret%" -T "ALBUMARTIST=%albuminterpret%" -T "COMPOSER=%composer%" %haslyrics%–tag-from-file=LYRICS="%lyricsfile%"%haslyrics% -T "DISCNUMBER=%cdnumber%" -T "TOTALDISCS=%totalcds%" -T "TOTALTRACKS=%numtracks%" %hascover%–picture="%coverfile%"%hascover% %source% -o %dest%


TOC of the extracted CD

Track | Start | Length | Start sector | End sector
––––––––––––––––––––––––––––-
1 | 0:00.00 | 3:18.31 | 0 | 14880
2 | 3:18.31 | 3:51.03 | 14881 | 32208
3 | 7:09.34 | 3:53.58 | 32209 | 49741
4 | 11:03.17 | 2:51.62 | 49742 | 62628
5 | 13:55.04 | 3:11.34 | 62629 | 76987
6 | 17:06.38 | 3:25.65 | 76988 | 92427
7 | 20:32.28 | 3:11.33 | 92428 | 106785
8 | 23:43.61 | 3:03.63 | 106786 | 120573
9 | 26:47.49 | 3:14.42 | 120574 | 135165
10 | 30:02.16 | 2:37.65 | 135166 | 147005
11 | 32:40.06 | 2:42.61 | 147006 | 159216
12 | 35:22.67 | 3:27.42 | 159217 | 174783
13 | 38:50.34 | 2:49.20 | 174784 | 187478
14 | 41:39.54 | 2:54.60 | 187479 | 200588
15 | 44:34.39 | 2:54.28 | 200589 | 213666
16 | 47:28.67 | 3:03.48 | 213667 | 227439
17 | 50:32.40 | 2:25.41 | 227440 | 238355
18 | 52:58.06 | 3:37.23 | 238356 | 254653
19 | 56:35.29 | 4:53.71 | 254654 | 276699
20 | 61:29.25 | 3:20.66 | 276700 | 291765


Track 1

Filename A:\PsPBuRnOuT's MUSIC\DRIVE\CAR SONGS - The 70s\CAR SONGS - The 70s - CD3\01.The Nolans - I'm In The Mood For Dancing.wav

Peak level 94.3 %
Extraction speed 13.1 X
Track quality 100.0 %
Copy CRC 463B0A7A
Track not present in AccurateRip database
Copy OK

Track 2

Filename A:\PsPBuRnOuT's MUSIC\DRIVE\CAR SONGS - The 70s\CAR SONGS - The 70s - CD3\02.Lulu - The Man Who Sold The World.wav

Peak level 94.3 %
Extraction speed 17.0 X
Track quality 99.9 %
Copy CRC 56C276DE
Track not present in AccurateRip database
Copy OK

Track 3

Filename A:\PsPBuRnOuT's MUSIC\DRIVE\CAR SONGS - The 70s\CAR SONGS - The 70s - CD3\03.David Essex - Hold Me Close.wav

Peak level 94.3 %
Extraction speed 16.6 X
Track quality 100.0 %
Copy CRC 24F4730A
Track not present in AccurateRip database
Copy OK

Track 4

Filename A:\PsPBuRnOuT's MUSIC\DRIVE\CAR SONGS - The 70s\CAR SONGS - The 70s - CD3\04.Bay City Rollers - Bye Bye Baby.wav

Peak level 94.3 %
Extraction speed 23.0 X
Track quality 100.0 %
Copy CRC EF65F1BD
Track not present in AccurateRip database
Copy OK

Track 5

Filename A:\PsPBuRnOuT's MUSIC\DRIVE\CAR SONGS - The 70s\CAR SONGS - The 70s - CD3\05.Chicory Tip - Son Of My Father.wav

Peak level 82.2 %
Extraction speed 22.8 X
Track quality 100.0 %
Copy CRC 3765F2CE
Track not present in AccurateRip database
Copy OK

Track 6

Filename A:\PsPBuRnOuT's MUSIC\DRIVE\CAR SONGS - The 70s\CAR SONGS - The 70s - CD3\06.Clout - Substitute.wav

Peak level 85.1 %
Extraction speed 20.7 X
Track quality 99.8 %
Copy CRC F855EE1A
Track not present in AccurateRip database
Copy OK

Track 7

Filename A:\PsPBuRnOuT's MUSIC\DRIVE\CAR SONGS - The 70s\CAR SONGS - The 70s - CD3\07.Showaddywaddy - Under The Moon Of Love.wav

Peak level 66.8 %
Extraction speed 20.2 X
Track quality 100.0 %
Copy CRC CE14D19A
Track not present in AccurateRip database
Copy OK

Track 8

Filename A:\PsPBuRnOuT's MUSIC\DRIVE\CAR SONGS - The 70s\CAR SONGS - The 70s - CD3\08.Brotherhood Of Man - Save Your Kisses For Me.wav

Peak level 94.3 %
Extraction speed 26.0 X
Track quality 100.0 %
Copy CRC 033A7F2A
Track not present in AccurateRip database
Copy OK

Track 9

Filename A:\PsPBuRnOuT's MUSIC\DRIVE\CAR SONGS - The 70s\CAR SONGS - The 70s - CD3\09.Guys 'N' Dolls - There's A Whole Lot Of Loving.wav

Peak level 91.1 %
Extraction speed 27.2 X
Track quality 100.0 %
Copy CRC F8A7F233
Track not present in AccurateRip database
Copy OK

Track 10

Filename A:\PsPBuRnOuT's MUSIC\DRIVE\CAR SONGS - The 70s\CAR SONGS - The 70s - CD3\10.Co-Co - Bad Old Days.wav

Peak level 82.2 %
Extraction speed 29.6 X
Track quality 100.0 %
Copy CRC 84BD63F3
Track not present in AccurateRip database
Copy OK

Track 11

Filename A:\PsPBuRnOuT's MUSIC\DRIVE\CAR SONGS - The 70s\CAR SONGS - The 70s - CD3\11.Christie - Yellow River.wav

Peak level 75.8 %
Extraction speed 23.3 X
Track quality 99.8 %
Copy CRC B93C4E15
Track not present in AccurateRip database
Copy OK

Track 12

Filename A:\PsPBuRnOuT's MUSIC\DRIVE\CAR SONGS - The 70s\CAR SONGS - The 70s - CD3\12.Terry Jacks - Seasons In The Sun.wav

Peak level 94.3 %
Extraction speed 24.4 X
Track quality 100.0 %
Copy CRC 94233662
Track not present in AccurateRip database
Copy OK

Track 13

Filename A:\PsPBuRnOuT's MUSIC\DRIVE\CAR SONGS - The 70s\CAR SONGS - The 70s - CD3\13.Edison Lighthouse - Love Grows (Where My Rosemary Goes).wav

Peak level 83.1 %
Extraction speed 31.8 X
Track quality 100.0 %
Copy CRC A7176228
Track not present in AccurateRip database
Copy OK

Track 14

Filename A:\PsPBuRnOuT's MUSIC\DRIVE\CAR SONGS - The 70s\CAR SONGS - The 70s - CD3\14.Lynn Anderson - Rose Garden.wav

Peak level 89.1 %
Extraction speed 30.9 X
Track quality 100.0 %
Copy CRC E0A51850
Track not present in AccurateRip database
Copy OK

Track 15

Filename A:\PsPBuRnOuT's MUSIC\DRIVE\CAR SONGS - The 70s\CAR SONGS - The 70s - CD3\15.The New Seekers - I Get A Little Sentimental Over You.wav

Peak level 83.2 %
Extraction speed 33.8 X
Track quality 100.0 %
Copy CRC 6CADFE1F
Track not present in AccurateRip database
Copy OK

Track 16

Filename A:\PsPBuRnOuT's MUSIC\DRIVE\CAR SONGS - The 70s\CAR SONGS - The 70s - CD3\16.The Pearls - Guilty.wav

Peak level 84.1 %
Extraction speed 34.5 X
Track quality 100.0 %
Copy CRC 2571B088
Track not present in AccurateRip database
Copy OK

Track 17

Filename A:\PsPBuRnOuT's MUSIC\DRIVE\CAR SONGS - The 70s\CAR SONGS - The 70s - CD3\17.Daryl Hall & John Oates - Rich Girl.wav

Peak level 94.3 %
Extraction speed 32.5 X
Track quality 100.0 %
Copy CRC 22C1BDB8
Track not present in AccurateRip database
Copy OK

Track 18

Filename A:\PsPBuRnOuT's MUSIC\DRIVE\CAR SONGS - The 70s\CAR SONGS - The 70s - CD3\18.David Soul - Don't Give Up On Us Baby.wav

Peak level 94.3 %
Extraction speed 27.7 X
Track quality 99.9 %
Copy CRC B8EA90A8
Track not present in AccurateRip database
Copy OK

Track 19

Filename A:\PsPBuRnOuT's MUSIC\DRIVE\CAR SONGS - The 70s\CAR SONGS - The 70s - CD3\19.Eric Carmen - All By Myself.wav

Peak level 85.1 %
Extraction speed 29.7 X
Track quality 100.0 %
Copy CRC E76206BE
Track not present in AccurateRip database
Copy OK

Track 20

Filename A:\PsPBuRnOuT's MUSIC\DRIVE\CAR SONGS - The 70s\CAR SONGS - The 70s - CD3\20.Harry Nilsson - Without You.wav

Peak level 94.3 %
Extraction speed 38.0 X
Track quality 100.0 %
Copy CRC 87D3DF3B
Track not present in AccurateRip database
Copy OK


None of the tracks are present in the AccurateRip database

No errors occurred

End of status report

–– CUETools DB Plugin V2.1.6

[CTDB TOCID: IH_QeOms9e5YyhxinBVqN..leE8-] disk not present in database
Submit result: IH_QeOms9e5YyhxinBVqN..leE8- has been uploaded

Exact Audio Copy V1.3 from 2. September 2016

EAC extraction logfile from 15. February 2019, 21:05

Various / Car Songs - The 70s - CD4

Used drive : ATAPI iHAS124 Y Adapter: 1 ID: 0

Read mode : Secure
Utilize accurate stream : Yes
Defeat audio cache : No
Make use of C2 pointers : Yes

Read offset correction : 48
Overread into Lead-In and Lead-Out : No
Fill up missing offset samples with silence : Yes
Delete leading and trailing silent blocks : No
Null samples used in CRC calculations : Yes
Used interface : Native Win32 interface for Win NT & 2000
Gap handling : Not detected, thus appended to previous track

Used output format : User Defined Encoder
Selected bitrate : 896 kBit/s
Quality : High
Add ID3 tag : No
Command line compressor : C:\Program Files (x86)\Exact Audio Copy\FLAC\FLAC.EXE
Additional command line options : -6 -V -T "ARTIST=%artist%" -T "TITLE=%title%" -T "ALBUM=%albumtitle%" -T "DATE=%year%" -T "TRACKNUMBER=%tracknr%" -T "GENRE=%genre%" -T "COMMENT=%comment%" -T "BAND=%albuminterpret%" -T "ALBUMARTIST=%albuminterpret%" -T "COMPOSER=%composer%" %haslyrics%–tag-from-file=LYRICS="%lyricsfile%"%haslyrics% -T "DISCNUMBER=%cdnumber%" -T "TOTALDISCS=%totalcds%" -T "TOTALTRACKS=%numtracks%" %hascover%–picture="%coverfile%"%hascover% %source% -o %dest%


TOC of the extracted CD

Track | Start | Length | Start sector | End sector
––––––––––––––––––––––––––––-
1 | 0:00.00 | 3:28.49 | 0 | 15648
2 | 3:28.49 | 3:57.27 | 15649 | 33450
3 | 7:26.01 | 2:30.27 | 33451 | 44727
4 | 9:56.28 | 3:53.58 | 44728 | 62260
5 | 13:50.11 | 3:28.00 | 62261 | 77860
6 | 17:18.11 | 4:12.65 | 77861 | 96825
7 | 21:31.01 | 3:49.63 | 96826 | 114063
8 | 25:20.64 | 4:04.19 | 114064 | 132382
9 | 29:25.08 | 3:41.24 | 132383 | 148981
10 | 33:06.32 | 3:32.28 | 148982 | 164909
11 | 36:38.60 | 3:01.54 | 164910 | 178538
12 | 39:40.39 | 3:43.59 | 178539 | 195322
13 | 43:24.23 | 4:13.66 | 195323 | 214363
14 | 47:38.14 | 3:59.18 | 214364 | 232306
15 | 51:37.32 | 2:39.39 | 232307 | 244270
16 | 54:16.71 | 2:41.20 | 244271 | 256365
17 | 56:58.16 | 2:37.58 | 256366 | 268198
18 | 59:35.74 | 3:28.04 | 268199 | 283802
19 | 63:04.03 | 3:52.67 | 283803 | 301269
20 | 66:56.70 | 2:59.11 | 301270 | 314705


Track 1

Filename A:\PsPBuRnOuT's MUSIC\DRIVE\CAR SONGS - The 70s\CAR SONGS - The 70s - CD4\01.Boston - More Than A Feeling.wav

Peak level 86.2 %
Extraction speed 14.3 X
Track quality 100.0 %
Copy CRC 77E6A1E1
Track not present in AccurateRip database
Copy OK

Track 2

Filename A:\PsPBuRnOuT's MUSIC\DRIVE\CAR SONGS - The 70s\CAR SONGS - The 70s - CD4\02.Toto - Hold The Line.wav

Peak level 76.7 %
Extraction speed 20.2 X
Track quality 100.0 %
Copy CRC 792BC6A1
Track not present in AccurateRip database
Copy OK

Track 3

Filename A:\PsPBuRnOuT's MUSIC\DRIVE\CAR SONGS - The 70s\CAR SONGS - The 70s - CD4\03.Ram Jam - Black Betty.wav

Peak level 92.5 %
Extraction speed 21.2 X
Track quality 100.0 %
Copy CRC 626A82F5
Track not present in AccurateRip database
Copy OK

Track 4

Filename A:\PsPBuRnOuT's MUSIC\DRIVE\CAR SONGS - The 70s\CAR SONGS - The 70s - CD4\04.The Guess Who - American Woman.wav

Peak level 79.4 %
Extraction speed 22.9 X
Track quality 100.0 %
Copy CRC 7362BD20
Track not present in AccurateRip database
Copy OK

Track 5

Filename A:\PsPBuRnOuT's MUSIC\DRIVE\CAR SONGS - The 70s\CAR SONGS - The 70s - CD4\05.Kansas - Carry On Wayward Son.wav

Peak level 85.1 %
Extraction speed 24.2 X
Track quality 100.0 %
Copy CRC E40AD314
Track not present in AccurateRip database
Copy OK

Track 6

Filename A:\PsPBuRnOuT's MUSIC\DRIVE\CAR SONGS - The 70s\CAR SONGS - The 70s - CD4\06.Meat Loaf - You Took The Words Right Out Of My Mouth.wav

Peak level 74.1 %
Extraction speed 25.7 X
Track quality 100.0 %
Copy CRC EE35596E
Track not present in AccurateRip database
Copy OK

Track 7

Filename A:\PsPBuRnOuT's MUSIC\DRIVE\CAR SONGS - The 70s\CAR SONGS - The 70s - CD4\07.Blue Oyster Cult - (Don't Fear) The Reaper.wav

Peak level 74.1 %
Extraction speed 19.6 X
Track quality 99.9 %
Copy CRC A8E8AEC2
Track not present in AccurateRip database
Copy OK

Track 8

Filename A:\PsPBuRnOuT's MUSIC\DRIVE\CAR SONGS - The 70s\CAR SONGS - The 70s - CD4\08.Santana - She's Not There.wav

Peak level 94.3 %
Extraction speed 20.7 X
Track quality 100.0 %
Copy CRC 9FF52EEB
Track not present in AccurateRip database
Copy OK

Track 9

Filename A:\PsPBuRnOuT's MUSIC\DRIVE\CAR SONGS - The 70s\CAR SONGS - The 70s - CD4\09.Cheap Trick - I Want You To Want Me.wav

Peak level 88.0 %
Extraction speed 29.4 X
Track quality 100.0 %
Copy CRC C4F3F3EC
Track not present in AccurateRip database
Copy OK

Track 10

Filename A:\PsPBuRnOuT's MUSIC\DRIVE\CAR SONGS - The 70s\CAR SONGS - The 70s - CD4\10.Mott The Hoople - All The Young Dudes.wav

Peak level 74.1 %
Extraction speed 31.7 X
Track quality 100.0 %
Copy CRC 80AE4850
Track not present in AccurateRip database
Copy OK

Track 11

Filename A:\PsPBuRnOuT's MUSIC\DRIVE\CAR SONGS - The 70s\CAR SONGS - The 70s - CD4\11.The Only Ones - Another Girl Another Planet.wav

Peak level 79.4 %
Extraction speed 32.3 X
Track quality 100.0 %
Copy CRC 8BBC92D8
Track not present in AccurateRip database
Copy OK

Track 12

Filename A:\PsPBuRnOuT's MUSIC\DRIVE\CAR SONGS - The 70s\CAR SONGS - The 70s - CD4\12.Ian Dury & The Blockheads - Hit Me With Your Rhythm Stick.wav

Peak level 84.1 %
Extraction speed 33.0 X
Track quality 100.0 %
Copy CRC 115B4D83
Track not present in AccurateRip database
Copy OK

Track 13

Filename A:\PsPBuRnOuT's MUSIC\DRIVE\CAR SONGS - The 70s\CAR SONGS - The 70s - CD4\13.Lou Reed - Walk On The Wild Side.wav

Peak level 94.3 %
Extraction speed 32.6 X
Track quality 100.0 %
Copy CRC C4BCA42D
Track not present in AccurateRip database
Copy OK

Track 14

Filename A:\PsPBuRnOuT's MUSIC\DRIVE\CAR SONGS - The 70s\CAR SONGS - The 70s - CD4\14.Billy Swan - I Can Help.wav

Peak level 71.6 %
Extraction speed 34.2 X
Track quality 100.0 %
Copy CRC FC74999A
Track not present in AccurateRip database
Copy OK

Track 15

Filename A:\PsPBuRnOuT's MUSIC\DRIVE\CAR SONGS - The 70s\CAR SONGS - The 70s - CD4\15.Dolly Parton - Jolene.wav

Peak level 94.3 %
Extraction speed 34.5 X
Track quality 100.0 %
Copy CRC 6A950F27
Track not present in AccurateRip database
Copy OK

Track 16

Filename A:\PsPBuRnOuT's MUSIC\DRIVE\CAR SONGS - The 70s\CAR SONGS - The 70s - CD4\16.Tammy Wynette - Stand By Your Man.wav

Peak level 83.3 %
Extraction speed 37.1 X
Track quality 100.0 %
Copy CRC 62E45D09
Track not present in AccurateRip database
Copy OK

Track 17

Filename A:\PsPBuRnOuT's MUSIC\DRIVE\CAR SONGS - The 70s\CAR SONGS - The 70s - CD4\17.Charlie Rich - The Most Beautiful Girl.wav

Peak level 94.3 %
Extraction speed 38.3 X
Track quality 100.0 %
Copy CRC 1F2F6D09
Track not present in AccurateRip database
Copy OK

Track 18

Filename A:\PsPBuRnOuT's MUSIC\DRIVE\CAR SONGS - The 70s\CAR SONGS - The 70s - CD4\18.Smokie - Living Next Door To Alice.wav

Peak level 94.3 %
Extraction speed 36.5 X
Track quality 100.0 %
Copy CRC 234C4BC0
Track not present in AccurateRip database
Copy OK

Track 19

Filename A:\PsPBuRnOuT's MUSIC\DRIVE\CAR SONGS - The 70s\CAR SONGS - The 70s - CD4\19.Labi Siffre - It Must Be Love.wav

Peak level 88.8 %
Extraction speed 21.4 X
Track quality 99.9 %
Copy CRC DDF2FB8A
Track not present in AccurateRip database
Copy OK

Track 20

Filename A:\PsPBuRnOuT's MUSIC\DRIVE\CAR SONGS - The 70s\CAR SONGS - The 70s - CD4\20.John Denver - Annie's Song.wav

Peak level 94.3 %
Extraction speed 40.6 X
Track quality 100.0 %
Copy CRC 333BF448
Track not present in AccurateRip database
Copy OK


None of the tracks are present in the AccurateRip database

No errors occurred

End of status report

–– CUETools DB Plugin V2.1.6

[CTDB TOCID: AXIEtZixcoksP54Bw2eSa.P4nFA-] disk not present in database
Submit result: AXIEtZixcoksP54Bw2eSa.P4nFA- has been uploaded