Subcategories

VA - Divas: A Definitive Collection of the Best Famale Voices (2007)

Posted By: v3122
VA - Divas: A Definitive Collection of the Best Famale Voices (2007)

VA - Divas: A Definitive Collection of the Best Famale Voices (2007)
EAC | Flac(Image) + Cue + Log & MP3 CBR 320Kbps
2CD | Sony BMG, 88697199752 | ~ 1073 or 361 Mb | Artwork(jpg) -> 31 Mb
Pop, Vocal, Hip Hop, Rock, Funk / Soul

~ Céline Dion, Christina Aguilera, Shakira, Cher, Dionne Warwick, Aretha Franklin, Aretha Franklin, Kylie Minogue, Kylie Minogue, Toni Braxton … ~

VA - Divas: A Definitive Collection of the Best Famale Voices (2007):

VA - Divas: A Definitive Collection of the Best Famale Voices (2007)

Tracklist CD1:

01. Céline Dion - All by Myself (04:00)
02. Leona Lewis - A Moment Like This (04:18)
03. Christina Aguilera - Beautiful (03:59)
04. Jamelia - Superstar (03:35)
05. Kelly Clarkson - Since U Been Gone (03:09)
06. Shakira - Whenever, Wherever (03:17)
07. Natalie Imbruglia - Glorious (03:24)
08. Annie Lennox - Why (04:55)
09. Anastacia - Left Outside Alone (04:16)
10. Cher - Walking in Memphis (03:56)
11. Macy Gray - I Try (03:58)
12. Kelis feat. Cee-Lo - Lil' Star (03:15)
13. Atomic Kitten - Whole Again (03:04)
14. Delta Goodrem - Born to Try (03:53)
15. Heather Small - Proud (03:54)
16. Dido - White Flag (04:00)
17. Dionne Warwick - Heartbreaker (04:18)
18. Aretha Franklin - (You Make Me Feel Like) A Natural Woman (02:42)
19. LeAnn Rimes - How Do I Live (03:41)
20. Shirley Bassey - Get the Party Started (04:01)

Exact Audio Copy V1.5 from 20. February 2020

Отчёт EAC об извлечении, выполненном 5. апреля 2020, 13:30

VA / Divas (1-CD)

Дисковод: PLEXTOR DVDR PX-712A Adapter: 1 ID: 0

Режим чтения : Достоверность
Использование точного потока : Да
Отключение кэша аудио : Да
Использование указателей C2 : Нет

Коррекция смещения при чтении : 30
Способность читать области Lead-in и Lead-out : Нет
Заполнение пропущенных сэмплов тишиной : Да
Удаление блоков с тишиной в начале и конце : Нет
При вычислениях CRC использовались нулевые сэмплы : Да
Интерфейс : Установленный внешний ASPI-интерфейс

Выходной формат : Пользовательский кодировщик
Выбранный битрейт : 128 kBit/s
Качество : Высокий
Добавление ID3-тега : Нет
Утилита сжатия : C:\Program Files\Exact Audio Copy\FLAC\FLAC.EXE
Дополнительные параметры : -V -8 -T "Genre=%genre%" -T "Artist=%artist%" -T "Title=%title%" -T "Album=%albumtitle%" -T "Date=%year%" -T "Tracknumber=%tracknr%" -T "Comment=%comment%" %source%


TOC извлечённого CD

Трек | Старт | Длительность | Начальный сектор | Конечный сектор
––––––––––––––––––––––––––––––––––-
1 | 0:00.00 | 4:00.09 | 0 | 18008
2 | 4:00.09 | 4:18.28 | 18009 | 37386
3 | 8:18.37 | 3:59.70 | 37387 | 55381
4 | 12:18.32 | 3:35.27 | 55382 | 71533
5 | 15:53.59 | 3:09.53 | 71534 | 85761
6 | 19:03.37 | 3:17.70 | 85762 | 100606
7 | 22:21.32 | 3:24.49 | 100607 | 115955
8 | 25:46.06 | 4:55.16 | 115956 | 138096
9 | 30:41.22 | 4:16.74 | 138097 | 157370
10 | 34:58.21 | 3:56.70 | 157371 | 175140
11 | 38:55.16 | 3:58.08 | 175141 | 192998
12 | 42:53.24 | 3:15.02 | 192999 | 207625
13 | 46:08.26 | 3:04.56 | 207626 | 221481
14 | 49:13.07 | 3:53.11 | 221482 | 238967
15 | 53:06.18 | 3:54.71 | 238968 | 256588
16 | 57:01.14 | 4:00.68 | 256589 | 274656
17 | 61:02.07 | 4:18.13 | 274657 | 294019
18 | 65:20.20 | 2:42.49 | 294020 | 306218
19 | 68:02.69 | 3:41.21 | 306219 | 322814
20 | 71:44.15 | 4:01.33 | 322815 | 340922


Характеристики диапазона извлечения и сообщения об ошибках

Выбранный диапазон

Имя файла I:\MOI_RAZDACI\VA - Divas - 2 CD (2007)\VA - Divas - 2 CD (2007)\1 - CD\VA - Divas (1-CD).wav

Пиковый уровень 100.0 %
Скорость извлечения 3.8 X
Качество диапазона 100.0 %
CRC теста C6AA582F
CRC копии C6AA582F
Копирование… OK

Ошибок не произошло


AccurateRip: сводка

Трек 1 : извлечено точно (достоверность 4) [629B2CB5] (AR v2)
Трек 2 : извлечено точно (достоверность 4) [7010D342] (AR v2)
Трек 3 : извлечено точно (достоверность 5) [52B584B1] (AR v2)
Трек 4 : извлечено точно (достоверность 4) [1FF8E5AE] (AR v2)
Трек 5 : извлечено точно (достоверность 4) [4D0C6A11] (AR v2)
Трек 6 : извлечено точно (достоверность 4) [05E1CC93] (AR v2)
Трек 7 : извлечено точно (достоверность 4) [CFF63EAE] (AR v2)
Трек 8 : извлечено точно (достоверность 4) [E42D1BFE] (AR v2)
Трек 9 : извлечено точно (достоверность 4) [D54FA5CC] (AR v2)
Трек 10 : извлечено точно (достоверность 4) [BBBDB300] (AR v2)
Трек 11 : извлечено точно (достоверность 4) [03DE864F] (AR v2)
Трек 12 : извлечено точно (достоверность 4) [FB76B89D] (AR v2)
Трек 13 : извлечено точно (достоверность 4) [B0AB85E2] (AR v2)
Трек 14 : извлечено точно (достоверность 4) [F3F2A54C] (AR v2)
Трек 15 : извлечено точно (достоверность 4) [0448A0D6] (AR v2)
Трек 16 : извлечено точно (достоверность 4) [A5C1E18D] (AR v2)
Трек 17 : извлечено точно (достоверность 4) [11126056] (AR v2)
Трек 18 : извлечено точно (достоверность 4) [C522FAC6] (AR v2)
Трек 19 : извлечено точно (достоверность 4) [3CB3C7D2] (AR v2)
Трек 20 : извлечено точно (достоверность 4) [533FBD48] (AR v2)

Все треки извлечены точно

Конец отчёта

–– CUETools DB Plugin V2.1.6

[CTDB TOCID: 22vB2ydS7jKg1Mm0WkOD7PBsk_w-] found
Submit result: 22vB2ydS7jKg1Mm0WkOD7PBsk_w- has been confirmed
Track | CTDB Status
1 | (11/11) Accurately ripped
2 | (11/11) Accurately ripped
3 | (11/11) Accurately ripped
4 | (11/11) Accurately ripped
5 | (11/11) Accurately ripped
6 | (11/11) Accurately ripped
7 | (11/11) Accurately ripped
8 | (10/11) Accurately ripped
9 | (11/11) Accurately ripped
10 | (11/11) Accurately ripped
11 | (11/11) Accurately ripped
12 | (11/11) Accurately ripped
13 | (11/11) Accurately ripped
14 | (11/11) Accurately ripped
15 | (10/11) Accurately ripped
16 | (10/11) Accurately ripped
17 | (10/11) Accurately ripped
18 | (10/11) Accurately ripped
19 | (10/11) Accurately ripped
20 | (10/11) Accurately ripped


==== Контрольная сумма отчёта 12135E52D241203FC7F37337ABB665FD76C9267D579EA444337E55B5399FF51B ====


VA - Divas: A Definitive Collection of the Best Famale Voices (2007)

Tracklist CD2:

01. P!nk - Who Knew (03:29)
02. Alicia Keys - Fallin' (03:17)
03. Avril Lavigne - When You're Gone (04:01)
04. Sugababes - Stronger (04:01)
05. Gwen Stefani - Cool (03:10)
06. Kylie Minogue - Put Yourself in My Place (04:11)
07. Katie Melua - The Closest Thing to Crazy (04:13)
08. Beyonce - Irreplaceable (03:49)
09. KT Tunstall - Other Side of the World (03:33)
10. Natasha Bedingfield - These Words (03:36)
11. Corinne Bailey Rae - Put Your Records On (03:33)
12. Joss Stone - You Had Me (04:00)
13. Sade - By Your Side (04:19)
14. Beverley Knight - Shoulda Woulda Coulda (03:32)
15. Kelly Rowland - Stole (04:11)
16. Toni Braxton - Breathe Again (04:16)
17. Amerie - 1 Thing (04:01)
18. Trin-i-tee 5:7 - Listen (03:22)
19. Chaka Khan - I'm Every Woman (04:07)
20. All Saints - Never Ever (04:15)

Exact Audio Copy V1.5 from 20. February 2020

Отчёт EAC об извлечении, выполненном 5. апреля 2020, 15:01

VA / Divas (CD-2)

Дисковод: PLEXTOR DVDR PX-712A Adapter: 1 ID: 0

Режим чтения : Достоверность
Использование точного потока : Да
Отключение кэша аудио : Да
Использование указателей C2 : Нет

Коррекция смещения при чтении : 30
Способность читать области Lead-in и Lead-out : Нет
Заполнение пропущенных сэмплов тишиной : Да
Удаление блоков с тишиной в начале и конце : Нет
При вычислениях CRC использовались нулевые сэмплы : Да
Интерфейс : Установленный внешний ASPI-интерфейс

Выходной формат : Пользовательский кодировщик
Выбранный битрейт : 128 kBit/s
Качество : Высокий
Добавление ID3-тега : Нет
Утилита сжатия : C:\Program Files\Exact Audio Copy\FLAC\FLAC.EXE
Дополнительные параметры : -V -8 -T "Genre=%genre%" -T "Artist=%artist%" -T "Title=%title%" -T "Album=%albumtitle%" -T "Date=%year%" -T "Tracknumber=%tracknr%" -T "Comment=%comment%" %source%


TOC извлечённого CD

Трек | Старт | Длительность | Начальный сектор | Конечный сектор
––––––––––––––––––––––––––––––––––-
1 | 0:00.00 | 3:29.46 | 0 | 15720
2 | 3:29.46 | 3:17.21 | 15721 | 30516
3 | 6:46.67 | 4:01.07 | 30517 | 48598
4 | 10:47.74 | 4:01.11 | 48599 | 66684
5 | 14:49.10 | 3:10.70 | 66685 | 81004
6 | 18:00.05 | 4:11.58 | 81005 | 99887
7 | 22:11.63 | 4:13.03 | 99888 | 118865
8 | 26:24.66 | 3:49.27 | 118866 | 136067
9 | 30:14.18 | 3:33.73 | 136068 | 152115
10 | 33:48.16 | 3:36.64 | 152116 | 168379
11 | 37:25.05 | 3:33.35 | 168380 | 184389
12 | 40:58.40 | 4:00.62 | 184390 | 202451
13 | 44:59.27 | 4:19.43 | 202452 | 221919
14 | 49:18.70 | 3:32.60 | 221920 | 237879
15 | 52:51.55 | 4:11.00 | 237880 | 256704
16 | 57:02.55 | 4:16.63 | 256705 | 275967
17 | 61:19.43 | 4:01.17 | 275968 | 294059
18 | 65:20.60 | 3:22.41 | 294060 | 309250
19 | 68:43.26 | 4:07.53 | 309251 | 327828
20 | 72:51.04 | 4:15.10 | 327829 | 346963


Характеристики диапазона извлечения и сообщения об ошибках

Выбранный диапазон

Имя файла I:\MOI_RAZDACI\VA - Divas - 2 CD (2007)\VA - Divas - 2 CD (2007)\2 - CD\VA - Divas (CD-2).wav

Пиковый уровень 99.8 %
Скорость извлечения 3.8 X
Качество диапазона 100.0 %
CRC теста 9022B954
CRC копии 9022B954
Копирование… OK

Ошибок не произошло


AccurateRip: сводка

Трек 1 : извлечено точно (достоверность 4) [F459C354] (AR v2)
Трек 2 : извлечено точно (достоверность 4) [C0C5E36A] (AR v2)
Трек 3 : извлечено точно (достоверность 4) [67F6DD71] (AR v2)
Трек 4 : извлечено точно (достоверность 4) [85A05C94] (AR v2)
Трек 5 : извлечено точно (достоверность 4) [FF7D3EF7] (AR v2)
Трек 6 : извлечено точно (достоверность 4) [26958DE8] (AR v2)
Трек 7 : извлечено точно (достоверность 4) [BB828DBA] (AR v2)
Трек 8 : извлечено точно (достоверность 4) [69AE44D5] (AR v2)
Трек 9 : извлечено точно (достоверность 4) [C2F50CEF] (AR v2)
Трек 10 : извлечено точно (достоверность 4) [D94B6D54] (AR v2)
Трек 11 : извлечено точно (достоверность 4) [E7AE201E] (AR v2)
Трек 12 : извлечено точно (достоверность 4) [91A163E6] (AR v2)
Трек 13 : извлечено точно (достоверность 4) [DC5C73D1] (AR v2)
Трек 14 : извлечено точно (достоверность 4) [E1C560A4] (AR v2)
Трек 15 : извлечено точно (достоверность 4) [E481172A] (AR v2)
Трек 16 : извлечено точно (достоверность 4) [F4D26906] (AR v2)
Трек 17 : извлечено точно (достоверность 4) [BF0EBC1E] (AR v2)
Трек 18 : извлечено точно (достоверность 4) [31E3EE43] (AR v2)
Трек 19 : извлечено точно (достоверность 4) [283C9AF4] (AR v2)
Трек 20 : извлечено точно (достоверность 3) [85274822] (AR v2)

Все треки извлечены точно

Конец отчёта

–– CUETools DB Plugin V2.1.6

[CTDB TOCID: V92UAyD8rn1JEgq62ZP4XIcd0rY-] found
Submit result: V92UAyD8rn1JEgq62ZP4XIcd0rY- has been confirmed
Track | CTDB Status
1 | (8/8) Accurately ripped
2 | (8/8) Accurately ripped
3 | (8/8) Accurately ripped
4 | (8/8) Accurately ripped
5 | (8/8) Accurately ripped
6 | (8/8) Accurately ripped
7 | (8/8) Accurately ripped
8 | (8/8) Accurately ripped
9 | (8/8) Accurately ripped
10 | (8/8) Accurately ripped
11 | (8/8) Accurately ripped
12 | (8/8) Accurately ripped
13 | (8/8) Accurately ripped
14 | (8/8) Accurately ripped
15 | (8/8) Accurately ripped
16 | (8/8) Accurately ripped
17 | (8/8) Accurately ripped
18 | (8/8) Accurately ripped
19 | (8/8) Accurately ripped
20 | (8/8) Accurately ripped


==== Контрольная сумма отчёта 9DAC3359B80AB8621A40B1D55FD49B3C7D9F04C2F151BFA8EEBADB31820579A1 ====


VA - Divas: A Definitive Collection of the Best Famale Voices (2007)

All thanks go to the original releaser

Divas in my Blog

Download VA - Divas: A Definitive Collection of the Best Famale Voices (2007):