Subcategories

VA - Dreamboats & Petticoats: The Diamond Edition (2017) {4CD Box Set}

Posted By: popsakov
VA - Dreamboats & Petticoats: The Diamond Edition (2017) {4CD Box Set}

VA - Dreamboats & Petticoats: The Diamond Edition (2017) {4CD Box Set}
EAC Rip | FLAC (Img) + Cue + Log ~ 1,42 Mb | Scans Included (JPG, 600 dpi) | RAR 5% Recovery
Pop, Swing, Rock & Roll, Rockabilly | Universal Music On Demand #5379658

Celebrating 60 years rock n roll and swing hits, Dreamboats and Petticoats: The Diamond Edition is the latest instalment in the massively successful series. Split over 4 CDS that features the likes of Paul Anka, Dean Martin, Elvis Presley, The Shirelles, Roy Orbison and many more.
***************

VA - Dreamboats & Petticoats: The Diamond Edition (2017) {4CD Box Set}

Track List CD1:

01. Elvis Presley - Love Me Tender [2:43]
02. Paul Anka - Diana [2:27]
03. Buddy Holly - It Does'nt Matter Anymore [2:04]
04. Brian Hyland - Sealed With A Kiss [2:40]
05. Bobby Darin - Things [2:36]
06. Bobby Rydel - Forget Him [2:08]
07. Dave Berry - The Crying Game [2:41]
08. Mark Winter - Go Away Little Girl [2:13]
09. Dusty Springfield - Son Of A Preacher Man [2:25]
10. Small Faces - All Or Nothing [3:05]
11. Cilla Black - Any One Who Had A Heart [2:49]
12. Sandi Shaw - There's Allways Somthing There To Remind Me [2:46]
13. Ricky Valance - Tell Laura I Love Her [2:39]
14. The Four Penny's - Juliet [2:23]
15. Patsy Cline - Crazy [2:42]
16. Emile Ford & The Checkmates - What Do You Want To Make Those Eyes At Me For [2:07]
17. Conway Twitty - Its Only Make Believe [2:14]
18. Danny Williams - Moon River [2:37]
19. Tom Jones - Green Green Grass Of Home [3:03]
20. The Fortunes - You Got Your Troubles [3:24]
21. The Mindbenders - A Groovy Kind Of Love [2:01]
22. The Merseybeats - I Think Of You [2:29]
23. The Moody Blues - Nights In White Satin [4:24]
24. Scot Walker - Joanna [3:51]
25. Scot Briton & Daisy Wood Davis - Dreamboats & Petticoats [2:45]

Exact Audio Copy V1.3 from 2. September 2016

EAC extraction logfile from 26. November 2017, 8:43

Various Artists / Dreamboats & Petticoats - The Diamond Edition Disc 1

Used drive : ATAPI iHAS122 C Adapter: 1 ID: 0

Read mode : Secure
Utilize accurate stream : Yes
Defeat audio cache : Yes
Make use of C2 pointers : No

Read offset correction : 6
Overread into Lead-In and Lead-Out : No
Fill up missing offset samples with silence : Yes
Delete leading and trailing silent blocks : No
Null samples used in CRC calculations : Yes
Used interface : Native Win32 interface for Win NT & 2000

Used output format : Internal WAV Routines
Sample format : 44.100 Hz; 16 Bit; Stereo


TOC of the extracted CD

Track | Start | Length | Start sector | End sector
––––––––––––––––––––––––––––-
1 | 0:01.00 | 2:43.00 | 75 | 12299
2 | 2:44.00 | 2:26.62 | 12300 | 23311
3 | 5:10.62 | 2:03.56 | 23312 | 32592
4 | 7:14.43 | 2:39.55 | 32593 | 44572
5 | 9:54.23 | 2:36.03 | 44573 | 56275
6 | 12:30.26 | 2:08.11 | 56276 | 65886
7 | 14:38.37 | 2:41.00 | 65887 | 77961
8 | 17:19.37 | 2:12.50 | 77962 | 87911
9 | 19:32.12 | 2:24.62 | 87912 | 98773
10 | 21:56.74 | 3:04.52 | 98774 | 112625
11 | 25:01.51 | 2:48.65 | 112626 | 125290
12 | 27:50.41 | 2:46.10 | 125291 | 137750
13 | 30:36.51 | 2:39.13 | 137751 | 149688
14 | 33:15.64 | 2:23.32 | 149689 | 160445
15 | 35:39.21 | 2:41.57 | 160446 | 172577
16 | 38:21.03 | 2:06.74 | 172578 | 182101
17 | 40:28.02 | 2:13.62 | 182102 | 192138
18 | 42:41.64 | 2:36.62 | 192139 | 203900
19 | 45:18.51 | 3:03.20 | 203901 | 217645
20 | 48:21.71 | 3:24.15 | 217646 | 232960
21 | 51:46.11 | 2:01.08 | 232961 | 242043
22 | 53:47.19 | 2:28.47 | 242044 | 253190
23 | 56:15.66 | 4:24.17 | 253191 | 273007
24 | 60:40.08 | 3:50.59 | 273008 | 290316
25 | 64:30.67 | 2:45.32 | 290317 | 302723


Range status and errors

Selected range

Filename C:\Users\London\Desktop\Various Artists - Dreamboats & Petticoats - The Diamond Edition Disc 1.wav

Peak level 99.8 %
Extraction speed 9.4 X
Range quality 100.0 %
Test CRC 3CE3ADDB
Copy CRC 3CE3ADDB
Copy OK

No errors occurred


AccurateRip summary

Track 1 not present in database
Track 2 not present in database
Track 3 not present in database
Track 4 not present in database
Track 5 not present in database
Track 6 not present in database
Track 7 not present in database
Track 8 not present in database
Track 9 not present in database
Track 10 not present in database
Track 11 not present in database
Track 12 not present in database
Track 13 not present in database
Track 14 not present in database
Track 15 not present in database
Track 16 not present in database
Track 17 not present in database
Track 18 not present in database
Track 19 not present in database
Track 20 not present in database
Track 21 not present in database
Track 22 not present in database
Track 23 not present in database
Track 24 not present in database
Track 25 not present in database

None of the tracks are present in the AccurateRip database

End of status report

–– CUETools DB Plugin V2.1.6

[CTDB TOCID: zDYjrSM7PIhg52wXxbuXv81vTIo-] found
Submit result: zDYjrSM7PIhg52wXxbuXv81vTIo- has been confirmed
Track | CTDB Status
1 | (2/2) Accurately ripped
2 | (2/2) Accurately ripped
3 | (2/2) Accurately ripped
4 | (2/2) Accurately ripped
5 | (2/2) Accurately ripped
6 | (2/2) Accurately ripped
7 | (2/2) Accurately ripped
8 | (2/2) Accurately ripped
9 | (2/2) Accurately ripped
10 | (2/2) Accurately ripped
11 | (2/2) Accurately ripped
12 | (2/2) Accurately ripped
13 | (2/2) Accurately ripped
14 | (2/2) Accurately ripped
15 | (2/2) Accurately ripped
16 | (2/2) Accurately ripped
17 | (2/2) Accurately ripped
18 | (2/2) Accurately ripped
19 | (2/2) Accurately ripped
20 | (2/2) Accurately ripped
21 | (2/2) Accurately ripped
22 | (2/2) Accurately ripped
23 | (2/2) Accurately ripped
24 | (2/2) Accurately ripped
25 | (2/2) Accurately ripped


==== Log checksum 5CDDA3AAD7B124550BD50BA884399E86838470F90B1CBF0FD147EB6EBE5CF5BA ====

Track List CD2:

01. The Beech Boys - Do It Again [2:19]
02. Frankieie Valley & The Four Seasons - Rag Doll [3:00]
03. Cliff Richard - Bachelor Boy [2:02]
04. Billy Fury - Once Upon A Dream [1:55]
05. The Kings - Tired Of Waiting For You [2:33]
06. Eden Kane - Forget Me Not [2:02]
07. John Leyton - Wild Wind [2:15]
08. Neil Sedaka - Happy Birthday Sweet Sixteen [2:35]
09. Hollies - Look Through Any Window [2:17]
10. Lou Christie - Lighting Strikes [2:59]
11. Helen Shapiro - Don't Treat Me Like A Child [2:34]
12. Kathy Kirby - Secret Love [2:28]
13. The Springfields - Say You Won't Be There [2:49]
14. Petula Clark - Downtown [3:05]
15. Craig Douglas - Only Sixteen [2:16]
16. Ricky Nelson - It's Late [1:56]
17. The Chiffons - One Fine Day [2:07]
18. The Brook Brothers - War Paint [1:59]
19. The Searchers - Needle's & Pins [2:14]
20. Gerry & The Pacemakers - I Like It [2:14]
21. Cat Stevens - The First Cut Is The Deepest [3:01]
22. Herman Hermets - No Milk Today [2:57]
23. The Yardbirds - For Your Love [2:31]
24. Freddie & The Dreamers - If You Got To Make A Fool Of Somebody [1:59]
25. Johnny Burnett - Dreaming [2:19]

Exact Audio Copy V1.3 from 2. September 2016

EAC extraction logfile from 26. November 2017, 8:59

Various Artists / Dreamboats & Petticoats - The Diamond Edition Disc 2

Used drive : ATAPI iHAS122 C Adapter: 1 ID: 0

Read mode : Secure
Utilize accurate stream : Yes
Defeat audio cache : Yes
Make use of C2 pointers : No

Read offset correction : 6
Overread into Lead-In and Lead-Out : No
Fill up missing offset samples with silence : Yes
Delete leading and trailing silent blocks : No
Null samples used in CRC calculations : Yes
Used interface : Native Win32 interface for Win NT & 2000

Used output format : Internal WAV Routines
Sample format : 44.100 Hz; 16 Bit; Stereo


TOC of the extracted CD

Track | Start | Length | Start sector | End sector
––––––––––––––––––––––––––––-
1 | 0:01.00 | 2:18.74 | 75 | 10498
2 | 2:19.74 | 3:00.05 | 10499 | 24003
3 | 5:20.04 | 2:02.37 | 24004 | 33190
4 | 7:22.41 | 1:54.63 | 33191 | 41803
5 | 9:17.29 | 2:32.51 | 41804 | 53254
6 | 11:50.05 | 2:01.44 | 53255 | 62373
7 | 13:51.49 | 2:14.46 | 62374 | 72469
8 | 16:06.20 | 2:35.05 | 72470 | 84099
9 | 18:41.25 | 2:17.10 | 84100 | 94384
10 | 20:58.35 | 2:59.00 | 94385 | 107809
11 | 23:57.35 | 2:34.11 | 107810 | 119370
12 | 26:31.46 | 2:28.18 | 119371 | 130488
13 | 28:59.64 | 2:48.40 | 130489 | 143128
14 | 31:48.29 | 3:05.05 | 143129 | 157008
15 | 34:53.34 | 2:15.57 | 157009 | 167190
16 | 37:09.16 | 1:55.60 | 167191 | 175875
17 | 39:05.01 | 2:07.33 | 175876 | 185433
18 | 41:12.34 | 1:58.53 | 185434 | 194336
19 | 43:11.12 | 2:13.44 | 194337 | 204355
20 | 45:24.56 | 2:14.16 | 204356 | 214421
21 | 47:38.72 | 3:00.60 | 214422 | 227981
22 | 50:39.57 | 2:56.60 | 227982 | 241241
23 | 53:36.42 | 2:31.15 | 241242 | 252581
24 | 56:07.57 | 1:59.00 | 252582 | 261506
25 | 58:06.57 | 2:19.18 | 261507 | 271949


Range status and errors

Selected range

Filename C:\Users\London\Desktop\Various Artists - Dreamboats & Petticoats - The Diamond Edition Disc 2.wav

Peak level 100.0 %
Extraction speed 8.4 X
Range quality 100.0 %
Test CRC 29C68DE7
Copy CRC 29C68DE7
Copy OK

No errors occurred


AccurateRip summary

Track 1 not present in database
Track 2 not present in database
Track 3 not present in database
Track 4 not present in database
Track 5 not present in database
Track 6 not present in database
Track 7 not present in database
Track 8 not present in database
Track 9 not present in database
Track 10 not present in database
Track 11 not present in database
Track 12 not present in database
Track 13 not present in database
Track 14 not present in database
Track 15 not present in database
Track 16 not present in database
Track 17 not present in database
Track 18 not present in database
Track 19 not present in database
Track 20 not present in database
Track 21 not present in database
Track 22 not present in database
Track 23 not present in database
Track 24 not present in database
Track 25 not present in database

None of the tracks are present in the AccurateRip database

End of status report

–– CUETools DB Plugin V2.1.6

[CTDB TOCID: ldhMiC3Q91FKJdaCM_aPf5O0G3s-] found
Submit result: ldhMiC3Q91FKJdaCM_aPf5O0G3s- has been confirmed
Track | CTDB Status
1 | (1/1) Accurately ripped
2 | (1/1) Accurately ripped
3 | (1/1) Accurately ripped
4 | (1/1) Accurately ripped
5 | (1/1) Accurately ripped
6 | (1/1) Accurately ripped
7 | (1/1) Accurately ripped
8 | (1/1) Accurately ripped
9 | (1/1) Accurately ripped
10 | (1/1) Accurately ripped
11 | (1/1) Accurately ripped
12 | (1/1) Accurately ripped
13 | (1/1) Accurately ripped
14 | (1/1) Accurately ripped
15 | (1/1) Accurately ripped
16 | (1/1) Accurately ripped
17 | (1/1) Accurately ripped
18 | (1/1) Accurately ripped
19 | (1/1) Accurately ripped
20 | (1/1) Accurately ripped
21 | (1/1) Accurately ripped
22 | (1/1) Accurately ripped
23 | (1/1) Accurately ripped
24 | (1/1) Accurately ripped
25 | (1/1) Accurately ripped


==== Log checksum 57A1DC1F2A2BF4084619187D38EE394597A9D8CE9728A22922566C67AA015798 ====

Track List CD3:

01. Lesley Gore - It's My Party [2:20]
02. Bruce Channel - Hey! Baby [2:22]
03. Little Eva - The Locomotion [2:19]
04. Millie - My Boy Lollipop [2:01]
05. The Tremeloes - Here Comes My Baby [3:04]
06. Ritchie Valens - La Bamba [2:07]
07. The Swinging Blue Jeans - Hippy Hippy Shake [1:47]
08. Arthur Conley - Sweet Soul Music [2:21]
09. The Isley Brothers - Twist and Shout [2:34]
10. The Contours - Do You Love Me [2:53]
11. The Miracles - Shop Around [3:01]
12. Martha and The Vandellas - Dancing In The Streets [2:37]
13. Four Tops - I Can't Help Myself [2:43]
14. Stevie Wonder - Uptight (Everything's Alright) [2:55]
15. The Supremes - Baby Love [2:35]
16. Chubby Checker - Dancin' Party [2:25]
17. Buddy Knox - Party Doll [2:14]
18. Lulu And The Luvvers - Shout [2:51]
19. Bern Elliott and The Fenmen - Money [2:28]
20. The Troggs - With A Girl Like You [2:08]
21. Billie Davis - Tell Him [2:09]
22. The Shirelles - Will You Love Me Tomorrow [2:42]
23. Goldie and The Gingerbreads - Can't You Hear My Heartbeat [1:57]
24. Dean Martin - Sway (Quien Sera) [2:41]
25. Trini Lopez - If I Had A Hammer [3:01]

Exact Audio Copy V1.3 from 2. September 2016

EAC extraction logfile from 26. November 2017, 17:11

Various Artists / Dreamboats & Petticoats - The Diamond Edition Disc 3

Used drive : ATAPI iHAS122 C Adapter: 1 ID: 0

Read mode : Secure
Utilize accurate stream : Yes
Defeat audio cache : Yes
Make use of C2 pointers : No

Read offset correction : 6
Overread into Lead-In and Lead-Out : No
Fill up missing offset samples with silence : Yes
Delete leading and trailing silent blocks : No
Null samples used in CRC calculations : Yes
Used interface : Native Win32 interface for Win NT & 2000

Used output format : Internal WAV Routines
Sample format : 44.100 Hz; 16 Bit; Stereo


TOC of the extracted CD

Track | Start | Length | Start sector | End sector
––––––––––––––––––––––––––––-
1 | 0:01.00 | 2:20.30 | 75 | 10604
2 | 2:21.30 | 2:22.24 | 10605 | 21278
3 | 4:43.54 | 2:19.09 | 21279 | 31712
4 | 7:02.63 | 2:01.12 | 31713 | 40799
5 | 9:04.00 | 3:04.24 | 40800 | 54623
6 | 12:08.24 | 2:06.72 | 54624 | 64145
7 | 14:15.21 | 1:46.68 | 64146 | 72163
8 | 16:02.14 | 2:20.52 | 72164 | 82715
9 | 18:22.66 | 2:34.26 | 82716 | 94291
10 | 20:57.17 | 2:52.43 | 94292 | 107234
11 | 23:49.60 | 3:01.35 | 107235 | 120844
12 | 26:51.20 | 2:37.36 | 120845 | 132655
13 | 29:28.56 | 2:43.18 | 132656 | 144898
14 | 32:11.74 | 2:54.65 | 144899 | 158013
15 | 35:06.64 | 2:35.25 | 158014 | 169663
16 | 37:42.14 | 2:24.51 | 169664 | 180514
17 | 40:06.65 | 2:14.19 | 180515 | 190583
18 | 42:21.09 | 2:51.00 | 190584 | 203408
19 | 45:12.09 | 2:28.11 | 203409 | 214519
20 | 47:40.20 | 2:07.55 | 214520 | 224099
21 | 49:48.00 | 2:08.57 | 224100 | 233756
22 | 51:56.57 | 2:41.74 | 233757 | 245905
23 | 54:38.56 | 1:57.03 | 245906 | 254683
24 | 56:35.59 | 2:41.36 | 254684 | 266794
25 | 59:17.20 | 3:01.07 | 266795 | 280376


Range status and errors

Selected range

Filename C:\Users\London\Desktop\Various Artists - Dreamboats & Petticoats - The Diamond Edition Disc 3.wav

Peak level 99.8 %
Extraction speed 8.5 X
Range quality 100.0 %
Test CRC 8F6100E2
Copy CRC 8F6100E2
Copy OK

No errors occurred


AccurateRip summary

Track 1 not present in database
Track 2 not present in database
Track 3 not present in database
Track 4 not present in database
Track 5 not present in database
Track 6 not present in database
Track 7 not present in database
Track 8 not present in database
Track 9 not present in database
Track 10 not present in database
Track 11 not present in database
Track 12 not present in database
Track 13 not present in database
Track 14 not present in database
Track 15 not present in database
Track 16 not present in database
Track 17 not present in database
Track 18 not present in database
Track 19 not present in database
Track 20 not present in database
Track 21 not present in database
Track 22 not present in database
Track 23 not present in database
Track 24 not present in database
Track 25 not present in database

None of the tracks are present in the AccurateRip database

End of status report

–– CUETools DB Plugin V2.1.6

[CTDB TOCID: 0QsbOO9188C5lTG6vhpr2iGx2f0-] found
Submit result: 0QsbOO9188C5lTG6vhpr2iGx2f0- has been confirmed
Track | CTDB Status
1 | (1/1) Accurately ripped
2 | (1/1) Accurately ripped
3 | (1/1) Accurately ripped
4 | (1/1) Accurately ripped
5 | (1/1) Accurately ripped
6 | (1/1) Accurately ripped
7 | (1/1) Accurately ripped
8 | (1/1) Accurately ripped
9 | (1/1) Accurately ripped
10 | (1/1) Accurately ripped
11 | (1/1) Accurately ripped
12 | (1/1) Accurately ripped
13 | (1/1) Accurately ripped
14 | (1/1) Accurately ripped
15 | (1/1) Accurately ripped
16 | (1/1) Accurately ripped
17 | (1/1) Accurately ripped
18 | (1/1) Accurately ripped
19 | (1/1) Accurately ripped
20 | (1/1) Accurately ripped
21 | (1/1) Accurately ripped
22 | (1/1) Accurately ripped
23 | (1/1) Accurately ripped
24 | (1/1) Accurately ripped
25 | (1/1) Accurately ripped


==== Log checksum 40A912B5B1567FA1251CE21C97ACBBE03644565521B808816733729937C4D6E9 ====

Track List CD4:

01. Chuck Berry - Roll Over Beethoven [2:23]
02. Jerry Lee Lewis - Great Balls Of Fire [1:52]
03. Little Richard - Long Tall Sally [2:09]
04. Eddie Cochran - Three Steps To Heaven [2:21]
05. Lonnie Donegan & His Skiffle Group - The Battle Of New Orleans [3:09]
06. The Everly Brothers - Wake Up Little Susie [2:04]
07. Gene Vincent & His Blue Caps - Blue Jean Bop [2:24]
08. Bill Haley & His Comets - (We're Gonna) Rock Around The Clock [2:13]
09. Bobby Vee - Rubber Ball [2:29]
10. Marty Wilde - Bad Boy [2:21]
11. Connie Francis - Lipstick On Your Collar [2:17]
12. Brenda Lee - Here Comes That Feeling Again [2:03]
13. The Shadows - F.B.I [2:19]
14. The Ventures - Walk Don't Run [2:06]
15. Duane Eddy & The Rebelettes - Dance With The Guitar Man [2:40]
16. Jet Harris and Tony Meehan - Scarlett O'Hara [2:19]
17. Link Wray & His Ray Men - Rumble [2:27]
18. Tommy Steele - Come On Let's Go [1:56]
19. Del Shannon - Hats Off To Larry [2:00]
20. Marvin Rainwater - Whole Lotta Woman [2:57]
21. Fats Domino - Blueberry Hill [2:20]
22. Joe Brown & The Bruvvers - It Only Took A Minute [1:56]
23. The Nashville Teens - Tobacco Road [2:28]
24. The Herd - I Don’t Want Our Loving To Die [2:58]
25. U.S. Bonds - Quarter To Three [2:34]

Exact Audio Copy V1.3 from 2. September 2016

EAC extraction logfile from 26. November 2017, 17:34

Various Artists / Dreamboats & Petticoats - The Diamond Edition Disc 4

Used drive : ATAPI iHAS122 C Adapter: 1 ID: 0

Read mode : Secure
Utilize accurate stream : Yes
Defeat audio cache : Yes
Make use of C2 pointers : No

Read offset correction : 6
Overread into Lead-In and Lead-Out : No
Fill up missing offset samples with silence : Yes
Delete leading and trailing silent blocks : No
Null samples used in CRC calculations : Yes
Used interface : Native Win32 interface for Win NT & 2000

Used output format : Internal WAV Routines
Sample format : 44.100 Hz; 16 Bit; Stereo


TOC of the extracted CD

Track | Start | Length | Start sector | End sector
––––––––––––––––––––––––––––-
1 | 0:01.00 | 2:23.22 | 75 | 10821
2 | 2:24.22 | 1:51.66 | 10822 | 19212
3 | 4:16.13 | 2:08.48 | 19213 | 28860
4 | 6:24.61 | 2:21.36 | 28861 | 39471
5 | 8:46.22 | 3:09.13 | 39472 | 53659
6 | 11:55.35 | 2:04.15 | 53660 | 62974
7 | 13:59.50 | 2:23.60 | 62975 | 73759
8 | 16:23.35 | 2:12.42 | 73760 | 83701
9 | 18:36.02 | 2:29.16 | 83702 | 94892
10 | 21:05.18 | 2:20.74 | 94893 | 105466
11 | 23:26.17 | 2:17.00 | 105467 | 115741
12 | 25:43.17 | 2:03.32 | 115742 | 124998
13 | 27:46.49 | 2:19.21 | 124999 | 135444
14 | 30:05.70 | 2:05.40 | 135445 | 144859
15 | 32:11.35 | 2:39.55 | 144860 | 156839
16 | 34:51.15 | 2:19.09 | 156840 | 167273
17 | 37:10.24 | 2:27.14 | 167274 | 178312
18 | 39:37.38 | 1:56.07 | 178313 | 187019
19 | 41:33.45 | 2:00.35 | 187020 | 196054
20 | 43:34.05 | 2:57.22 | 196055 | 209351
21 | 46:31.27 | 2:20.14 | 209352 | 219865
22 | 48:51.41 | 1:56.06 | 219866 | 228571
23 | 50:47.47 | 2:27.55 | 228572 | 239651
24 | 53:15.27 | 2:57.46 | 239652 | 252972
25 | 56:12.73 | 2:34.16 | 252973 | 264538


Range status and errors

Selected range

Filename C:\Users\London\Desktop\Various Artists - Dreamboats & Petticoats - The Diamond Edition Disc 4.wav

Peak level 100.0 %
Extraction speed 8.3 X
Range quality 99.9 %
Test CRC 038B1A0D
Copy CRC 038B1A0D
Copy OK

No errors occurred


AccurateRip summary

Track 1 not present in database
Track 2 not present in database
Track 3 not present in database
Track 4 not present in database
Track 5 not present in database
Track 6 not present in database
Track 7 not present in database
Track 8 not present in database
Track 9 not present in database
Track 10 not present in database
Track 11 not present in database
Track 12 not present in database
Track 13 not present in database
Track 14 not present in database
Track 15 not present in database
Track 16 not present in database
Track 17 not present in database
Track 18 not present in database
Track 19 not present in database
Track 20 not present in database
Track 21 not present in database
Track 22 not present in database
Track 23 not present in database
Track 24 not present in database
Track 25 not present in database

None of the tracks are present in the AccurateRip database

End of status report

–– CUETools DB Plugin V2.1.6

[CTDB TOCID: sf8JyrIBiZEIaIBChuVvoOpgrdA-] found
Submit result: sf8JyrIBiZEIaIBChuVvoOpgrdA- has been confirmed
Track | CTDB Status
1 | (1/1) Accurately ripped
2 | (1/1) Accurately ripped
3 | (1/1) Accurately ripped
4 | (1/1) Accurately ripped
5 | (1/1) Accurately ripped
6 | (1/1) Accurately ripped
7 | (1/1) Accurately ripped
8 | (1/1) Accurately ripped
9 | (1/1) Accurately ripped
10 | (1/1) Accurately ripped
11 | (1/1) Accurately ripped
12 | (1/1) Accurately ripped
13 | (1/1) Accurately ripped
14 | (1/1) Accurately ripped
15 | (1/1) Accurately ripped
16 | (1/1) Accurately ripped
17 | (1/1) Accurately ripped
18 | (1/1) Accurately ripped
19 | (1/1) Accurately ripped
20 | (1/1) Accurately ripped
21 | (1/1) Accurately ripped
22 | (1/1) Accurately ripped
23 | (1/1) Accurately ripped
24 | (1/1) Accurately ripped
25 | (1/1) Accurately ripped


==== Log checksum AF6902DAF78F5E9BC2BA301E7631883EC2D00F835054658D0B2705F9E16DD799 ====

VA - Dreamboats & Petticoats: The Diamond Edition (2017) {4CD Box Set}

All thanks go to London

>>> My Blog <<<

Download from icerbox.com: