Subcategories

VA - Driven By The 60s (5CD, 2019)

Posted By: ciklon5
VA - Driven By The 60s (5CD, 2019)

VA - Driven By The 60s (5CD, 2019)
FLAC (tracks +cue+log+scans) | 5h 41 min | 1,6 Gb
Genre: Rock, Pop, Soul, R&B / Label: Driven By USM

Driven By The 60s delivers 5CDs of 100 drivetime classics from one of the most popular eras of music. From America’s Motown artists like Marvin Gaye and the Supremes to our very own Lulu, Tom Jones, and Dusty Springfield; this collection is jam-packed with 1960 hits that will have you tapping the dash board and singing out loud.
Take a trip down memory lane with Donovan, The Mamas & The Papas, The Beach Boys, The Troggs, Petula Clark, plus many more and be Driven By The 60s.

Track List:
CD1

01.Lulu & The Luvvers - Shout - 00:02:53
02.Tom Jones - Delilah - 00:03:24
03.Dusty Springfield - I Only Wanna Be With You - 00:02:35
04.Julie Driscoll, Brian Auger & The Trinity - This Wheel's On Fire - 00:03:32
05.The Crazy World Of Arthur Brown - Fire - 00:02:56
06.Status Quo - Pictures Of Matchstick Men - 00:03:17
07.The Troggs - Wild Thing - 00:02:26
08.Traffic - Dear Mr. Fantasy - 00:05:36
09.The Spencer Davis Group - Gimme Some Lovin' - 00:02:56
10.The Yardbirds - For Your Love - 00:02:29
11.Thunderclap Newman - Something In The Air - 00:03:55
12.Canned Heat - On The Road Again - 00:04:57
13.Bob & Earl - Harlem Shuffle - 00:02:45
14.Quincy Jones - Soul Bossa Nova - 00:02:44
15.James Brown - I Got You (I Feel Good) - 00:02:47
16.The Temptations - Get Ready - 00:02:39
17.Timebox - Beggin' - 00:02:49
18.Heinz - Just Like Eddie - 00:02:39
19.The Spencer Davis Group - Keep On Running - 00:02:47
20.Mike Berry With The Outlaws - Don't You Think It's Time - 00:01:39

CD2

01.Marlena Shaw - California Soul - 00:02:58
02.Marvin Gaye - I Heard It Through The Grapevine - 00:03:14
03.The Zombies - Time Of The Season - 00:03:33
04.The Flowerpot Men - Let's Go To San Francisco - 00:03:37
05.Joe Brown & The Bruvvers - A Picture Of You - 00:02:20
06.The Walker Brothers - The Sun Ain't Gonna Shine (Anymore) - 00:03:02
07.Bobby Hebb - Sunny - 00:02:44
08.Blue Mink - Melting Pot - 00:03:50
09.The Mamas & The Papas - California Dreamin' - 00:02:40
10.The Beach Boys - California Girls - 00:02:45
11.The Sufaris - Wipe Out - 00:02:39
12.Sam The Sham & The Pharaohs - Wooly Bully - 00:02:21
13.The Four Tops - I Can't Help Myself (Sugar Pie, Honey Bunch) - 00:02:45
14.The Foundations - Baby Now That I've Found You - 00:02:36
15.Dandy Livingstone - Rudy, A Message To You - 00:02:33
16.Desmond Dekker & The Aces - Israelites - 00:02:35
17.Harry J Allstars - Liquidator - 00:02:53
18.The Paragons - The Tide Is High - 00:02:42
19.The Overlanders - Michelle - 00:02:22
20.The Tremeloes - Silence Is Golden - 00:03:06

CD3

01.Louis Armstrong - What A Wonderful World - 00:02:18
02.Nina Simone - I Put A Spell On You - 00:02:35
03.Etta James - Something Gotta Hold On Me - 00:02:48
04.Barrett Strong - Money (That's What I Want) - 00:02:36
05.Fontella Bass - Rescue Me - 00:02:53
06.Diana Ross & Supremes - Love Child - 00:02:58
07.Ike & Tina Turner - River Deep Mountain High - 00:03:27
08.Martha & The Vandellas - Nowhere To Run - 00:02:55
09.The Supremes - Stop In The Name Of Love - 00:03:23
10.Tom Jones - It's Not Unusual - 00:01:59
11.Love Affair - Everlasting Love - 00:03:02
12.Marmalade - Ob-La-Di, Ob-La-Da - 00:03:01
13.Brian Hyland - Itsy Bitzy Teenie Weenie Yellow Polka Dot Bikini - 00:02:23
14.John Lee Hooker - Boom Boom - 00:02:32
15.Petula Clark - Downtown - 00:03:04
16.Dusty Springfield - Son Of A Preacher Man - 00:02:27
17.Jackie Trent - Where Are You Now My Love - 00:02:46
18.Dee Clark - Raindrops - 00:02:50
19.Jimmy James & The Vagabonds - Red Red Wine - 00:02:55
20.Donovan - Catch The Wind - 00:02:54

CD4

01.Marvin Gaye & Kim Weston - It Takes Two - 00:02:59
02.The Shangri-Las - The Leader Of The Pack - 00:02:53
03.The Four Seasons - Big Girls Don't Cry - 00:02:25
04.Billie Davis - Tell Him - 00:02:10
05.The Marvelettes - Please Mr Postman - 00:02:29
06.Mary Wells - My Guy - 00:02:48
07.The Angels - My Boyfriend's Back - 00:02:37
08.Susan Maughan - Bobby's Girl - 00:02:34
09.Millie - My Boy Lollipop - 00:02:01
10.The Searchers - Sweets For My Sweet - 00:02:28
11.The Tremeloes - Do You Love Me - 00:02:22
12.Buddy Holly - Bo Diddley - 00:02:20
13.Lance Fortune - Be Mine - 00:01:50
14.Dave Dee, Dozy, Beaky, Mick & Tich - The Legend Of Xanadu - 00:03:04
15.Scott Walker - Jackie - 00:03:21
16.The Ivy League - Funny How Love Can Be - 00:02:08
17.Brook Brothers - Warpaint - 00:01:59
18.Jimmy Justice - When My Little Girl Is Smiling - 00:02:26
19.Engelbert Humperdinck - Release Me - 00:03:19
20.Junior Walker - How Sweet Is It (To Be Loved By You) - 00:02:59

CD5

01.Amen Corner - Bend Me Shape Me - 00:02:37
02.The Beach Boys - Good Vibrations - 00:03:37
03.The Zombies - She's Not There - 00:02:25
04.The Mamas & The Papas - Monday, Monday - 00:03:24
05.The Ivy League - Tossing And Turning - 00:02:27
06.The Merseybeats - Wishin' And Hopin' - 00:02:34
07.The Searchers - Love Potion No. 9 - 00:02:06
08.The Isley Brothers - This Old Heart Of Mine (Is Weak For You) - 00:02:45
09.The Foundations - Build My Up Buttercup - 00:02:59
10.Jimmy Ruffin - What Becomes Of The Broken Hearted - 00:02:59
11.The Yardbirds - Shapes Of Things - 00:02:25
12.Status Quo - Ice In The Sun - 00:02:11
13.The Chiffons - One Fine Day - 00:02:08
14.Joe Dolan - Make Me An Island - 00:02:58
15.Petula Clark - This Is My Song - 00:03:17
16.Honeybus - I Can't Let Maggie Go - 00:02:56
17.Moody Blues - Go Now - 00:03:11
18.Joe Brown & The Bruvvers - That's What Love Will Do - 00:02:24
19.David & Jonathan - Lovers Of The World Unite - 00:02:35
20.Gene Chandler - Duke Of Earl - 00:02:24

Exact Audio Copy V1.3 from 2. September 2016

EAC extraction logfile from 14. April 2019, 10:06

Various / Driven By - The 60s - CD1

Used drive : ATAPI iHAS124 Y Adapter: 1 ID: 0

Read mode : Secure
Utilize accurate stream : Yes
Defeat audio cache : No
Make use of C2 pointers : Yes

Read offset correction : 48
Overread into Lead-In and Lead-Out : No
Fill up missing offset samples with silence : Yes
Delete leading and trailing silent blocks : No
Null samples used in CRC calculations : Yes
Used interface : Native Win32 interface for Win NT & 2000
Gap handling : Not detected, thus appended to previous track

Used output format : User Defined Encoder
Selected bitrate : 896 kBit/s
Quality : High
Add ID3 tag : No
Command line compressor : C:\Program Files (x86)\Exact Audio Copy\FLAC\FLAC.EXE
Additional command line options : -6 -V -T "ARTIST=%artist%" -T "TITLE=%title%" -T "ALBUM=%albumtitle%" -T "DATE=%year%" -T "TRACKNUMBER=%tracknr%" -T "GENRE=%genre%" -T "COMMENT=%comment%" -T "BAND=%albuminterpret%" -T "ALBUMARTIST=%albuminterpret%" -T "COMPOSER=%composer%" %haslyrics%–tag-from-file=LYRICS="%lyricsfile%"%haslyrics% -T "DISCNUMBER=%cdnumber%" -T "TOTALDISCS=%totalcds%" -T "TOTALTRACKS=%numtracks%" %hascover%–picture="%coverfile%"%hascover% %source% -o %dest%


TOC of the extracted CD

Track | Start | Length | Start sector | End sector
––––––––––––––––––––––––––––-
1 | 0:00.00 | 2:53.25 | 0 | 12999
2 | 2:53.25 | 3:24.01 | 13000 | 28300
3 | 6:17.26 | 2:35.74 | 28301 | 39999
4 | 8:53.25 | 3:32.71 | 40000 | 55970
5 | 12:26.21 | 2:56.72 | 55971 | 69242
6 | 15:23.18 | 3:17.00 | 69243 | 84017
7 | 18:40.18 | 2:26.69 | 84018 | 95036
8 | 21:07.12 | 5:36.11 | 95037 | 120247
9 | 26:43.23 | 2:56.39 | 120248 | 133486
10 | 29:39.62 | 2:29.70 | 133487 | 144731
11 | 32:09.57 | 3:55.29 | 144732 | 162385
12 | 36:05.11 | 4:57.41 | 162386 | 184701
13 | 41:02.52 | 2:45.03 | 184702 | 197079
14 | 43:47.55 | 2:44.45 | 197080 | 209424
15 | 46:32.25 | 2:47.50 | 209425 | 221999
16 | 49:20.00 | 2:39.23 | 222000 | 233947
17 | 51:59.23 | 2:49.73 | 233948 | 246695
18 | 54:49.21 | 2:39.21 | 246696 | 258641
19 | 57:28.42 | 2:47.29 | 258642 | 271195
20 | 60:15.71 | 1:39.68 | 271196 | 278688


Track 1

Filename A:\PsPBuRnOuT's MUSIC\SORTED BY YEAR\1960s\DRIVEN BY - THE 60s\DRIVEN BY - THE 60s - CD1\01.Lulu & The Luvvers - Shout.wav

Peak level 99.9 %
Extraction speed 11.0 X
Track quality 99.8 %
Copy CRC 7D8DFC4D
Track not present in AccurateRip database
Copy OK

Track 2

Filename A:\PsPBuRnOuT's MUSIC\SORTED BY YEAR\1960s\DRIVEN BY - THE 60s\DRIVEN BY - THE 60s - CD1\02.Tom Jones - Delilah.wav

Peak level 84.1 %
Extraction speed 14.4 X
Track quality 100.0 %
Copy CRC AB91BA66
Track not present in AccurateRip database
Copy OK

Track 3

Filename A:\PsPBuRnOuT's MUSIC\SORTED BY YEAR\1960s\DRIVEN BY - THE 60s\DRIVEN BY - THE 60s - CD1\03.Dusty Springfield - I Only Wanna Be With You.wav

Peak level 89.1 %
Extraction speed 19.0 X
Track quality 100.0 %
Copy CRC 0EA1DFBD
Track not present in AccurateRip database
Copy OK

Track 4

Filename A:\PsPBuRnOuT's MUSIC\SORTED BY YEAR\1960s\DRIVEN BY - THE 60s\DRIVEN BY - THE 60s - CD1\04.Julie Driscoll, Brian Auger & The Trinity - This Wheel's On Fire.wav

Peak level 84.1 %
Extraction speed 21.1 X
Track quality 100.0 %
Copy CRC 20C7EDEC
Track not present in AccurateRip database
Copy OK

Track 5

Filename A:\PsPBuRnOuT's MUSIC\SORTED BY YEAR\1960s\DRIVEN BY - THE 60s\DRIVEN BY - THE 60s - CD1\05.The Crazy World Of Arthur Brown - Fire.wav

Peak level 94.6 %
Extraction speed 22.4 X
Track quality 100.0 %
Copy CRC 13E654AC
Track not present in AccurateRip database
Copy OK

Track 6

Filename A:\PsPBuRnOuT's MUSIC\SORTED BY YEAR\1960s\DRIVEN BY - THE 60s\DRIVEN BY - THE 60s - CD1\06.Status Quo - Pictures Of Matchstick Men.wav

Peak level 89.1 %
Extraction speed 23.1 X
Track quality 100.0 %
Copy CRC 8EAAC33E
Track not present in AccurateRip database
Copy OK

Track 7

Filename A:\PsPBuRnOuT's MUSIC\SORTED BY YEAR\1960s\DRIVEN BY - THE 60s\DRIVEN BY - THE 60s - CD1\07.The Troggs - Wild Thing.wav

Peak level 96.5 %
Extraction speed 18.9 X
Track quality 99.8 %
Copy CRC 685A73A4
Track not present in AccurateRip database
Copy OK

Track 8

Filename A:\PsPBuRnOuT's MUSIC\SORTED BY YEAR\1960s\DRIVEN BY - THE 60s\DRIVEN BY - THE 60s - CD1\08.Traffic - Dear Mr. Fantasy.wav

Peak level 95.5 %
Extraction speed 21.1 X
Track quality 100.0 %
Copy CRC 14C0449B
Track not present in AccurateRip database
Copy OK

Track 9

Filename A:\PsPBuRnOuT's MUSIC\SORTED BY YEAR\1960s\DRIVEN BY - THE 60s\DRIVEN BY - THE 60s - CD1\09.The Spencer Davis Group - Gimme Some Lovin'.wav

Peak level 80.6 %
Extraction speed 21.5 X
Track quality 99.8 %
Copy CRC 188FD2D7
Track not present in AccurateRip database
Copy OK

Track 10

Filename A:\PsPBuRnOuT's MUSIC\SORTED BY YEAR\1960s\DRIVEN BY - THE 60s\DRIVEN BY - THE 60s - CD1\10.The Yardbirds - For Your Love.wav

Peak level 89.1 %
Extraction speed 20.0 X
Track quality 100.0 %
Copy CRC 65ABAC31
Track not present in AccurateRip database
Copy OK

Track 11

Filename A:\PsPBuRnOuT's MUSIC\SORTED BY YEAR\1960s\DRIVEN BY - THE 60s\DRIVEN BY - THE 60s - CD1\11.Thunderclap Newman - Something In The Air.wav

Peak level 100.0 %
Extraction speed 27.3 X
Track quality 100.0 %
Copy CRC 3360E21C
Track not present in AccurateRip database
Copy OK

Track 12

Filename A:\PsPBuRnOuT's MUSIC\SORTED BY YEAR\1960s\DRIVEN BY - THE 60s\DRIVEN BY - THE 60s - CD1\12.Canned Heat - On The Road Again.wav

Peak level 100.0 %
Extraction speed 28.8 X
Track quality 100.0 %
Copy CRC 556D9E59
Track not present in AccurateRip database
Copy OK

Track 13

Filename A:\PsPBuRnOuT's MUSIC\SORTED BY YEAR\1960s\DRIVEN BY - THE 60s\DRIVEN BY - THE 60s - CD1\13.Bob & Earl - Harlem Shuffle.wav

Peak level 100.0 %
Extraction speed 29.1 X
Track quality 100.0 %
Copy CRC 555AA6D7
Track not present in AccurateRip database
Copy OK

Track 14

Filename A:\PsPBuRnOuT's MUSIC\SORTED BY YEAR\1960s\DRIVEN BY - THE 60s\DRIVEN BY - THE 60s - CD1\14.Quincy Jones - Soul Bossa Nova.wav

Peak level 100.0 %
Extraction speed 30.1 X
Track quality 100.0 %
Copy CRC FC0C6385
Track not present in AccurateRip database
Copy OK

Track 15

Filename A:\PsPBuRnOuT's MUSIC\SORTED BY YEAR\1960s\DRIVEN BY - THE 60s\DRIVEN BY - THE 60s - CD1\15.James Brown - I Got You (I Feel Good).wav

Peak level 100.0 %
Extraction speed 32.9 X
Track quality 100.0 %
Copy CRC 20F80793
Track not present in AccurateRip database
Copy OK

Track 16

Filename A:\PsPBuRnOuT's MUSIC\SORTED BY YEAR\1960s\DRIVEN BY - THE 60s\DRIVEN BY - THE 60s - CD1\16.The Temptations - Get Ready.wav

Peak level 64.5 %
Extraction speed 30.3 X
Track quality 100.0 %
Copy CRC CABBD294
Track not present in AccurateRip database
Copy OK

Track 17

Filename A:\PsPBuRnOuT's MUSIC\SORTED BY YEAR\1960s\DRIVEN BY - THE 60s\DRIVEN BY - THE 60s - CD1\17.Timebox - Beggin'.wav

Peak level 100.0 %
Extraction speed 34.2 X
Track quality 100.0 %
Copy CRC D38B32FC
Track not present in AccurateRip database
Copy OK

Track 18

Filename A:\PsPBuRnOuT's MUSIC\SORTED BY YEAR\1960s\DRIVEN BY - THE 60s\DRIVEN BY - THE 60s - CD1\18.Heinz - Just Like Eddie.wav

Peak level 87.5 %
Extraction speed 30.2 X
Track quality 100.0 %
Copy CRC 099065DC
Track not present in AccurateRip database
Copy OK

Track 19

Filename A:\PsPBuRnOuT's MUSIC\SORTED BY YEAR\1960s\DRIVEN BY - THE 60s\DRIVEN BY - THE 60s - CD1\19.The Spencer Davis Group - Keep On Running.wav

Peak level 90.0 %
Extraction speed 35.6 X
Track quality 100.0 %
Copy CRC 74515C20
Track not present in AccurateRip database
Copy OK

Track 20

Filename A:\PsPBuRnOuT's MUSIC\SORTED BY YEAR\1960s\DRIVEN BY - THE 60s\DRIVEN BY - THE 60s - CD1\20.Mike Berry With The Outlaws - Don't You Think It's Time.wav

Peak level 100.0 %
Extraction speed 36.8 X
Track quality 100.0 %
Copy CRC 17B676CB
Track not present in AccurateRip database
Copy OK


None of the tracks are present in the AccurateRip database

No errors occurred

End of status report

–– CUETools DB Plugin V2.1.6

[CTDB TOCID: u0OzQUv9lvBh2Xu9cJo5nq6ON8k-] disk not present in database
Submit result: u0OzQUv9lvBh2Xu9cJo5nq6ON8k- has been uploaded

Exact Audio Copy V1.3 from 2. September 2016

EAC extraction logfile from 14. April 2019, 11:11

Various / Driven By - The 60s - CD2

Used drive : ATAPI iHAS124 Y Adapter: 1 ID: 0

Read mode : Secure
Utilize accurate stream : Yes
Defeat audio cache : No
Make use of C2 pointers : Yes

Read offset correction : 48
Overread into Lead-In and Lead-Out : No
Fill up missing offset samples with silence : Yes
Delete leading and trailing silent blocks : No
Null samples used in CRC calculations : Yes
Used interface : Native Win32 interface for Win NT & 2000
Gap handling : Not detected, thus appended to previous track

Used output format : User Defined Encoder
Selected bitrate : 896 kBit/s
Quality : High
Add ID3 tag : No
Command line compressor : C:\Program Files (x86)\Exact Audio Copy\FLAC\FLAC.EXE
Additional command line options : -6 -V -T "ARTIST=%artist%" -T "TITLE=%title%" -T "ALBUM=%albumtitle%" -T "DATE=%year%" -T "TRACKNUMBER=%tracknr%" -T "GENRE=%genre%" -T "COMMENT=%comment%" -T "BAND=%albuminterpret%" -T "ALBUMARTIST=%albuminterpret%" -T "COMPOSER=%composer%" %haslyrics%–tag-from-file=LYRICS="%lyricsfile%"%haslyrics% -T "DISCNUMBER=%cdnumber%" -T "TOTALDISCS=%totalcds%" -T "TOTALTRACKS=%numtracks%" %hascover%–picture="%coverfile%"%hascover% %source% -o %dest%


TOC of the extracted CD

Track | Start | Length | Start sector | End sector
––––––––––––––––––––––––––––-
1 | 0:00.00 | 2:58.35 | 0 | 13384
2 | 2:58.35 | 3:14.58 | 13385 | 27992
3 | 6:13.18 | 3:33.63 | 27993 | 44030
4 | 9:47.06 | 3:37.27 | 44031 | 60332
5 | 13:24.33 | 2:20.61 | 60333 | 70893
6 | 15:45.19 | 3:02.04 | 70894 | 84547
7 | 18:47.23 | 2:44.41 | 84548 | 96888
8 | 21:31.64 | 3:50.32 | 96889 | 114170
9 | 25:22.21 | 2:40.37 | 114171 | 126207
10 | 28:02.58 | 2:45.12 | 126208 | 138594
11 | 30:47.70 | 2:39.16 | 138595 | 150535
12 | 33:27.11 | 2:21.09 | 150536 | 161119
13 | 35:48.20 | 2:45.02 | 161120 | 173496
14 | 38:33.22 | 2:36.70 | 173497 | 185266
15 | 41:10.17 | 2:33.71 | 185267 | 196812
16 | 43:44.13 | 2:35.14 | 196813 | 208451
17 | 46:19.27 | 2:53.22 | 208452 | 221448
18 | 49:12.49 | 2:42.63 | 221449 | 233661
19 | 51:55.37 | 2:22.59 | 233662 | 244370
20 | 54:18.21 | 3:06.61 | 244371 | 258381


Track 1

Filename A:\PsPBuRnOuT's MUSIC\SORTED BY YEAR\1960s\DRIVEN BY - THE 60s\DRIVEN BY - THE 60s - CD2\01.Marlena Shaw - California Soul.wav

Peak level 89.4 %
Extraction speed 10.7 X
Track quality 99.8 %
Copy CRC 4079D7E3
Track not present in AccurateRip database
Copy OK

Track 2

Filename A:\PsPBuRnOuT's MUSIC\SORTED BY YEAR\1960s\DRIVEN BY - THE 60s\DRIVEN BY - THE 60s - CD2\02.Marvin Gaye - I Heard It Through The Grapevine.wav

Peak level 100.0 %
Extraction speed 11.3 X
Track quality 100.0 %
Copy CRC D6FF79C5
Track not present in AccurateRip database
Copy OK

Track 3

Filename A:\PsPBuRnOuT's MUSIC\SORTED BY YEAR\1960s\DRIVEN BY - THE 60s\DRIVEN BY - THE 60s - CD2\03.The Zombies - Time Of The Season.wav

Peak level 87.3 %
Extraction speed 12.3 X
Track quality 99.9 %
Copy CRC 880F0EE5
Track not present in AccurateRip database
Copy OK

Track 4

Filename A:\PsPBuRnOuT's MUSIC\SORTED BY YEAR\1960s\DRIVEN BY - THE 60s\DRIVEN BY - THE 60s - CD2\04.The Flowerpot Men - Let's Go To San Francisco.wav

Peak level 100.0 %
Extraction speed 17.8 X
Track quality 100.0 %
Copy CRC 4BC8FC9A
Track not present in AccurateRip database
Copy OK

Track 5

Filename A:\PsPBuRnOuT's MUSIC\SORTED BY YEAR\1960s\DRIVEN BY - THE 60s\DRIVEN BY - THE 60s - CD2\05.Joe Brown & The Bruvvers - A Picture Of You.wav

Peak level 90.6 %
Extraction speed 17.6 X
Track quality 99.8 %
Copy CRC 497CD8E4
Track not present in AccurateRip database
Copy OK

Track 6

Filename A:\PsPBuRnOuT's MUSIC\SORTED BY YEAR\1960s\DRIVEN BY - THE 60s\DRIVEN BY - THE 60s - CD2\06.The Walker Brothers - The Sun Ain't Gonna Shine (Anymore).wav

Peak level 100.0 %
Extraction speed 19.2 X
Track quality 100.0 %
Copy CRC BE9952B2
Track not present in AccurateRip database
Copy OK

Track 7

Filename A:\PsPBuRnOuT's MUSIC\SORTED BY YEAR\1960s\DRIVEN BY - THE 60s\DRIVEN BY - THE 60s - CD2\07.Bobby Hebb - Sunny.wav

Peak level 84.1 %
Extraction speed 24.7 X
Track quality 100.0 %
Copy CRC 23818D05
Track not present in AccurateRip database
Copy OK

Track 8

Filename A:\PsPBuRnOuT's MUSIC\SORTED BY YEAR\1960s\DRIVEN BY - THE 60s\DRIVEN BY - THE 60s - CD2\08.Blue Mink - Melting Pot.wav

Peak level 84.4 %
Extraction speed 25.3 X
Track quality 100.0 %
Copy CRC C854306C
Track not present in AccurateRip database
Copy OK

Track 9

Filename A:\PsPBuRnOuT's MUSIC\SORTED BY YEAR\1960s\DRIVEN BY - THE 60s\DRIVEN BY - THE 60s - CD2\09.The Mamas & The Papas - California Dreamin'.wav

Peak level 94.4 %
Extraction speed 24.8 X
Track quality 100.0 %
Copy CRC 03CDCC3B
Track not present in AccurateRip database
Copy OK

Track 10

Filename A:\PsPBuRnOuT's MUSIC\SORTED BY YEAR\1960s\DRIVEN BY - THE 60s\DRIVEN BY - THE 60s - CD2\10.The Beach Boys - California Girls.wav

Peak level 89.1 %
Extraction speed 27.7 X
Track quality 100.0 %
Copy CRC A395026F
Track not present in AccurateRip database
Copy OK

Track 11

Filename A:\PsPBuRnOuT's MUSIC\SORTED BY YEAR\1960s\DRIVEN BY - THE 60s\DRIVEN BY - THE 60s - CD2\11.The Sufaris - Wipe Out.wav

Peak level 100.0 %
Extraction speed 26.5 X
Track quality 100.0 %
Copy CRC 864E7543
Track not present in AccurateRip database
Copy OK

Track 12

Filename A:\PsPBuRnOuT's MUSIC\SORTED BY YEAR\1960s\DRIVEN BY - THE 60s\DRIVEN BY - THE 60s - CD2\12.Sam The Sham & The Pharaohs - Wooly Bully.wav

Peak level 100.0 %
Extraction speed 24.9 X
Track quality 100.0 %
Copy CRC 58E1C899
Track not present in AccurateRip database
Copy OK

Track 13

Filename A:\PsPBuRnOuT's MUSIC\SORTED BY YEAR\1960s\DRIVEN BY - THE 60s\DRIVEN BY - THE 60s - CD2\13.The Four Tops - I Can't Help Myself (Sugar Pie, Honey Bunch).wav

Peak level 82.6 %
Extraction speed 22.9 X
Track quality 100.0 %
Copy CRC 16D55D5D
Track not present in AccurateRip database
Copy OK

Track 14

Filename A:\PsPBuRnOuT's MUSIC\SORTED BY YEAR\1960s\DRIVEN BY - THE 60s\DRIVEN BY - THE 60s - CD2\14.The Foundations - Baby Now That I've Found You.wav

Peak level 87.1 %
Extraction speed 30.2 X
Track quality 100.0 %
Copy CRC 953EA20E
Track not present in AccurateRip database
Copy OK

Track 15

Filename A:\PsPBuRnOuT's MUSIC\SORTED BY YEAR\1960s\DRIVEN BY - THE 60s\DRIVEN BY - THE 60s - CD2\15.Dandy Livingstone - Rudy, A Message To You.wav

Peak level 81.4 %
Extraction speed 31.5 X
Track quality 100.0 %
Copy CRC 1A05946B
Track not present in AccurateRip database
Copy OK

Track 16

Filename A:\PsPBuRnOuT's MUSIC\SORTED BY YEAR\1960s\DRIVEN BY - THE 60s\DRIVEN BY - THE 60s - CD2\16.Desmond Dekker & The Aces - Israelites.wav

Peak level 100.0 %
Extraction speed 23.5 X
Track quality 99.8 %
Copy CRC 314264A7
Track not present in AccurateRip database
Copy OK

Track 17

Filename A:\PsPBuRnOuT's MUSIC\SORTED BY YEAR\1960s\DRIVEN BY - THE 60s\DRIVEN BY - THE 60s - CD2\17.Harry J Allstars - Liquidator.wav

Peak level 86.4 %
Extraction speed 22.6 X
Track quality 100.0 %
Copy CRC 64249C31
Track not present in AccurateRip database
Copy OK

Track 18

Filename A:\PsPBuRnOuT's MUSIC\SORTED BY YEAR\1960s\DRIVEN BY - THE 60s\DRIVEN BY - THE 60s - CD2\18.The Paragons - The Tide Is High.wav

Peak level 100.0 %
Extraction speed 25.1 X
Track quality 99.8 %
Copy CRC 9816D973
Track not present in AccurateRip database
Copy OK

Track 19

Filename A:\PsPBuRnOuT's MUSIC\SORTED BY YEAR\1960s\DRIVEN BY - THE 60s\DRIVEN BY - THE 60s - CD2\19.The Overlanders - Michelle.wav

Peak level 80.3 %
Extraction speed 23.6 X
Track quality 100.0 %
Copy CRC 4F6D1648
Track not present in AccurateRip database
Copy OK

Track 20

Filename A:\PsPBuRnOuT's MUSIC\SORTED BY YEAR\1960s\DRIVEN BY - THE 60s\DRIVEN BY - THE 60s - CD2\20.The Tremeloes - Silence Is Golden.wav

Peak level 74.1 %
Extraction speed 34.8 X
Track quality 100.0 %
Copy CRC A4AC97EB
Track not present in AccurateRip database
Copy OK


None of the tracks are present in the AccurateRip database

No errors occurred

End of status report

–– CUETools DB Plugin V2.1.6

[CTDB TOCID: 5_G2HswuHdkmMWzeTSMvBlg9S0k-] disk not present in database
Submit result: 5_G2HswuHdkmMWzeTSMvBlg9S0k- has been uploaded

Exact Audio Copy V1.3 from 2. September 2016

EAC extraction logfile from 14. April 2019, 15:37

Various / Driven By - The 60s - CD3

Used drive : ATAPI iHAS124 Y Adapter: 1 ID: 0

Read mode : Secure
Utilize accurate stream : Yes
Defeat audio cache : No
Make use of C2 pointers : Yes

Read offset correction : 48
Overread into Lead-In and Lead-Out : No
Fill up missing offset samples with silence : Yes
Delete leading and trailing silent blocks : No
Null samples used in CRC calculations : Yes
Used interface : Native Win32 interface for Win NT & 2000
Gap handling : Not detected, thus appended to previous track

Used output format : User Defined Encoder
Selected bitrate : 896 kBit/s
Quality : High
Add ID3 tag : No
Command line compressor : C:\Program Files (x86)\Exact Audio Copy\FLAC\FLAC.EXE
Additional command line options : -6 -V -T "ARTIST=%artist%" -T "TITLE=%title%" -T "ALBUM=%albumtitle%" -T "DATE=%year%" -T "TRACKNUMBER=%tracknr%" -T "GENRE=%genre%" -T "COMMENT=%comment%" -T "BAND=%albuminterpret%" -T "ALBUMARTIST=%albuminterpret%" -T "COMPOSER=%composer%" %haslyrics%–tag-from-file=LYRICS="%lyricsfile%"%haslyrics% -T "DISCNUMBER=%cdnumber%" -T "TOTALDISCS=%totalcds%" -T "TOTALTRACKS=%numtracks%" %hascover%–picture="%coverfile%"%hascover% %source% -o %dest%


TOC of the extracted CD

Track | Start | Length | Start sector | End sector
––––––––––––––––––––––––––––-
1 | 0:00.00 | 2:18.24 | 0 | 10373
2 | 2:18.24 | 2:35.51 | 10374 | 22049
3 | 4:54.00 | 2:48.62 | 22050 | 34711
4 | 7:42.62 | 2:36.71 | 34712 | 46482
5 | 10:19.58 | 2:53.48 | 46483 | 59505
6 | 13:13.31 | 2:58.66 | 59506 | 72921
7 | 16:12.22 | 3:27.68 | 72922 | 88514
8 | 19:40.15 | 2:55.71 | 88515 | 101710
9 | 22:36.11 | 3:23.42 | 101711 | 116977
10 | 25:59.53 | 1:59.74 | 116978 | 125976
11 | 27:59.52 | 3:02.20 | 125977 | 139646
12 | 31:01.72 | 3:01.54 | 139647 | 153275
13 | 34:03.51 | 2:23.11 | 153276 | 164011
14 | 36:26.62 | 2:32.38 | 164012 | 175449
15 | 38:59.25 | 3:04.71 | 175450 | 189320
16 | 42:04.21 | 2:27.64 | 189321 | 200409
17 | 44:32.10 | 2:46.47 | 200410 | 212906
18 | 47:18.57 | 2:50.20 | 212907 | 225676
19 | 50:09.02 | 2:55.09 | 225677 | 238810
20 | 53:04.11 | 2:54.19 | 238811 | 251879


Track 1

Filename A:\PsPBuRnOuT's MUSIC\SORTED BY YEAR\1960s\DRIVEN BY - THE 60s\DRIVEN BY - THE 60s - CD3\01.Louis Armstrong - What A Wonderful World.wav

Peak level 87.9 %
Extraction speed 10.1 X
Track quality 99.8 %
Copy CRC CBB6B23B
Track not present in AccurateRip database
Copy OK

Track 2

Filename A:\PsPBuRnOuT's MUSIC\SORTED BY YEAR\1960s\DRIVEN BY - THE 60s\DRIVEN BY - THE 60s - CD3\02.Nina Simone - I Put A Spell On You.wav

Peak level 100.0 %
Extraction speed 12.8 X
Track quality 100.0 %
Copy CRC F4D015B1
Track not present in AccurateRip database
Copy OK

Track 3

Filename A:\PsPBuRnOuT's MUSIC\SORTED BY YEAR\1960s\DRIVEN BY - THE 60s\DRIVEN BY - THE 60s - CD3\03.Etta James - Something Gotta Hold On Me.wav

Peak level 74.8 %
Extraction speed 18.2 X
Track quality 100.0 %
Copy CRC 3B5AE03A
Track not present in AccurateRip database
Copy OK

Track 4

Filename A:\PsPBuRnOuT's MUSIC\SORTED BY YEAR\1960s\DRIVEN BY - THE 60s\DRIVEN BY - THE 60s - CD3\04.Barrett Strong - Money (That's What I Want).wav

Peak level 79.4 %
Extraction speed 19.4 X
Track quality 100.0 %
Copy CRC DE126794
Track not present in AccurateRip database
Copy OK

Track 5

Filename A:\PsPBuRnOuT's MUSIC\SORTED BY YEAR\1960s\DRIVEN BY - THE 60s\DRIVEN BY - THE 60s - CD3\05.Fontella Bass - Rescue Me.wav

Peak level 89.1 %
Extraction speed 17.6 X
Track quality 99.8 %
Copy CRC BAF5ECDD
Track not present in AccurateRip database
Copy OK

Track 6

Filename A:\PsPBuRnOuT's MUSIC\SORTED BY YEAR\1960s\DRIVEN BY - THE 60s\DRIVEN BY - THE 60s - CD3\06.Diana Ross & Supremes - Love Child.wav

Peak level 70.7 %
Extraction speed 18.6 X
Track quality 100.0 %
Copy CRC 4DD16907
Track not present in AccurateRip database
Copy OK

Track 7

Filename A:\PsPBuRnOuT's MUSIC\SORTED BY YEAR\1960s\DRIVEN BY - THE 60s\DRIVEN BY - THE 60s - CD3\07.Ike & Tina Turner - River Deep Mountain High.wav

Peak level 89.1 %
Extraction speed 23.8 X
Track quality 100.0 %
Copy CRC FA6A8A2A
Track not present in AccurateRip database
Copy OK

Track 8

Filename A:\PsPBuRnOuT's MUSIC\SORTED BY YEAR\1960s\DRIVEN BY - THE 60s\DRIVEN BY - THE 60s - CD3\08.Martha & The Vandellas - Nowhere To Run.wav

Peak level 93.5 %
Extraction speed 25.0 X
Track quality 100.0 %
Copy CRC 5AA71E5C
Track not present in AccurateRip database
Copy OK

Track 9

Filename A:\PsPBuRnOuT's MUSIC\SORTED BY YEAR\1960s\DRIVEN BY - THE 60s\DRIVEN BY - THE 60s - CD3\09.The Supremes - Stop In The Name Of Love.wav

Peak level 74.1 %
Extraction speed 24.6 X
Track quality 100.0 %
Copy CRC 28290877
Track not present in AccurateRip database
Copy OK

Track 10

Filename A:\PsPBuRnOuT's MUSIC\SORTED BY YEAR\1960s\DRIVEN BY - THE 60s\DRIVEN BY - THE 60s - CD3\10.Tom Jones - It's Not Unusual.wav

Peak level 96.4 %
Extraction speed 25.2 X
Track quality 100.0 %
Copy CRC A91B6B56
Track not present in AccurateRip database
Copy OK

Track 11

Filename A:\PsPBuRnOuT's MUSIC\SORTED BY YEAR\1960s\DRIVEN BY - THE 60s\DRIVEN BY - THE 60s - CD3\11.Love Affair - Everlasting Love.wav

Peak level 92.3 %
Extraction speed 22.0 X
Track quality 99.8 %
Copy CRC FC418EBF
Track not present in AccurateRip database
Copy OK

Track 12

Filename A:\PsPBuRnOuT's MUSIC\SORTED BY YEAR\1960s\DRIVEN BY - THE 60s\DRIVEN BY - THE 60s - CD3\12.Marmalade - Ob-La-Di, Ob-La-Da.wav

Peak level 99.9 %
Extraction speed 22.4 X
Track quality 100.0 %
Copy CRC 9C91838E
Track not present in AccurateRip database
Copy OK

Track 13

Filename A:\PsPBuRnOuT's MUSIC\SORTED BY YEAR\1960s\DRIVEN BY - THE 60s\DRIVEN BY - THE 60s - CD3\13.Brian Hyland - Itsy Bitzy Teenie Weenie Yellow Polka Dot Bikini.wav

Peak level 100.0 %
Extraction speed 29.7 X
Track quality 100.0 %
Copy CRC 8E29AB5F
Track not present in AccurateRip database
Copy OK

Track 14

Filename A:\PsPBuRnOuT's MUSIC\SORTED BY YEAR\1960s\DRIVEN BY - THE 60s\DRIVEN BY - THE 60s - CD3\14.John Lee Hooker - Boom Boom.wav

Peak level 100.0 %
Extraction speed 28.0 X
Track quality 100.0 %
Copy CRC C009706E
Track not present in AccurateRip database
Copy OK

Track 15

Filename A:\PsPBuRnOuT's MUSIC\SORTED BY YEAR\1960s\DRIVEN BY - THE 60s\DRIVEN BY - THE 60s - CD3\15.Petula Clark - Downtown.wav

Peak level 90.5 %
Extraction speed 30.8 X
Track quality 100.0 %
Copy CRC B4066D8F
Track not present in AccurateRip database
Copy OK

Track 16

Filename A:\PsPBuRnOuT's MUSIC\SORTED BY YEAR\1960s\DRIVEN BY - THE 60s\DRIVEN BY - THE 60s - CD3\16.Dusty Springfield - Son Of A Preacher Man.wav

Peak level 100.0 %
Extraction speed 23.5 X
Track quality 99.8 %
Copy CRC 82F04964
Track not present in AccurateRip database
Copy OK

Track 17

Filename A:\PsPBuRnOuT's MUSIC\SORTED BY YEAR\1960s\DRIVEN BY - THE 60s\DRIVEN BY - THE 60s - CD3\17.Jackie Trent - Where Are You Now My Love.wav

Peak level 95.5 %
Extraction speed 19.3 X
Track quality 99.8 %
Copy CRC AD9CF5BB
Track not present in AccurateRip database
Copy OK

Track 18

Filename A:\PsPBuRnOuT's MUSIC\SORTED BY YEAR\1960s\DRIVEN BY - THE 60s\DRIVEN BY - THE 60s - CD3\18.Dee Clark - Raindrops.wav

Peak level 100.0 %
Extraction speed 24.6 X
Track quality 100.0 %
Copy CRC 1ED11022
Track not present in AccurateRip database
Copy OK

Track 19

Filename A:\PsPBuRnOuT's MUSIC\SORTED BY YEAR\1960s\DRIVEN BY - THE 60s\DRIVEN BY - THE 60s - CD3\19.Jimmy James & The Vagabonds - Red Red Wine.wav

Peak level 85.4 %
Extraction speed 17.0 X
Track quality 99.8 %
Copy CRC 97D736C0
Track not present in AccurateRip database
Copy OK

Track 20

Filename A:\PsPBuRnOuT's MUSIC\SORTED BY YEAR\1960s\DRIVEN BY - THE 60s\DRIVEN BY - THE 60s - CD3\20.Donovan - Catch The Wind.wav

Peak level 100.0 %
Extraction speed 32.2 X
Track quality 100.0 %
Copy CRC 88A8931D
Track not present in AccurateRip database
Copy OK


None of the tracks are present in the AccurateRip database

No errors occurred

End of status report

–– CUETools DB Plugin V2.1.6

[CTDB TOCID: UJfJZuUBm7VS7Y8bgCiKSPcddIg-] disk not present in database
Submit result: UJfJZuUBm7VS7Y8bgCiKSPcddIg- has been uploaded

Exact Audio Copy V1.3 from 2. September 2016

EAC extraction logfile from 14. April 2019, 20:48

Various / Driven By - The 60s - CD4

Used drive : ATAPI iHAS124 Y Adapter: 1 ID: 0

Read mode : Secure
Utilize accurate stream : Yes
Defeat audio cache : No
Make use of C2 pointers : Yes

Read offset correction : 48
Overread into Lead-In and Lead-Out : No
Fill up missing offset samples with silence : Yes
Delete leading and trailing silent blocks : No
Null samples used in CRC calculations : Yes
Used interface : Native Win32 interface for Win NT & 2000
Gap handling : Not detected, thus appended to previous track

Used output format : User Defined Encoder
Selected bitrate : 896 kBit/s
Quality : High
Add ID3 tag : No
Command line compressor : C:\Program Files (x86)\Exact Audio Copy\FLAC\FLAC.EXE
Additional command line options : -6 -V -T "ARTIST=%artist%" -T "TITLE=%title%" -T "ALBUM=%albumtitle%" -T "DATE=%year%" -T "TRACKNUMBER=%tracknr%" -T "GENRE=%genre%" -T "COMMENT=%comment%" -T "BAND=%albuminterpret%" -T "ALBUMARTIST=%albuminterpret%" -T "COMPOSER=%composer%" %haslyrics%–tag-from-file=LYRICS="%lyricsfile%"%haslyrics% -T "DISCNUMBER=%cdnumber%" -T "TOTALDISCS=%totalcds%" -T "TOTALTRACKS=%numtracks%" %hascover%–picture="%coverfile%"%hascover% %source% -o %dest%


TOC of the extracted CD

Track | Start | Length | Start sector | End sector
––––––––––––––––––––––––––––-
1 | 0:00.00 | 2:59.14 | 0 | 13438
2 | 2:59.14 | 2:53.11 | 13439 | 26424
3 | 5:52.25 | 2:25.31 | 26425 | 37330
4 | 8:17.56 | 2:10.02 | 37331 | 47082
5 | 10:27.58 | 2:29.52 | 47083 | 58309
6 | 12:57.35 | 2:48.32 | 58310 | 70941
7 | 15:45.67 | 2:37.70 | 70942 | 82786
8 | 18:23.62 | 2:34.70 | 82787 | 94406
9 | 20:58.57 | 2:01.72 | 94407 | 103553
10 | 23:00.54 | 2:28.08 | 103554 | 114661
11 | 25:28.62 | 2:22.70 | 114662 | 125381
12 | 27:51.57 | 2:20.12 | 125382 | 135893
13 | 30:11.69 | 1:50.09 | 135894 | 144152
14 | 32:02.03 | 3:04.48 | 144153 | 158000
15 | 35:06.51 | 3:21.15 | 158001 | 173090
16 | 38:27.66 | 2:08.27 | 173091 | 182717
17 | 40:36.18 | 1:59.08 | 182718 | 191650
18 | 42:35.26 | 2:26.63 | 191651 | 202663
19 | 45:02.14 | 3:19.36 | 202664 | 217624
20 | 48:21.50 | 2:59.14 | 217625 | 231063


Track 1

Filename A:\PsPBuRnOuT's MUSIC\SORTED BY YEAR\1960s\DRIVEN BY - THE 60s\DRIVEN BY - THE 60s - CD4\01.Marvin Gaye & Kim Weston - It Takes Two.wav

Peak level 100.0 %
Extraction speed 8.3 X
Track quality 100.0 %
Copy CRC 505AA770
Track not present in AccurateRip database
Copy OK

Track 2

Filename A:\PsPBuRnOuT's MUSIC\SORTED BY YEAR\1960s\DRIVEN BY - THE 60s\DRIVEN BY - THE 60s - CD4\02.The Shangri-Las - The Leader Of The Pack.wav

Peak level 89.1 %
Extraction speed 9.5 X
Track quality 100.0 %
Copy CRC 359E0BBF
Track not present in AccurateRip database
Copy OK

Track 3

Filename A:\PsPBuRnOuT's MUSIC\SORTED BY YEAR\1960s\DRIVEN BY - THE 60s\DRIVEN BY - THE 60s - CD4\03.The Four Seasons - Big Girls Don't Cry.wav

Peak level 100.0 %
Extraction speed 10.2 X
Track quality 100.0 %
Copy CRC 32BCE13F
Track not present in AccurateRip database
Copy OK

Track 4

Filename A:\PsPBuRnOuT's MUSIC\SORTED BY YEAR\1960s\DRIVEN BY - THE 60s\DRIVEN BY - THE 60s - CD4\04.Billie Davis - Tell Him.wav

Peak level 100.0 %
Extraction speed 10.0 X
Track quality 99.8 %
Copy CRC 6A180F57
Track not present in AccurateRip database
Copy OK

Track 5

Filename A:\PsPBuRnOuT's MUSIC\SORTED BY YEAR\1960s\DRIVEN BY - THE 60s\DRIVEN BY - THE 60s - CD4\05.The Marvelettes - Please Mr Postman.wav

Peak level 84.1 %
Extraction speed 10.6 X
Track quality 100.0 %
Copy CRC 79CF3E9D
Track not present in AccurateRip database
Copy OK

Track 6

Filename A:\PsPBuRnOuT's MUSIC\SORTED BY YEAR\1960s\DRIVEN BY - THE 60s\DRIVEN BY - THE 60s - CD4\06.Mary Wells - My Guy.wav

Peak level 96.9 %
Extraction speed 11.2 X
Track quality 100.0 %
Copy CRC D60F9DF9
Track not present in AccurateRip database
Copy OK

Track 7

Filename A:\PsPBuRnOuT's MUSIC\SORTED BY YEAR\1960s\DRIVEN BY - THE 60s\DRIVEN BY - THE 60s - CD4\07.The Angels - My Boyfriend's Back.wav

Peak level 88.6 %
Extraction speed 11.5 X
Track quality 100.0 %
Copy CRC 569AF580
Track not present in AccurateRip database
Copy OK

Track 8

Filename A:\PsPBuRnOuT's MUSIC\SORTED BY YEAR\1960s\DRIVEN BY - THE 60s\DRIVEN BY - THE 60s - CD4\08.Susan Maughan - Bobby's Girl.wav

Peak level 97.8 %
Extraction speed 12.8 X
Track quality 100.0 %
Copy CRC 68836CA6
Track not present in AccurateRip database
Copy OK

Track 9

Filename A:\PsPBuRnOuT's MUSIC\SORTED BY YEAR\1960s\DRIVEN BY - THE 60s\DRIVEN BY - THE 60s - CD4\09.Millie - My Boy Lollipop.wav

Peak level 91.2 %
Extraction speed 12.2 X
Track quality 100.0 %
Copy CRC 8EF52DD0
Track not present in AccurateRip database
Copy OK

Track 10

Filename A:\PsPBuRnOuT's MUSIC\SORTED BY YEAR\1960s\DRIVEN BY - THE 60s\DRIVEN BY - THE 60s - CD4\10.The Searchers - Sweets For My Sweet.wav

Peak level 77.9 %
Extraction speed 12.7 X
Track quality 100.0 %
Copy CRC 36277AF7
Track not present in AccurateRip database
Copy OK

Track 11

Filename A:\PsPBuRnOuT's MUSIC\SORTED BY YEAR\1960s\DRIVEN BY - THE 60s\DRIVEN BY - THE 60s - CD4\11.The Tremeloes - Do You Love Me.wav

Peak level 88.9 %
Extraction speed 13.3 X
Track quality 100.0 %
Copy CRC F387A9BE
Track not present in AccurateRip database
Copy OK

Track 12

Filename A:\PsPBuRnOuT's MUSIC\SORTED BY YEAR\1960s\DRIVEN BY - THE 60s\DRIVEN BY - THE 60s - CD4\12.Buddy Holly - Bo Diddley.wav

Peak level 92.5 %
Extraction speed 13.4 X
Track quality 100.0 %
Copy CRC 635444C3
Track not present in AccurateRip database
Copy OK

Track 13

Filename A:\PsPBuRnOuT's MUSIC\SORTED BY YEAR\1960s\DRIVEN BY - THE 60s\DRIVEN BY - THE 60s - CD4\13.Lance Fortune - Be Mine.wav

Peak level 88.6 %
Extraction speed 13.9 X
Track quality 100.0 %
Copy CRC 778FF6BE
Track not present in AccurateRip database
Copy OK

Track 14

Filename A:\PsPBuRnOuT's MUSIC\SORTED BY YEAR\1960s\DRIVEN BY - THE 60s\DRIVEN BY - THE 60s - CD4\14.Dave Dee, Dozy, Beaky, Mick & Tich - The Legend Of Xanadu.wav

Peak level 81.9 %
Extraction speed 15.0 X
Track quality 100.0 %
Copy CRC 410B85A8
Track not present in AccurateRip database
Copy OK

Track 15

Filename A:\PsPBuRnOuT's MUSIC\SORTED BY YEAR\1960s\DRIVEN BY - THE 60s\DRIVEN BY - THE 60s - CD4\15.Scott Walker - Jackie.wav

Peak level 100.0 %
Extraction speed 15.4 X
Track quality 100.0 %
Copy CRC 1FFB42A7
Track not present in AccurateRip database
Copy OK

Track 16

Filename A:\PsPBuRnOuT's MUSIC\SORTED BY YEAR\1960s\DRIVEN BY - THE 60s\DRIVEN BY - THE 60s - CD4\16.The Ivy League - Funny How Love Can Be.wav

Peak level 94.7 %
Extraction speed 15.0 X
Track quality 100.0 %
Copy CRC 96284AB3
Track not present in AccurateRip database
Copy OK

Track 17

Filename A:\PsPBuRnOuT's MUSIC\SORTED BY YEAR\1960s\DRIVEN BY - THE 60s\DRIVEN BY - THE 60s - CD4\17.Brook Brothers - Warpaint.wav

Peak level 89.1 %
Extraction speed 15.2 X
Track quality 100.0 %
Copy CRC 77CDF8D6
Track not present in AccurateRip database
Copy OK

Track 18

Filename A:\PsPBuRnOuT's MUSIC\SORTED BY YEAR\1960s\DRIVEN BY - THE 60s\DRIVEN BY - THE 60s - CD4\18.Jimmy Justice - When My Little Girl Is Smiling.wav

Peak level 91.0 %
Extraction speed 15.5 X
Track quality 100.0 %
Copy CRC 2BFF0F39
Track not present in AccurateRip database
Copy OK

Track 19

Filename A:\PsPBuRnOuT's MUSIC\SORTED BY YEAR\1960s\DRIVEN BY - THE 60s\DRIVEN BY - THE 60s - CD4\19.Engelbert Humperdinck - Release Me.wav

Peak level 99.9 %
Extraction speed 16.0 X
Track quality 99.8 %
Copy CRC D68A232E
Track not present in AccurateRip database
Copy OK

Track 20

Filename A:\PsPBuRnOuT's MUSIC\SORTED BY YEAR\1960s\DRIVEN BY - THE 60s\DRIVEN BY - THE 60s - CD4\20.Junior Walker - How Sweet Is It (To Be Loved By You).wav

Peak level 100.0 %
Extraction speed 17.3 X
Track quality 100.0 %
Copy CRC D9AECFCF
Track not present in AccurateRip database
Copy OK


None of the tracks are present in the AccurateRip database

No errors occurred

End of status report

–– CUETools DB Plugin V2.1.6

[CTDB TOCID: Ogenln_TyKSOxTf3.VPAt.bmUsw-] disk not present in database
Submit result: Ogenln_TyKSOxTf3.VPAt.bmUsw- has been uploaded

Exact Audio Copy V1.3 from 2. September 2016

EAC extraction logfile from 14. April 2019, 21:15

Various / Driven By - The 60s - CD5

Used drive : ATAPI iHAS124 Y Adapter: 1 ID: 0

Read mode : Secure
Utilize accurate stream : Yes
Defeat audio cache : No
Make use of C2 pointers : Yes

Read offset correction : 48
Overread into Lead-In and Lead-Out : No
Fill up missing offset samples with silence : Yes
Delete leading and trailing silent blocks : No
Null samples used in CRC calculations : Yes
Used interface : Native Win32 interface for Win NT & 2000
Gap handling : Not detected, thus appended to previous track

Used output format : User Defined Encoder
Selected bitrate : 896 kBit/s
Quality : High
Add ID3 tag : No
Command line compressor : C:\Program Files (x86)\Exact Audio Copy\FLAC\FLAC.EXE
Additional command line options : -6 -V -T "ARTIST=%artist%" -T "TITLE=%title%" -T "ALBUM=%albumtitle%" -T "DATE=%year%" -T "TRACKNUMBER=%tracknr%" -T "GENRE=%genre%" -T "COMMENT=%comment%" -T "BAND=%albuminterpret%" -T "ALBUMARTIST=%albuminterpret%" -T "COMPOSER=%composer%" %haslyrics%–tag-from-file=LYRICS="%lyricsfile%"%haslyrics% -T "DISCNUMBER=%cdnumber%" -T "TOTALDISCS=%totalcds%" -T "TOTALTRACKS=%numtracks%" %hascover%–picture="%coverfile%"%hascover% %source% -o %dest%


TOC of the extracted CD

Track | Start | Length | Start sector | End sector
––––––––––––––––––––––––––––-
1 | 0:00.00 | 2:37.64 | 0 | 11838
2 | 2:37.64 | 3:37.06 | 11839 | 28119
3 | 6:14.70 | 2:25.47 | 28120 | 39041
4 | 8:40.42 | 3:24.71 | 39042 | 54412
5 | 12:05.38 | 2:27.50 | 54413 | 65487
6 | 14:33.13 | 2:34.33 | 65488 | 77070
7 | 17:07.46 | 2:06.00 | 77071 | 86520
8 | 19:13.46 | 2:45.64 | 86521 | 98959
9 | 21:59.35 | 2:59.53 | 98960 | 112437
10 | 24:59.13 | 2:59.35 | 112438 | 125897
11 | 27:58.48 | 2:25.66 | 125898 | 136838
12 | 30:24.39 | 2:11.30 | 136839 | 146693
13 | 32:35.69 | 2:08.66 | 146694 | 156359
14 | 34:44.60 | 2:58.65 | 156360 | 169774
15 | 37:43.50 | 3:17.04 | 169775 | 184553
16 | 41:00.54 | 2:56.52 | 184554 | 197805
17 | 43:57.31 | 3:11.49 | 197806 | 212179
18 | 47:09.05 | 2:24.16 | 212180 | 222995
19 | 49:33.21 | 2:35.00 | 222996 | 234620
20 | 52:08.21 | 2:24.36 | 234621 | 245456


Track 1

Filename A:\PsPBuRnOuT's MUSIC\SORTED BY YEAR\1960s\DRIVEN BY - THE 60s\DRIVEN BY - THE 60s - CD5\01.Amen Corner - Bend Me Shape Me.wav

Peak level 100.0 %
Extraction speed 12.1 X
Track quality 100.0 %
Copy CRC 62E6DFAC
Track not present in AccurateRip database
Copy OK

Track 2

Filename A:\PsPBuRnOuT's MUSIC\SORTED BY YEAR\1960s\DRIVEN BY - THE 60s\DRIVEN BY - THE 60s - CD5\02.The Beach Boys - Good Vibrations.wav

Peak level 82.2 %
Extraction speed 18.3 X
Track quality 100.0 %
Copy CRC AA3B39FF
Track not present in AccurateRip database
Copy OK

Track 3

Filename A:\PsPBuRnOuT's MUSIC\SORTED BY YEAR\1960s\DRIVEN BY - THE 60s\DRIVEN BY - THE 60s - CD5\03.The Zombies - She's Not There.wav

Peak level 100.0 %
Extraction speed 15.7 X
Track quality 99.8 %
Copy CRC E7A639E3
Track not present in AccurateRip database
Copy OK

Track 4

Filename A:\PsPBuRnOuT's MUSIC\SORTED BY YEAR\1960s\DRIVEN BY - THE 60s\DRIVEN BY - THE 60s - CD5\04.The Mamas & The Papas - Monday, Monday.wav

Peak level 84.1 %
Extraction speed 16.2 X
Track quality 100.0 %
Copy CRC BBDBEFE1
Track not present in AccurateRip database
Copy OK

Track 5

Filename A:\PsPBuRnOuT's MUSIC\SORTED BY YEAR\1960s\DRIVEN BY - THE 60s\DRIVEN BY - THE 60s - CD5\05.The Ivy League - Tossing And Turning.wav

Peak level 100.0 %
Extraction speed 22.4 X
Track quality 100.0 %
Copy CRC 510740CB
Track not present in AccurateRip database
Copy OK

Track 6

Filename A:\PsPBuRnOuT's MUSIC\SORTED BY YEAR\1960s\DRIVEN BY - THE 60s\DRIVEN BY - THE 60s - CD5\06.The Merseybeats - Wishin' And Hopin'.wav

Peak level 95.4 %
Extraction speed 21.8 X
Track quality 100.0 %
Copy CRC 0219966B
Track not present in AccurateRip database
Copy OK

Track 7

Filename A:\PsPBuRnOuT's MUSIC\SORTED BY YEAR\1960s\DRIVEN BY - THE 60s\DRIVEN BY - THE 60s - CD5\07.The Searchers - Love Potion No. 9.wav

Peak level 91.2 %
Extraction speed 24.2 X
Track quality 100.0 %
Copy CRC B0C5D638
Track not present in AccurateRip database
Copy OK

Track 8

Filename A:\PsPBuRnOuT's MUSIC\SORTED BY YEAR\1960s\DRIVEN BY - THE 60s\DRIVEN BY - THE 60s - CD5\08.The Isley Brothers - This Old Heart Of Mine (Is Weak For You).wav

Peak level 87.2 %
Extraction speed 24.8 X
Track quality 100.0 %
Copy CRC CD83DF7B
Track not present in AccurateRip database
Copy OK

Track 9

Filename A:\PsPBuRnOuT's MUSIC\SORTED BY YEAR\1960s\DRIVEN BY - THE 60s\DRIVEN BY - THE 60s - CD5\09.The Foundations - Build My Up Buttercup.wav

Peak level 97.9 %
Extraction speed 20.4 X
Track quality 99.8 %
Copy CRC 2E191E41
Track not present in AccurateRip database
Copy OK

Track 10

Filename A:\PsPBuRnOuT's MUSIC\SORTED BY YEAR\1960s\DRIVEN BY - THE 60s\DRIVEN BY - THE 60s - CD5\10.Jimmy Ruffin - What Becomes Of The Broken Hearted.wav

Peak level 94.4 %
Extraction speed 21.1 X
Track quality 100.0 %
Copy CRC B78B0727
Track not present in AccurateRip database
Copy OK

Track 11

Filename A:\PsPBuRnOuT's MUSIC\SORTED BY YEAR\1960s\DRIVEN BY - THE 60s\DRIVEN BY - THE 60s - CD5\11.The Yardbirds - Shapes Of Things.wav

Peak level 100.0 %
Extraction speed 25.7 X
Track quality 100.0 %
Copy CRC BCF9BC97
Track not present in AccurateRip database
Copy OK

Track 12

Filename A:\PsPBuRnOuT's MUSIC\SORTED BY YEAR\1960s\DRIVEN BY - THE 60s\DRIVEN BY - THE 60s - CD5\12.Status Quo - Ice In The Sun.wav

Peak level 87.3 %
Extraction speed 28.5 X
Track quality 100.0 %
Copy CRC B9D28278
Track not present in AccurateRip database
Copy OK

Track 13

Filename A:\PsPBuRnOuT's MUSIC\SORTED BY YEAR\1960s\DRIVEN BY - THE 60s\DRIVEN BY - THE 60s - CD5\13.The Chiffons - One Fine Day.wav

Peak level 89.1 %
Extraction speed 28.9 X
Track quality 100.0 %
Copy CRC 4B1D7B97
Track not present in AccurateRip database
Copy OK

Track 14

Filename A:\PsPBuRnOuT's MUSIC\SORTED BY YEAR\1960s\DRIVEN BY - THE 60s\DRIVEN BY - THE 60s - CD5\14.Joe Dolan - Make Me An Island.wav

Peak level 100.0 %
Extraction speed 29.5 X
Track quality 100.0 %
Copy CRC 412C21EF
Track not present in AccurateRip database
Copy OK

Track 15

Filename A:\PsPBuRnOuT's MUSIC\SORTED BY YEAR\1960s\DRIVEN BY - THE 60s\DRIVEN BY - THE 60s - CD5\15.Petula Clark - This Is My Song.wav

Peak level 100.0 %
Extraction speed 30.2 X
Track quality 100.0 %
Copy CRC B4FD0A53
Track not present in AccurateRip database
Copy OK

Track 16

Filename A:\PsPBuRnOuT's MUSIC\SORTED BY YEAR\1960s\DRIVEN BY - THE 60s\DRIVEN BY - THE 60s - CD5\16.Honeybus - I Can't Let Maggie Go.wav

Peak level 91.2 %
Extraction speed 31.4 X
Track quality 100.0 %
Copy CRC 7C9DE17E
Track not present in AccurateRip database
Copy OK

Track 17

Filename A:\PsPBuRnOuT's MUSIC\SORTED BY YEAR\1960s\DRIVEN BY - THE 60s\DRIVEN BY - THE 60s - CD5\17.Moody Blues - Go Now.wav

Peak level 100.0 %
Extraction speed 32.0 X
Track quality 100.0 %
Copy CRC F0A8F03E
Track not present in AccurateRip database
Copy OK

Track 18

Filename A:\PsPBuRnOuT's MUSIC\SORTED BY YEAR\1960s\DRIVEN BY - THE 60s\DRIVEN BY - THE 60s - CD5\18.Joe Brown & The Bruvvers - That's What Love Will Do.wav

Peak level 94.9 %
Extraction speed 30.6 X
Track quality 100.0 %
Copy CRC BD96D6DE
Track not present in AccurateRip database
Copy OK

Track 19

Filename A:\PsPBuRnOuT's MUSIC\SORTED BY YEAR\1960s\DRIVEN BY - THE 60s\DRIVEN BY - THE 60s - CD5\19.David & Jonathan - Lovers Of The World Unite.wav

Peak level 96.6 %
Extraction speed 33.7 X
Track quality 100.0 %
Copy CRC 3F6F3E72
Track not present in AccurateRip database
Copy OK

Track 20

Filename A:\PsPBuRnOuT's MUSIC\SORTED BY YEAR\1960s\DRIVEN BY - THE 60s\DRIVEN BY - THE 60s - CD5\20.Gene Chandler - Duke Of Earl.wav

Peak level 100.0 %
Extraction speed 34.5 X
Track quality 100.0 %
Copy CRC C8A99596
Track not present in AccurateRip database
Copy OK


None of the tracks are present in the AccurateRip database

No errors occurred

End of status report

–– CUETools DB Plugin V2.1.6

[CTDB TOCID: ydPnRqQYX5yYrtYpaLroqiv0jeo-] disk not present in database
Submit result: ydPnRqQYX5yYrtYpaLroqiv0jeo- has been uploaded