Subcategories

VA - Funiculi Funicula Amore (3CD, 2019)

Posted By: ciklon5
VA - Funiculi Funicula Amore (3CD, 2019)

VA - Funiculi Funicula Amore (3CD, 2019)
FLAC (tracks+cue,log) | 3:08:01 | 1,03 Gb
Genre: Jazz, Pop / Label: Universal Music Belgium

FUNICULI FUNICULA AMORE is een nieuwe compilatie met nummers die nooit eerder verschenen zijn op de vorige Funiculi compilaties. 3 CD’s met het mooiste aanbod aan licht klassieke muziek, grote popclassics van weleer en Nederlandstalige evergreens. Opnieuw wonderlijk samengesteld door Marc Brillouet, alles in een relaxe en romantische sfeer.

Track List:
CD 1
01. Helmut Lotti & Clare Teal - L.O.V.E.
02. Nat "King" Cole - Darling Je Vous Aime Beaucoup
03. Charles Aznavour - Que C'est Triste Venise
04. Los Indios Tabajaras - Amor, Amor, Amor
05. Los Panchos - Por El Amor De Una Mujer
06. Lucille Starr - Yours
07. Peggy Lee - Non Dimenticar
08. Johnny Mathis - A Lovely Way To Spend An Evening
09. Pat Boone - Because Of You
10. Billy Vaughn - Stardust
11. Andy Williams - I'll Never Stop Loving You
12. Bert Kaempfert - Love For Love
13. Dinah Washington - Love Letters
14. Connie Francis - My Thanks To You
15. Malcolm Vaughan - If You Were The Only Girl In The World And I Were The Only Boy
16. Nick Palmer - You're The Only Real Thing
17. Vera Lynn - Am I Wasting My Time On You?
18. Eddie Fisher - I Am In Love
19. Lawrence Welk - Cherie, I Love You
20. Don Cornell - Play Some Music For Broken Hearts

CD 2
01. André Rieu & Johann Strauss Orchestra - Romance From The Gadfly
02. Marcelo Álvarez & Salvatore Licitra - Solo Amore
03. Tony Bennett - The Shadow Of Your Smile
04. Scott Walker - I Will Wait For You
05. Frida Boccara - Canzone Di Un Amore Perduto
06. Coleman Hawkins & Ben Webster - Tangerine
07. John Gary - I'll Remember Her
08. Jack Jones - I Wish You Love
09. The Everly Brothers - Autumn Leaves
10. Adam Wade - Tenderly
11. Teddy Johnson - Mandolin Serenade
12. Acker Bilk - La Paloma
13. Bing Crosby - Domenica
14. Los Montejo - No Te Importe Saber
15. Kenny G - Sabor A Mi
16. Luca Barbarossa - Fine Di Un Amore
17. Alma Cogan - I'm In The Mood For Love
18. Danny Williams - What Kind Of Fool Am I?
19. Ken Dodd - Romantica
20. Frank Chacksfield & His Orchestra - A Woman In Love

CD 3
01. Marco Borsato - Kom Maar Bij Mij
02. Elvis Presley - That's Someone You Never Forget
03. John Denver - My Sweet Lady
04. Nana Mouskouri - Romance De Maître Pathelin
05. Perry Como - Love Don't Care (Where It Grows)
06. James Last - Games That Lovers Play
07. Shirley Bassey - There Will Never Be Another You
08. Doris Day - I'll Never Smile Again
09. Jerry Vale - Paradise
10. Manuel And The Music Of The Mountains - Fools Rush In (Where Angels Fear To Tread)
11. Vic Damone - Save A Kiss
12. Al Martino - You Always Hurt The One You Love
13. Brook Benton - Cold, Cold Heart
14. Roland Cedermark - I Can't Stop Loving You
15. Dean Martin - Be An Angel
16. Enzo Stuarti - What Now, My Love?
17. Harry Nilsson - I Wonder Who's Kissing Her Now
18. Sarah Vaughan - Eternally
19. Timi Yuro - Smile
20. Stanley Black And His Orchestra - Melody Of Love

Exact Audio Copy V1.3 from 2. September 2016

EAC extraction logfile from 17. November 2019, 23:10

Various Artists / Funiculi Funicula - Amore

Used drive : PLEXTOR PX-891SAF Adapter: 1 ID: 0

Read mode : Secure
Utilize accurate stream : Yes
Defeat audio cache : Yes
Make use of C2 pointers : No

Read offset correction : 6
Overread into Lead-In and Lead-Out : No
Fill up missing offset samples with silence : Yes
Delete leading and trailing silent blocks : No
Null samples used in CRC calculations : Yes
Used interface : Native Win32 interface for Win NT & 2000
Gap handling : Appended to previous track

Used output format : User Defined Encoder
Selected bitrate : 1024 kBit/s
Quality : High
Add ID3 tag : No
Command line compressor : C:\Program Files (x86)\Exact Audio Copy\Flac\flac.exe
Additional command line options : -8 -V -T "ARTIST=%artist%" -T "TITLE=%title%" -T "ALBUM=%albumtitle%" -T "DATE=%year%" -T "TRACKNUMBER=%tracknr%" -T "GENRE=%genre%" -T "PERFORMER=%albuminterpret%" -T "COMPOSER=%composer%" %haslyrics%–tag-from-file=LYRICS="%lyricsfile%"%haslyrics% -T "ALBUMARTIST=%albumartist%" -T "DISCNUMBER=%cdnumber%" -T "TOTALDISCS=%totalcds%" -T "TOTALTRACKS=%numtracks%" -T "COMMENT=%comment%" %source% -o %dest%


TOC of the extracted CD

Track | Start | Length | Start sector | End sector
––––––––––––––––––––––––––––-
1 | 0:00.00 | 2:58.49 | 0 | 13398
2 | 2:58.49 | 2:49.54 | 13399 | 26127
3 | 5:48.28 | 2:56.16 | 26128 | 39343
4 | 8:44.44 | 2:40.12 | 39344 | 51355
5 | 11:24.56 | 3:16.41 | 51356 | 66096
6 | 14:41.22 | 2:28.38 | 66097 | 77234
7 | 17:09.60 | 2:24.32 | 77235 | 88066
8 | 19:34.17 | 4:00.51 | 88067 | 106117
9 | 23:34.68 | 2:25.25 | 106118 | 117017
10 | 26:00.18 | 2:13.04 | 117018 | 126996
11 | 28:13.22 | 2:36.18 | 126997 | 138714
12 | 30:49.40 | 2:59.57 | 138715 | 152196
13 | 33:49.22 | 2:06.50 | 152197 | 161696
14 | 35:55.72 | 3:37.30 | 161697 | 178001
15 | 39:33.27 | 2:25.40 | 178002 | 188916
16 | 41:58.67 | 2:31.30 | 188917 | 200271
17 | 44:30.22 | 3:32.71 | 200272 | 216242
18 | 48:03.18 | 3:04.22 | 216243 | 230064
19 | 51:07.40 | 2:38.44 | 230065 | 241958
20 | 53:46.09 | 3:10.04 | 241959 | 256212


Track 1

Filename D:\#EAC new\#wav+flac\VA - Funiculi Funicula - Amore\cd 1\01. Helmut Lotti & Claire Teal - L.O.V.E..wav

Pre-gap length 0:00:02.00

Peak level 91.3 %
Extraction speed 4.7 X
Track quality 100.0 %
Test CRC F98943CF
Copy CRC F98943CF
Accurately ripped (confidence 2) [CC4B25C0] (AR v2)
Copy OK

Track 2

Filename D:\#EAC new\#wav+flac\VA - Funiculi Funicula - Amore\cd 1\02. Nat King Cole - Darling, Je Vous Aime Beaucoup.wav

Peak level 95.3 %
Extraction speed 5.1 X
Track quality 100.0 %
Test CRC BFA4BE7A
Copy CRC BFA4BE7A
Accurately ripped (confidence 2) [D150E337] (AR v2)
Copy OK

Track 3

Filename D:\#EAC new\#wav+flac\VA - Funiculi Funicula - Amore\cd 1\03. Charles Aznavour - Que C'est Triste Venise.wav

Peak level 98.7 %
Extraction speed 5.5 X
Track quality 100.0 %
Test CRC CE0892E5
Copy CRC CE0892E5
Accurately ripped (confidence 2) [3A778843] (AR v2)
Copy OK

Track 4

Filename D:\#EAC new\#wav+flac\VA - Funiculi Funicula - Amore\cd 1\04. Los Indios Tabajaras - Amor Amor Amor.wav

Pre-gap length 0:00:01.62

Peak level 98.8 %
Extraction speed 5.7 X
Track quality 100.0 %
Test CRC F405F5DD
Copy CRC F405F5DD
Accurately ripped (confidence 2) [71CF5F89] (AR v2)
Copy OK

Track 5

Filename D:\#EAC new\#wav+flac\VA - Funiculi Funicula - Amore\cd 1\05. Los Panchos - Por El Amor De Una Mujer.wav

Peak level 98.8 %
Extraction speed 5.0 X
Track quality 99.9 %
Test CRC AB434051
Copy CRC AB434051
Accurately ripped (confidence 2) [0CAE335E] (AR v2)
Copy OK

Track 6

Filename D:\#EAC new\#wav+flac\VA - Funiculi Funicula - Amore\cd 1\06. Lucille Star - Yours.wav

Peak level 98.8 %
Extraction speed 6.2 X
Track quality 100.0 %
Test CRC B0FF202F
Copy CRC B0FF202F
Accurately ripped (confidence 2) [E5BCF695] (AR v2)
Copy OK

Track 7

Filename D:\#EAC new\#wav+flac\VA - Funiculi Funicula - Amore\cd 1\07. Peggy Lee - Non Dimenticar.wav

Peak level 98.8 %
Extraction speed 4.8 X
Track quality 99.9 %
Test CRC E11998A4
Copy CRC E11998A4
Accurately ripped (confidence 2) [72155C47] (AR v2)
Copy OK

Track 8

Filename D:\#EAC new\#wav+flac\VA - Funiculi Funicula - Amore\cd 1\08. Johnny Mathis - A Lovely Way To Spend An Evening.wav

Pre-gap length 0:00:01.45

Peak level 98.8 %
Extraction speed 5.9 X
Track quality 99.9 %
Test CRC 071CDB66
Copy CRC 071CDB66
Accurately ripped (confidence 2) [7FD98B79] (AR v2)
Copy OK

Track 9

Filename D:\#EAC new\#wav+flac\VA - Funiculi Funicula - Amore\cd 1\09. Pat Boone - Because Of You.wav

Peak level 98.8 %
Extraction speed 7.0 X
Track quality 100.0 %
Test CRC 9EE9AF8A
Copy CRC 9EE9AF8A
Accurately ripped (confidence 2) [8291402A] (AR v2)
Copy OK

Track 10

Filename D:\#EAC new\#wav+flac\VA - Funiculi Funicula - Amore\cd 1\10. Billy Vaughn - Stardust.wav

Peak level 98.8 %
Extraction speed 7.0 X
Track quality 100.0 %
Test CRC A7816560
Copy CRC A7816560
Accurately ripped (confidence 2) [0CD16E11] (AR v2)
Copy OK

Track 11

Filename D:\#EAC new\#wav+flac\VA - Funiculi Funicula - Amore\cd 1\11. Andy Williams - I'll Never Stop Loving You.wav

Peak level 98.7 %
Extraction speed 7.5 X
Track quality 100.0 %
Test CRC 851BEB73
Copy CRC 851BEB73
Accurately ripped (confidence 2) [64055425] (AR v2)
Copy OK

Track 12

Filename D:\#EAC new\#wav+flac\VA - Funiculi Funicula - Amore\cd 1\12. Bert Kaempfert & His Orchestra - Love For Love.wav

Peak level 98.8 %
Extraction speed 7.8 X
Track quality 100.0 %
Test CRC C0EB3597
Copy CRC C0EB3597
Accurately ripped (confidence 2) [DDF3D8E3] (AR v2)
Copy OK

Track 13

Filename D:\#EAC new\#wav+flac\VA - Funiculi Funicula - Amore\cd 1\13. Dinah Washington - Love Letters.wav

Peak level 98.8 %
Extraction speed 7.4 X
Track quality 100.0 %
Test CRC 754B6511
Copy CRC 754B6511
Accurately ripped (confidence 2) [C0978BD9] (AR v2)
Copy OK

Track 14

Filename D:\#EAC new\#wav+flac\VA - Funiculi Funicula - Amore\cd 1\14. Connie Francis - My Thanks To You.wav

Peak level 98.8 %
Extraction speed 8.5 X
Track quality 100.0 %
Test CRC 679A0CCD
Copy CRC 679A0CCD
Accurately ripped (confidence 2) [A8506D48] (AR v2)
Copy OK

Track 15

Filename D:\#EAC new\#wav+flac\VA - Funiculi Funicula - Amore\cd 1\15. Malcolm Vaughan - If You Were The Only Girl In The World And I Were The Only Boy.wav

Pre-gap length 0:00:01.38

Peak level 98.8 %
Extraction speed 8.2 X
Track quality 100.0 %
Test CRC 4717CD0F
Copy CRC 4717CD0F
Accurately ripped (confidence 2) [77951A3B] (AR v2)
Copy OK

Track 16

Filename D:\#EAC new\#wav+flac\VA - Funiculi Funicula - Amore\cd 1\16. Nick Palmer - You're The Only Real Thing.wav

Pre-gap length 0:00:01.58

Peak level 98.2 %
Extraction speed 6.2 X
Track quality 99.9 %
Test CRC 8EB6E1DC
Copy CRC 8EB6E1DC
Accurately ripped (confidence 2) [8A2035B7] (AR v2)
Copy OK

Track 17

Filename D:\#EAC new\#wav+flac\VA - Funiculi Funicula - Amore\cd 1\17. Vera Lynn - Am I Wasting My Time On You.wav

Pre-gap length 0:00:01.58

Peak level 97.9 %
Extraction speed 9.1 X
Track quality 100.0 %
Test CRC CE1BFD97
Copy CRC CE1BFD97
Accurately ripped (confidence 2) [62787990] (AR v2)
Copy OK

Track 18

Filename D:\#EAC new\#wav+flac\VA - Funiculi Funicula - Amore\cd 1\18. Eddie Fisher - I Am In Love.wav

Pre-gap length 0:00:01.58

Peak level 89.5 %
Extraction speed 9.0 X
Track quality 100.0 %
Test CRC 67C54855
Copy CRC 67C54855
Accurately ripped (confidence 2) [4FFC851E] (AR v2)
Copy OK

Track 19

Filename D:\#EAC new\#wav+flac\VA - Funiculi Funicula - Amore\cd 1\19. Lawrence Welk - Cherie, I Love You.wav

Pre-gap length 0:00:01.02

Peak level 98.3 %
Extraction speed 9.1 X
Track quality 100.0 %
Test CRC 2DEE8F64
Copy CRC 2DEE8F64
Accurately ripped (confidence 2) [6BF2E044] (AR v2)
Copy OK

Track 20

Filename D:\#EAC new\#wav+flac\VA - Funiculi Funicula - Amore\cd 1\20. Don Cornell - Play Some Music For Broken Hearts.wav

Pre-gap length 0:00:02.00

Peak level 98.8 %
Extraction speed 9.4 X
Track quality 100.0 %
Test CRC F12D9930
Copy CRC F12D9930
Accurately ripped (confidence 2) [FF03A06F] (AR v2)
Copy OK


All tracks accurately ripped

No errors occurred

End of status report

–– CUETools DB Plugin V2.1.6

[CTDB TOCID: b5CNBsAcdE0.XHbsE7bK6cBA7fA-] found
Submit result: b5CNBsAcdE0.XHbsE7bK6cBA7fA- has been confirmed
Track | CTDB Status
1 | (3/3) Accurately ripped
2 | (3/3) Accurately ripped
3 | (3/3) Accurately ripped
4 | (3/3) Accurately ripped
5 | (3/3) Accurately ripped
6 | (3/3) Accurately ripped
7 | (3/3) Accurately ripped
8 | (3/3) Accurately ripped
9 | (3/3) Accurately ripped
10 | (3/3) Accurately ripped
11 | (3/3) Accurately ripped
12 | (3/3) Accurately ripped
13 | (3/3) Accurately ripped
14 | (3/3) Accurately ripped
15 | (3/3) Accurately ripped
16 | (3/3) Accurately ripped
17 | (3/3) Accurately ripped
18 | (3/3) Accurately ripped
19 | (3/3) Accurately ripped
20 | (3/3) Accurately ripped


==== Log checksum FA9AECF413F075809E768E147A5B040729B4AE3D9FFB7422FF20D45DD93C2D09 ====

––––––––––––––––––––––––––––––

Exact Audio Copy V1.3 from 2. September 2016

EAC extraction logfile from 17. November 2019, 23:10

Various Artists / Funiculi Funicula - Amore

Used drive : PLEXTOR PX-891SAF Adapter: 1 ID: 0

Read mode : Secure
Utilize accurate stream : Yes
Defeat audio cache : Yes
Make use of C2 pointers : No

Read offset correction : 6
Overread into Lead-In and Lead-Out : No
Fill up missing offset samples with silence : Yes
Delete leading and trailing silent blocks : No
Null samples used in CRC calculations : Yes
Used interface : Native Win32 interface for Win NT & 2000
Gap handling : Appended to previous track

Used output format : User Defined Encoder
Selected bitrate : 1024 kBit/s
Quality : High
Add ID3 tag : No
Command line compressor : C:\Program Files (x86)\Exact Audio Copy\Flac\flac.exe
Additional command line options : -8 -V -T "ARTIST=%artist%" -T "TITLE=%title%" -T "ALBUM=%albumtitle%" -T "DATE=%year%" -T "TRACKNUMBER=%tracknr%" -T "GENRE=%genre%" -T "PERFORMER=%albuminterpret%" -T "COMPOSER=%composer%" %haslyrics%–tag-from-file=LYRICS="%lyricsfile%"%haslyrics% -T "ALBUMARTIST=%albumartist%" -T "DISCNUMBER=%cdnumber%" -T "TOTALDISCS=%totalcds%" -T "TOTALTRACKS=%numtracks%" -T "COMMENT=%comment%" %source% -o %dest%


TOC of the extracted CD

Track | Start | Length | Start sector | End sector
––––––––––––––––––––––––––––-
1 | 0:00.00 | 2:58.49 | 0 | 13398
2 | 2:58.49 | 2:49.54 | 13399 | 26127
3 | 5:48.28 | 2:56.16 | 26128 | 39343
4 | 8:44.44 | 2:40.12 | 39344 | 51355
5 | 11:24.56 | 3:16.41 | 51356 | 66096
6 | 14:41.22 | 2:28.38 | 66097 | 77234
7 | 17:09.60 | 2:24.32 | 77235 | 88066
8 | 19:34.17 | 4:00.51 | 88067 | 106117
9 | 23:34.68 | 2:25.25 | 106118 | 117017
10 | 26:00.18 | 2:13.04 | 117018 | 126996
11 | 28:13.22 | 2:36.18 | 126997 | 138714
12 | 30:49.40 | 2:59.57 | 138715 | 152196
13 | 33:49.22 | 2:06.50 | 152197 | 161696
14 | 35:55.72 | 3:37.30 | 161697 | 178001
15 | 39:33.27 | 2:25.40 | 178002 | 188916
16 | 41:58.67 | 2:31.30 | 188917 | 200271
17 | 44:30.22 | 3:32.71 | 200272 | 216242
18 | 48:03.18 | 3:04.22 | 216243 | 230064
19 | 51:07.40 | 2:38.44 | 230065 | 241958
20 | 53:46.09 | 3:10.04 | 241959 | 256212


Track 1

Filename D:\#EAC new\#wav+flac\VA - Funiculi Funicula - Amore\cd 1\01. Helmut Lotti & Claire Teal - L.O.V.E..wav

Pre-gap length 0:00:02.00

Peak level 91.3 %
Extraction speed 4.7 X
Track quality 100.0 %
Test CRC F98943CF
Copy CRC F98943CF
Accurately ripped (confidence 2) [CC4B25C0] (AR v2)
Copy OK

Track 2

Filename D:\#EAC new\#wav+flac\VA - Funiculi Funicula - Amore\cd 1\02. Nat King Cole - Darling, Je Vous Aime Beaucoup.wav

Peak level 95.3 %
Extraction speed 5.1 X
Track quality 100.0 %
Test CRC BFA4BE7A
Copy CRC BFA4BE7A
Accurately ripped (confidence 2) [D150E337] (AR v2)
Copy OK

Track 3

Filename D:\#EAC new\#wav+flac\VA - Funiculi Funicula - Amore\cd 1\03. Charles Aznavour - Que C'est Triste Venise.wav

Peak level 98.7 %
Extraction speed 5.5 X
Track quality 100.0 %
Test CRC CE0892E5
Copy CRC CE0892E5
Accurately ripped (confidence 2) [3A778843] (AR v2)
Copy OK

Track 4

Filename D:\#EAC new\#wav+flac\VA - Funiculi Funicula - Amore\cd 1\04. Los Indios Tabajaras - Amor Amor Amor.wav

Pre-gap length 0:00:01.62

Peak level 98.8 %
Extraction speed 5.7 X
Track quality 100.0 %
Test CRC F405F5DD
Copy CRC F405F5DD
Accurately ripped (confidence 2) [71CF5F89] (AR v2)
Copy OK

Track 5

Filename D:\#EAC new\#wav+flac\VA - Funiculi Funicula - Amore\cd 1\05. Los Panchos - Por El Amor De Una Mujer.wav

Peak level 98.8 %
Extraction speed 5.0 X
Track quality 99.9 %
Test CRC AB434051
Copy CRC AB434051
Accurately ripped (confidence 2) [0CAE335E] (AR v2)
Copy OK

Track 6

Filename D:\#EAC new\#wav+flac\VA - Funiculi Funicula - Amore\cd 1\06. Lucille Star - Yours.wav

Peak level 98.8 %
Extraction speed 6.2 X
Track quality 100.0 %
Test CRC B0FF202F
Copy CRC B0FF202F
Accurately ripped (confidence 2) [E5BCF695] (AR v2)
Copy OK

Track 7

Filename D:\#EAC new\#wav+flac\VA - Funiculi Funicula - Amore\cd 1\07. Peggy Lee - Non Dimenticar.wav

Peak level 98.8 %
Extraction speed 4.8 X
Track quality 99.9 %
Test CRC E11998A4
Copy CRC E11998A4
Accurately ripped (confidence 2) [72155C47] (AR v2)
Copy OK

Track 8

Filename D:\#EAC new\#wav+flac\VA - Funiculi Funicula - Amore\cd 1\08. Johnny Mathis - A Lovely Way To Spend An Evening.wav

Pre-gap length 0:00:01.45

Peak level 98.8 %
Extraction speed 5.9 X
Track quality 99.9 %
Test CRC 071CDB66
Copy CRC 071CDB66
Accurately ripped (confidence 2) [7FD98B79] (AR v2)
Copy OK

Track 9

Filename D:\#EAC new\#wav+flac\VA - Funiculi Funicula - Amore\cd 1\09. Pat Boone - Because Of You.wav

Peak level 98.8 %
Extraction speed 7.0 X
Track quality 100.0 %
Test CRC 9EE9AF8A
Copy CRC 9EE9AF8A
Accurately ripped (confidence 2) [8291402A] (AR v2)
Copy OK

Track 10

Filename D:\#EAC new\#wav+flac\VA - Funiculi Funicula - Amore\cd 1\10. Billy Vaughn - Stardust.wav

Peak level 98.8 %
Extraction speed 7.0 X
Track quality 100.0 %
Test CRC A7816560
Copy CRC A7816560
Accurately ripped (confidence 2) [0CD16E11] (AR v2)
Copy OK

Track 11

Filename D:\#EAC new\#wav+flac\VA - Funiculi Funicula - Amore\cd 1\11. Andy Williams - I'll Never Stop Loving You.wav

Peak level 98.7 %
Extraction speed 7.5 X
Track quality 100.0 %
Test CRC 851BEB73
Copy CRC 851BEB73
Accurately ripped (confidence 2) [64055425] (AR v2)
Copy OK

Track 12

Filename D:\#EAC new\#wav+flac\VA - Funiculi Funicula - Amore\cd 1\12. Bert Kaempfert & His Orchestra - Love For Love.wav

Peak level 98.8 %
Extraction speed 7.8 X
Track quality 100.0 %
Test CRC C0EB3597
Copy CRC C0EB3597
Accurately ripped (confidence 2) [DDF3D8E3] (AR v2)
Copy OK

Track 13

Filename D:\#EAC new\#wav+flac\VA - Funiculi Funicula - Amore\cd 1\13. Dinah Washington - Love Letters.wav

Peak level 98.8 %
Extraction speed 7.4 X
Track quality 100.0 %
Test CRC 754B6511
Copy CRC 754B6511
Accurately ripped (confidence 2) [C0978BD9] (AR v2)
Copy OK

Track 14

Filename D:\#EAC new\#wav+flac\VA - Funiculi Funicula - Amore\cd 1\14. Connie Francis - My Thanks To You.wav

Peak level 98.8 %
Extraction speed 8.5 X
Track quality 100.0 %
Test CRC 679A0CCD
Copy CRC 679A0CCD
Accurately ripped (confidence 2) [A8506D48] (AR v2)
Copy OK

Track 15

Filename D:\#EAC new\#wav+flac\VA - Funiculi Funicula - Amore\cd 1\15. Malcolm Vaughan - If You Were The Only Girl In The World And I Were The Only Boy.wav

Pre-gap length 0:00:01.38

Peak level 98.8 %
Extraction speed 8.2 X
Track quality 100.0 %
Test CRC 4717CD0F
Copy CRC 4717CD0F
Accurately ripped (confidence 2) [77951A3B] (AR v2)
Copy OK

Track 16

Filename D:\#EAC new\#wav+flac\VA - Funiculi Funicula - Amore\cd 1\16. Nick Palmer - You're The Only Real Thing.wav

Pre-gap length 0:00:01.58

Peak level 98.2 %
Extraction speed 6.2 X
Track quality 99.9 %
Test CRC 8EB6E1DC
Copy CRC 8EB6E1DC
Accurately ripped (confidence 2) [8A2035B7] (AR v2)
Copy OK

Track 17

Filename D:\#EAC new\#wav+flac\VA - Funiculi Funicula - Amore\cd 1\17. Vera Lynn - Am I Wasting My Time On You.wav

Pre-gap length 0:00:01.58

Peak level 97.9 %
Extraction speed 9.1 X
Track quality 100.0 %
Test CRC CE1BFD97
Copy CRC CE1BFD97
Accurately ripped (confidence 2) [62787990] (AR v2)
Copy OK

Track 18

Filename D:\#EAC new\#wav+flac\VA - Funiculi Funicula - Amore\cd 1\18. Eddie Fisher - I Am In Love.wav

Pre-gap length 0:00:01.58

Peak level 89.5 %
Extraction speed 9.0 X
Track quality 100.0 %
Test CRC 67C54855
Copy CRC 67C54855
Accurately ripped (confidence 2) [4FFC851E] (AR v2)
Copy OK

Track 19

Filename D:\#EAC new\#wav+flac\VA - Funiculi Funicula - Amore\cd 1\19. Lawrence Welk - Cherie, I Love You.wav

Pre-gap length 0:00:01.02

Peak level 98.3 %
Extraction speed 9.1 X
Track quality 100.0 %
Test CRC 2DEE8F64
Copy CRC 2DEE8F64
Accurately ripped (confidence 2) [6BF2E044] (AR v2)
Copy OK

Track 20

Filename D:\#EAC new\#wav+flac\VA - Funiculi Funicula - Amore\cd 1\20. Don Cornell - Play Some Music For Broken Hearts.wav

Pre-gap length 0:00:02.00

Peak level 98.8 %
Extraction speed 9.4 X
Track quality 100.0 %
Test CRC F12D9930
Copy CRC F12D9930
Accurately ripped (confidence 2) [FF03A06F] (AR v2)
Copy OK


All tracks accurately ripped

No errors occurred

End of status report

–– CUETools DB Plugin V2.1.6

[CTDB TOCID: b5CNBsAcdE0.XHbsE7bK6cBA7fA-] found
Submit result: b5CNBsAcdE0.XHbsE7bK6cBA7fA- has been confirmed
Track | CTDB Status
1 | (3/3) Accurately ripped
2 | (3/3) Accurately ripped
3 | (3/3) Accurately ripped
4 | (3/3) Accurately ripped
5 | (3/3) Accurately ripped
6 | (3/3) Accurately ripped
7 | (3/3) Accurately ripped
8 | (3/3) Accurately ripped
9 | (3/3) Accurately ripped
10 | (3/3) Accurately ripped
11 | (3/3) Accurately ripped
12 | (3/3) Accurately ripped
13 | (3/3) Accurately ripped
14 | (3/3) Accurately ripped
15 | (3/3) Accurately ripped
16 | (3/3) Accurately ripped
17 | (3/3) Accurately ripped
18 | (3/3) Accurately ripped
19 | (3/3) Accurately ripped
20 | (3/3) Accurately ripped


==== Log checksum FA9AECF413F075809E768E147A5B040729B4AE3D9FFB7422FF20D45DD93C2D09 ====

Exact Audio Copy V1.3 from 2. September 2016

EAC extraction logfile from 15. November 2019, 7:01

Various Artists / Funiculi Funicula - Amore

Used drive : PLEXTOR PX-891SAF Adapter: 1 ID: 0

Read mode : Secure
Utilize accurate stream : Yes
Defeat audio cache : Yes
Make use of C2 pointers : No

Read offset correction : 6
Overread into Lead-In and Lead-Out : No
Fill up missing offset samples with silence : Yes
Delete leading and trailing silent blocks : No
Null samples used in CRC calculations : Yes
Used interface : Native Win32 interface for Win NT & 2000
Gap handling : Appended to previous track

Used output format : User Defined Encoder
Selected bitrate : 1024 kBit/s
Quality : High
Add ID3 tag : No
Command line compressor : C:\Program Files (x86)\Exact Audio Copy\Flac\flac.exe
Additional command line options : -8 -V -T "ARTIST=%artist%" -T "TITLE=%title%" -T "ALBUM=%albumtitle%" -T "DATE=%year%" -T "TRACKNUMBER=%tracknr%" -T "GENRE=%genre%" -T "PERFORMER=%albuminterpret%" -T "COMPOSER=%composer%" %haslyrics%–tag-from-file=LYRICS="%lyricsfile%"%haslyrics% -T "ALBUMARTIST=%albumartist%" -T "DISCNUMBER=%cdnumber%" -T "TOTALDISCS=%totalcds%" -T "TOTALTRACKS=%numtracks%" -T "COMMENT=%comment%" %source% -o %dest%


TOC of the extracted CD

Track | Start | Length | Start sector | End sector
––––––––––––––––––––––––––––-
1 | 0:00.00 | 3:27.29 | 0 | 15553
2 | 3:27.29 | 4:26.14 | 15554 | 35517
3 | 7:53.43 | 3:40.61 | 35518 | 52078
4 | 11:34.29 | 3:40.42 | 52079 | 68620
5 | 15:14.71 | 2:45.16 | 68621 | 81011
6 | 18:00.12 | 5:21.61 | 81012 | 105147
7 | 23:21.73 | 2:55.55 | 105148 | 118327
8 | 26:17.53 | 4:05.34 | 118328 | 136736
9 | 30:23.12 | 2:55.66 | 136737 | 149927
10 | 33:19.03 | 3:35.07 | 149928 | 166059
11 | 36:54.10 | 2:45.57 | 166060 | 178491
12 | 39:39.67 | 2:46.34 | 178492 | 190975
13 | 42:26.26 | 2:32.43 | 190976 | 202418
14 | 44:58.69 | 3:14.50 | 202419 | 217018
15 | 48:13.44 | 4:22.33 | 217019 | 236701
16 | 52:36.02 | 2:49.16 | 236702 | 249392
17 | 55:25.18 | 3:16.56 | 249393 | 264148
18 | 58:41.74 | 2:34.70 | 264149 | 275768
19 | 61:16.69 | 2:34.46 | 275769 | 287364
20 | 63:51.40 | 2:47.70 | 287365 | 299959


Track 1

Filename D:\#EAC new\#wav+flac\VA - Funiculi Funicula - Amore\cd 2\01. André Rieu & Johann Strauss Orchestra - Romance.wav

Pre-gap length 0:00:02.00

Peak level 85.1 %
Extraction speed 5.3 X
Track quality 100.0 %
Test CRC 013B1CAD
Copy CRC 013B1CAD
Accurately ripped (confidence 2) [DE834E1D] (AR v2)
Copy OK

Track 2

Filename D:\#EAC new\#wav+flac\VA - Funiculi Funicula - Amore\cd 2\02. Marcelo Álvarez & Salvatore Licitra - Solo Amore.wav

Peak level 97.1 %
Extraction speed 6.0 X
Track quality 100.0 %
Test CRC 10535D77
Copy CRC 10535D77
Accurately ripped (confidence 2) [8AB0CE1C] (AR v2)
Copy OK

Track 3

Filename D:\#EAC new\#wav+flac\VA - Funiculi Funicula - Amore\cd 2\03. Tony Bennett - The Shadow Of Your Smile.wav

Pre-gap length 0:00:01.30

Peak level 98.5 %
Extraction speed 6.2 X
Track quality 100.0 %
Test CRC 341D375D
Copy CRC 341D375D
Accurately ripped (confidence 2) [DFAAFCFF] (AR v2)
Copy OK

Track 4

Filename D:\#EAC new\#wav+flac\VA - Funiculi Funicula - Amore\cd 2\04. Scott Walker - I Will Wait For You.wav

Pre-gap length 0:00:01.58

Peak level 95.8 %
Extraction speed 6.8 X
Track quality 100.0 %
Test CRC 2D2B21B5
Copy CRC 2D2B21B5
Accurately ripped (confidence 2) [B413C79E] (AR v2)
Copy OK

Track 5

Filename D:\#EAC new\#wav+flac\VA - Funiculi Funicula - Amore\cd 2\05. Frida Boccara - Canzone Di Un Amore Perduto.wav

Peak level 91.9 %
Extraction speed 6.8 X
Track quality 100.0 %
Test CRC 7A4A954B
Copy CRC 7A4A954B
Accurately ripped (confidence 2) [2F3DDAD4] (AR v2)
Copy OK

Track 6

Filename D:\#EAC new\#wav+flac\VA - Funiculi Funicula - Amore\cd 2\06. Coleman Hawkins & Ben Webster - Tangerine.wav

Pre-gap length 0:00:01.69

Peak level 98.8 %
Extraction speed 7.7 X
Track quality 100.0 %
Test CRC 6EBA0F97
Copy CRC 6EBA0F97
Accurately ripped (confidence 2) [750F7B87] (AR v2)
Copy OK

Track 7

Filename D:\#EAC new\#wav+flac\VA - Funiculi Funicula - Amore\cd 2\07. John Gary - I'll Remember Her.wav

Peak level 98.6 %
Extraction speed 7.5 X
Track quality 100.0 %
Test CRC 3D4663FB
Copy CRC 3D4663FB
Accurately ripped (confidence 2) [F5D1D854] (AR v2)
Copy OK

Track 8

Filename D:\#EAC new\#wav+flac\VA - Funiculi Funicula - Amore\cd 2\08. Jack Jones - I Wish You Love.wav

Pre-gap length 0:00:01.30

Peak level 98.7 %
Extraction speed 8.2 X
Track quality 100.0 %
Test CRC FFA94BBE
Copy CRC FFA94BBE
Accurately ripped (confidence 2) [086475BC] (AR v2)
Copy OK

Track 9

Filename D:\#EAC new\#wav+flac\VA - Funiculi Funicula - Amore\cd 2\09. The Everly Brothers - Autumn Leaves.wav

Pre-gap length 0:00:01.18

Peak level 96.1 %
Extraction speed 8.0 X
Track quality 100.0 %
Test CRC 94603C1A
Copy CRC 94603C1A
Accurately ripped (confidence 2) [6E786584] (AR v2)
Copy OK

Track 10

Filename D:\#EAC new\#wav+flac\VA - Funiculi Funicula - Amore\cd 2\10. Adam Wade - Tenderly.wav

Peak level 95.2 %
Extraction speed 7.0 X
Track quality 99.9 %
Test CRC E2B7226C
Copy CRC E2B7226C
Accurately ripped (confidence 2) [86ACD6EE] (AR v2)
Copy OK

Track 11

Filename D:\#EAC new\#wav+flac\VA - Funiculi Funicula - Amore\cd 2\11. Teddy Johnson - Mandolin Serenade.wav

Pre-gap length 0:00:01.18

Peak level 89.9 %
Extraction speed 8.6 X
Track quality 100.0 %
Test CRC 045777AB
Copy CRC 045777AB
Accurately ripped (confidence 2) [D671E5E4] (AR v2)
Copy OK

Track 12

Filename D:\#EAC new\#wav+flac\VA - Funiculi Funicula - Amore\cd 2\12. Acker Bilk - La Paloma.wav

Pre-gap length 0:00:01.05

Peak level 92.7 %
Extraction speed 8.6 X
Track quality 100.0 %
Test CRC 41EBFFC1
Copy CRC 41EBFFC1
Accurately ripped (confidence 2) [5E43ED13] (AR v2)
Copy OK

Track 13

Filename D:\#EAC new\#wav+flac\VA - Funiculi Funicula - Amore\cd 2\13. Bing Crosby - Domenica.wav

Peak level 93.3 %
Extraction speed 8.7 X
Track quality 100.0 %
Test CRC 05BD3707
Copy CRC 05BD3707
Accurately ripped (confidence 2) [EE86943F] (AR v2)
Copy OK

Track 14

Filename D:\#EAC new\#wav+flac\VA - Funiculi Funicula - Amore\cd 2\14. Los Montejo - No Te Importe Saber.wav

Peak level 98.8 %
Extraction speed 9.2 X
Track quality 100.0 %
Test CRC 6472C57D
Copy CRC 6472C57D
Accurately ripped (confidence 2) [40161155] (AR v2)
Copy OK

Track 15

Filename D:\#EAC new\#wav+flac\VA - Funiculi Funicula - Amore\cd 2\15. Kenny G - Sabor A Mi.wav

Pre-gap length 0:00:01.50

Peak level 78.6 %
Extraction speed 9.8 X
Track quality 100.0 %
Test CRC 571B39DE
Copy CRC 571B39DE
Accurately ripped (confidence 2) [811AE1FC] (AR v2)
Copy OK

Track 16

Filename D:\#EAC new\#wav+flac\VA - Funiculi Funicula - Amore\cd 2\16. Luca Barbarossa - Fine Di Un Amore.wav

Pre-gap length 0:00:01.10

Peak level 95.3 %
Extraction speed 9.5 X
Track quality 100.0 %
Test CRC 0C68487D
Copy CRC 0C68487D
Accurately ripped (confidence 2) [BEF7D06C] (AR v2)
Copy OK

Track 17

Filename D:\#EAC new\#wav+flac\VA - Funiculi Funicula - Amore\cd 2\17. Alma Cogan - I'm In The Mood For Love.wav

Peak level 98.5 %
Extraction speed 9.8 X
Track quality 100.0 %
Test CRC D33CE8E9
Copy CRC D33CE8E9
Accurately ripped (confidence 2) [B75848A3] (AR v2)
Copy OK

Track 18

Filename D:\#EAC new\#wav+flac\VA - Funiculi Funicula - Amore\cd 2\18. Danny Williams - What Kind Of Fool Am I.wav

Peak level 98.8 %
Extraction speed 9.7 X
Track quality 100.0 %
Test CRC 6C18A1AB
Copy CRC 6C18A1AB
Accurately ripped (confidence 2) [C87F3842] (AR v2)
Copy OK

Track 19

Filename D:\#EAC new\#wav+flac\VA - Funiculi Funicula - Amore\cd 2\19. Ken Dodd - Romantica.wav

Pre-gap length 0:00:01.02

Peak level 96.8 %
Extraction speed 9.8 X
Track quality 100.0 %
Test CRC AD4C661E
Copy CRC AD4C661E
Accurately ripped (confidence 2) [8D74E848] (AR v2)
Copy OK

Track 20

Filename D:\#EAC new\#wav+flac\VA - Funiculi Funicula - Amore\cd 2\20. Frank Chacksfield & His Orchestra - A Woman In Love.wav

Pre-gap length 0:00:01.06

Peak level 98.5 %
Extraction speed 9.9 X
Track quality 100.0 %
Test CRC AF4DC1A7
Copy CRC AF4DC1A7
Accurately ripped (confidence 2) [02B2B7B9] (AR v2)
Copy OK


All tracks accurately ripped

No errors occurred

End of status report

–– CUETools DB Plugin V2.1.6

[CTDB TOCID: WvlsWtyMc3s4w8CaR_E8q7tVJnw-] disk not present in database
Submit result: WvlsWtyMc3s4w8CaR_E8q7tVJnw- has been uploaded


==== Log checksum 09FE3EE472B30A692634C61CDBCB8B6411621E5391528FE65D5126335AB53B7E ====

––––––––––––––––––––––––––––––

Exact Audio Copy V1.3 from 2. September 2016

EAC extraction logfile from 15. November 2019, 7:01

Various Artists / Funiculi Funicula - Amore

Used drive : PLEXTOR PX-891SAF Adapter: 1 ID: 0

Read mode : Secure
Utilize accurate stream : Yes
Defeat audio cache : Yes
Make use of C2 pointers : No

Read offset correction : 6
Overread into Lead-In and Lead-Out : No
Fill up missing offset samples with silence : Yes
Delete leading and trailing silent blocks : No
Null samples used in CRC calculations : Yes
Used interface : Native Win32 interface for Win NT & 2000
Gap handling : Appended to previous track

Used output format : User Defined Encoder
Selected bitrate : 1024 kBit/s
Quality : High
Add ID3 tag : No
Command line compressor : C:\Program Files (x86)\Exact Audio Copy\Flac\flac.exe
Additional command line options : -8 -V -T "ARTIST=%artist%" -T "TITLE=%title%" -T "ALBUM=%albumtitle%" -T "DATE=%year%" -T "TRACKNUMBER=%tracknr%" -T "GENRE=%genre%" -T "PERFORMER=%albuminterpret%" -T "COMPOSER=%composer%" %haslyrics%–tag-from-file=LYRICS="%lyricsfile%"%haslyrics% -T "ALBUMARTIST=%albumartist%" -T "DISCNUMBER=%cdnumber%" -T "TOTALDISCS=%totalcds%" -T "TOTALTRACKS=%numtracks%" -T "COMMENT=%comment%" %source% -o %dest%


TOC of the extracted CD

Track | Start | Length | Start sector | End sector
––––––––––––––––––––––––––––-
1 | 0:00.00 | 3:27.29 | 0 | 15553
2 | 3:27.29 | 4:26.14 | 15554 | 35517
3 | 7:53.43 | 3:40.61 | 35518 | 52078
4 | 11:34.29 | 3:40.42 | 52079 | 68620
5 | 15:14.71 | 2:45.16 | 68621 | 81011
6 | 18:00.12 | 5:21.61 | 81012 | 105147
7 | 23:21.73 | 2:55.55 | 105148 | 118327
8 | 26:17.53 | 4:05.34 | 118328 | 136736
9 | 30:23.12 | 2:55.66 | 136737 | 149927
10 | 33:19.03 | 3:35.07 | 149928 | 166059
11 | 36:54.10 | 2:45.57 | 166060 | 178491
12 | 39:39.67 | 2:46.34 | 178492 | 190975
13 | 42:26.26 | 2:32.43 | 190976 | 202418
14 | 44:58.69 | 3:14.50 | 202419 | 217018
15 | 48:13.44 | 4:22.33 | 217019 | 236701
16 | 52:36.02 | 2:49.16 | 236702 | 249392
17 | 55:25.18 | 3:16.56 | 249393 | 264148
18 | 58:41.74 | 2:34.70 | 264149 | 275768
19 | 61:16.69 | 2:34.46 | 275769 | 287364
20 | 63:51.40 | 2:47.70 | 287365 | 299959


Track 1

Filename D:\#EAC new\#wav+flac\VA - Funiculi Funicula - Amore\cd 2\01. André Rieu & Johann Strauss Orchestra - Romance.wav

Pre-gap length 0:00:02.00

Peak level 85.1 %
Extraction speed 5.3 X
Track quality 100.0 %
Test CRC 013B1CAD
Copy CRC 013B1CAD
Accurately ripped (confidence 2) [DE834E1D] (AR v2)
Copy OK

Track 2

Filename D:\#EAC new\#wav+flac\VA - Funiculi Funicula - Amore\cd 2\02. Marcelo Álvarez & Salvatore Licitra - Solo Amore.wav

Peak level 97.1 %
Extraction speed 6.0 X
Track quality 100.0 %
Test CRC 10535D77
Copy CRC 10535D77
Accurately ripped (confidence 2) [8AB0CE1C] (AR v2)
Copy OK

Track 3

Filename D:\#EAC new\#wav+flac\VA - Funiculi Funicula - Amore\cd 2\03. Tony Bennett - The Shadow Of Your Smile.wav

Pre-gap length 0:00:01.30

Peak level 98.5 %
Extraction speed 6.2 X
Track quality 100.0 %
Test CRC 341D375D
Copy CRC 341D375D
Accurately ripped (confidence 2) [DFAAFCFF] (AR v2)
Copy OK

Track 4

Filename D:\#EAC new\#wav+flac\VA - Funiculi Funicula - Amore\cd 2\04. Scott Walker - I Will Wait For You.wav

Pre-gap length 0:00:01.58

Peak level 95.8 %
Extraction speed 6.8 X
Track quality 100.0 %
Test CRC 2D2B21B5
Copy CRC 2D2B21B5
Accurately ripped (confidence 2) [B413C79E] (AR v2)
Copy OK

Track 5

Filename D:\#EAC new\#wav+flac\VA - Funiculi Funicula - Amore\cd 2\05. Frida Boccara - Canzone Di Un Amore Perduto.wav

Peak level 91.9 %
Extraction speed 6.8 X
Track quality 100.0 %
Test CRC 7A4A954B
Copy CRC 7A4A954B
Accurately ripped (confidence 2) [2F3DDAD4] (AR v2)
Copy OK

Track 6

Filename D:\#EAC new\#wav+flac\VA - Funiculi Funicula - Amore\cd 2\06. Coleman Hawkins & Ben Webster - Tangerine.wav

Pre-gap length 0:00:01.69

Peak level 98.8 %
Extraction speed 7.7 X
Track quality 100.0 %
Test CRC 6EBA0F97
Copy CRC 6EBA0F97
Accurately ripped (confidence 2) [750F7B87] (AR v2)
Copy OK

Track 7

Filename D:\#EAC new\#wav+flac\VA - Funiculi Funicula - Amore\cd 2\07. John Gary - I'll Remember Her.wav

Peak level 98.6 %
Extraction speed 7.5 X
Track quality 100.0 %
Test CRC 3D4663FB
Copy CRC 3D4663FB
Accurately ripped (confidence 2) [F5D1D854] (AR v2)
Copy OK

Track 8

Filename D:\#EAC new\#wav+flac\VA - Funiculi Funicula - Amore\cd 2\08. Jack Jones - I Wish You Love.wav

Pre-gap length 0:00:01.30

Peak level 98.7 %
Extraction speed 8.2 X
Track quality 100.0 %
Test CRC FFA94BBE
Copy CRC FFA94BBE
Accurately ripped (confidence 2) [086475BC] (AR v2)
Copy OK

Track 9

Filename D:\#EAC new\#wav+flac\VA - Funiculi Funicula - Amore\cd 2\09. The Everly Brothers - Autumn Leaves.wav

Pre-gap length 0:00:01.18

Peak level 96.1 %
Extraction speed 8.0 X
Track quality 100.0 %
Test CRC 94603C1A
Copy CRC 94603C1A
Accurately ripped (confidence 2) [6E786584] (AR v2)
Copy OK

Track 10

Filename D:\#EAC new\#wav+flac\VA - Funiculi Funicula - Amore\cd 2\10. Adam Wade - Tenderly.wav

Peak level 95.2 %
Extraction speed 7.0 X
Track quality 99.9 %
Test CRC E2B7226C
Copy CRC E2B7226C
Accurately ripped (confidence 2) [86ACD6EE] (AR v2)
Copy OK

Track 11

Filename D:\#EAC new\#wav+flac\VA - Funiculi Funicula - Amore\cd 2\11. Teddy Johnson - Mandolin Serenade.wav

Pre-gap length 0:00:01.18

Peak level 89.9 %
Extraction speed 8.6 X
Track quality 100.0 %
Test CRC 045777AB
Copy CRC 045777AB
Accurately ripped (confidence 2) [D671E5E4] (AR v2)
Copy OK

Track 12

Filename D:\#EAC new\#wav+flac\VA - Funiculi Funicula - Amore\cd 2\12. Acker Bilk - La Paloma.wav

Pre-gap length 0:00:01.05

Peak level 92.7 %
Extraction speed 8.6 X
Track quality 100.0 %
Test CRC 41EBFFC1
Copy CRC 41EBFFC1
Accurately ripped (confidence 2) [5E43ED13] (AR v2)
Copy OK

Track 13

Filename D:\#EAC new\#wav+flac\VA - Funiculi Funicula - Amore\cd 2\13. Bing Crosby - Domenica.wav

Peak level 93.3 %
Extraction speed 8.7 X
Track quality 100.0 %
Test CRC 05BD3707
Copy CRC 05BD3707
Accurately ripped (confidence 2) [EE86943F] (AR v2)
Copy OK

Track 14

Filename D:\#EAC new\#wav+flac\VA - Funiculi Funicula - Amore\cd 2\14. Los Montejo - No Te Importe Saber.wav

Peak level 98.8 %
Extraction speed 9.2 X
Track quality 100.0 %
Test CRC 6472C57D
Copy CRC 6472C57D
Accurately ripped (confidence 2) [40161155] (AR v2)
Copy OK

Track 15

Filename D:\#EAC new\#wav+flac\VA - Funiculi Funicula - Amore\cd 2\15. Kenny G - Sabor A Mi.wav

Pre-gap length 0:00:01.50

Peak level 78.6 %
Extraction speed 9.8 X
Track quality 100.0 %
Test CRC 571B39DE
Copy CRC 571B39DE
Accurately ripped (confidence 2) [811AE1FC] (AR v2)
Copy OK

Track 16

Filename D:\#EAC new\#wav+flac\VA - Funiculi Funicula - Amore\cd 2\16. Luca Barbarossa - Fine Di Un Amore.wav

Pre-gap length 0:00:01.10

Peak level 95.3 %
Extraction speed 9.5 X
Track quality 100.0 %
Test CRC 0C68487D
Copy CRC 0C68487D
Accurately ripped (confidence 2) [BEF7D06C] (AR v2)
Copy OK

Track 17

Filename D:\#EAC new\#wav+flac\VA - Funiculi Funicula - Amore\cd 2\17. Alma Cogan - I'm In The Mood For Love.wav

Peak level 98.5 %
Extraction speed 9.8 X
Track quality 100.0 %
Test CRC D33CE8E9
Copy CRC D33CE8E9
Accurately ripped (confidence 2) [B75848A3] (AR v2)
Copy OK

Track 18

Filename D:\#EAC new\#wav+flac\VA - Funiculi Funicula - Amore\cd 2\18. Danny Williams - What Kind Of Fool Am I.wav

Peak level 98.8 %
Extraction speed 9.7 X
Track quality 100.0 %
Test CRC 6C18A1AB
Copy CRC 6C18A1AB
Accurately ripped (confidence 2) [C87F3842] (AR v2)
Copy OK

Track 19

Filename D:\#EAC new\#wav+flac\VA - Funiculi Funicula - Amore\cd 2\19. Ken Dodd - Romantica.wav

Pre-gap length 0:00:01.02

Peak level 96.8 %
Extraction speed 9.8 X
Track quality 100.0 %
Test CRC AD4C661E
Copy CRC AD4C661E
Accurately ripped (confidence 2) [8D74E848] (AR v2)
Copy OK

Track 20

Filename D:\#EAC new\#wav+flac\VA - Funiculi Funicula - Amore\cd 2\20. Frank Chacksfield & His Orchestra - A Woman In Love.wav

Pre-gap length 0:00:01.06

Peak level 98.5 %
Extraction speed 9.9 X
Track quality 100.0 %
Test CRC AF4DC1A7
Copy CRC AF4DC1A7
Accurately ripped (confidence 2) [02B2B7B9] (AR v2)
Copy OK


All tracks accurately ripped

No errors occurred

End of status report

–– CUETools DB Plugin V2.1.6

[CTDB TOCID: WvlsWtyMc3s4w8CaR_E8q7tVJnw-] disk not present in database
Submit result: WvlsWtyMc3s4w8CaR_E8q7tVJnw- has been uploaded


==== Log checksum 09FE3EE472B30A692634C61CDBCB8B6411621E5391528FE65D5126335AB53B7E ====

Exact Audio Copy V1.3 from 2. September 2016

EAC extraction logfile from 15. November 2019, 7:22

Various Artists / Funiculi Funicula - Amore

Used drive : PLEXTOR PX-891SAF Adapter: 1 ID: 0

Read mode : Secure
Utilize accurate stream : Yes
Defeat audio cache : Yes
Make use of C2 pointers : No

Read offset correction : 6
Overread into Lead-In and Lead-Out : No
Fill up missing offset samples with silence : Yes
Delete leading and trailing silent blocks : No
Null samples used in CRC calculations : Yes
Used interface : Native Win32 interface for Win NT & 2000
Gap handling : Appended to previous track

Used output format : User Defined Encoder
Selected bitrate : 1024 kBit/s
Quality : High
Add ID3 tag : No
Command line compressor : C:\Program Files (x86)\Exact Audio Copy\Flac\flac.exe
Additional command line options : -8 -V -T "ARTIST=%artist%" -T "TITLE=%title%" -T "ALBUM=%albumtitle%" -T "DATE=%year%" -T "TRACKNUMBER=%tracknr%" -T "GENRE=%genre%" -T "PERFORMER=%albuminterpret%" -T "COMPOSER=%composer%" %haslyrics%–tag-from-file=LYRICS="%lyricsfile%"%haslyrics% -T "ALBUMARTIST=%albumartist%" -T "DISCNUMBER=%cdnumber%" -T "TOTALDISCS=%totalcds%" -T "TOTALTRACKS=%numtracks%" -T "COMMENT=%comment%" %source% -o %dest%


TOC of the extracted CD

Track | Start | Length | Start sector | End sector
––––––––––––––––––––––––––––-
1 | 0:00.00 | 4:25.30 | 0 | 19904
2 | 4:25.30 | 2:50.15 | 19905 | 32669
3 | 7:15.45 | 4:27.26 | 32670 | 52720
4 | 11:42.71 | 3:23.66 | 52721 | 68011
5 | 15:06.62 | 3:21.09 | 68012 | 83095
6 | 18:27.71 | 4:20.74 | 83096 | 102669
7 | 22:48.70 | 4:21.73 | 102670 | 122317
8 | 27:10.68 | 3:00.21 | 122318 | 135838
9 | 30:11.14 | 3:13.24 | 135839 | 150337
10 | 33:24.38 | 3:07.54 | 150338 | 164416
11 | 36:32.17 | 2:13.63 | 164417 | 174454
12 | 38:46.05 | 2:55.39 | 174455 | 187618
13 | 41:41.44 | 2:45.36 | 187619 | 200029
14 | 44:27.05 | 4:20.08 | 200030 | 219537
15 | 48:47.13 | 2:51.30 | 219538 | 232392
16 | 51:38.43 | 2:34.25 | 232393 | 243967
17 | 54:12.68 | 2:40.68 | 243968 | 256035
18 | 56:53.61 | 2:24.72 | 256036 | 266907
19 | 59:18.58 | 2:44.38 | 266908 | 279245
20 | 62:03.21 | 2:21.59 | 279246 | 289879


Track 1

Filename D:\#EAC new\#wav+flac\VA - Funiculi Funicula - Amore\cd 3\01. Marco Borsato - Kom Maar Bij Mij.wav

Pre-gap length 0:00:02.00

Peak level 82.0 %
Extraction speed 5.4 X
Track quality 100.0 %
Test CRC 96827256
Copy CRC 96827256
Accurately ripped (confidence 2) [AD6C7E70] (AR v2)
Copy OK

Track 2

Filename D:\#EAC new\#wav+flac\VA - Funiculi Funicula - Amore\cd 3\02. Elvis Presley - That's Someone You Never Forget.wav

Pre-gap length 0:00:01.26

Peak level 96.1 %
Extraction speed 5.6 X
Track quality 100.0 %
Test CRC 81685761
Copy CRC 81685761
Accurately ripped (confidence 2) [3C9849B2] (AR v2)
Copy OK

Track 3

Filename D:\#EAC new\#wav+flac\VA - Funiculi Funicula - Amore\cd 3\03. John Denver - My Sweet Lady.wav

Pre-gap length 0:00:01.58

Peak level 97.7 %
Extraction speed 6.4 X
Track quality 100.0 %
Test CRC 3BD7EB34
Copy CRC 3BD7EB34
Accurately ripped (confidence 2) [F730B865] (AR v2)
Copy OK

Track 4

Filename D:\#EAC new\#wav+flac\VA - Funiculi Funicula - Amore\cd 3\04. Nana Mouskouri - Romance De Maitre Pathelin.wav

Peak level 98.8 %
Extraction speed 6.6 X
Track quality 100.0 %
Test CRC 2E051A80
Copy CRC 2E051A80
Accurately ripped (confidence 2) [F2A04DE5] (AR v2)
Copy OK

Track 5

Filename D:\#EAC new\#wav+flac\VA - Funiculi Funicula - Amore\cd 3\05. Perry Como - Love Don't Care.wav

Peak level 98.4 %
Extraction speed 6.9 X
Track quality 100.0 %
Test CRC 0C7FD49F
Copy CRC 0C7FD49F
Accurately ripped (confidence 2) [0C893C77] (AR v2)
Copy OK

Track 6

Filename D:\#EAC new\#wav+flac\VA - Funiculi Funicula - Amore\cd 3\06. James Last - Games That Lovers Play.wav

Pre-gap length 0:00:02.66

Peak level 98.7 %
Extraction speed 7.6 X
Track quality 100.0 %
Test CRC 501B8E1D
Copy CRC 501B8E1D
Accurately ripped (confidence 2) [D4715F79] (AR v2)
Copy OK

Track 7

Filename D:\#EAC new\#wav+flac\VA - Funiculi Funicula - Amore\cd 3\07. Shirley Bassey - There Will Never Be Another You.wav

Peak level 98.6 %
Extraction speed 7.9 X
Track quality 100.0 %
Test CRC 9DB58478
Copy CRC 9DB58478
Accurately ripped (confidence 2) [3EF88101] (AR v2)
Copy OK

Track 8

Filename D:\#EAC new\#wav+flac\VA - Funiculi Funicula - Amore\cd 3\08. Doris Day - I'll Never Smile Again.wav

Pre-gap length 0:00:01.42

Peak level 87.3 %
Extraction speed 6.1 X
Track quality 99.9 %
Test CRC 84DDBE64
Copy CRC 84DDBE64
Accurately ripped (confidence 2) [B08DBD89] (AR v2)
Copy OK

Track 9

Filename D:\#EAC new\#wav+flac\VA - Funiculi Funicula - Amore\cd 3\09. Jerry Vale - Paradise.wav

Pre-gap length 0:00:01.38

Peak level 82.1 %
Extraction speed 8.2 X
Track quality 100.0 %
Test CRC BCA864E0
Copy CRC BCA864E0
Accurately ripped (confidence 2) [8C55CF3C] (AR v2)
Copy OK

Track 10

Filename D:\#EAC new\#wav+flac\VA - Funiculi Funicula - Amore\cd 3\10. Manuel & The Music Of The Mountains - Fools Rush In.wav

Peak level 98.5 %
Extraction speed 8.4 X
Track quality 100.0 %
Test CRC 5F4D2D53
Copy CRC 5F4D2D53
Accurately ripped (confidence 2) [33CED1B5] (AR v2)
Copy OK

Track 11

Filename D:\#EAC new\#wav+flac\VA - Funiculi Funicula - Amore\cd 3\11. Vic Damone - Save A Kiss.wav

Pre-gap length 0:00:01.66

Peak level 90.2 %
Extraction speed 8.0 X
Track quality 100.0 %
Test CRC 9748329B
Copy CRC 9748329B
Accurately ripped (confidence 2) [6B2F732F] (AR v2)
Copy OK

Track 12

Filename D:\#EAC new\#wav+flac\VA - Funiculi Funicula - Amore\cd 3\12. Al Martino - You Always Hurt The One You Love.wav

Pre-gap length 0:00:02.42

Peak level 98.6 %
Extraction speed 8.9 X
Track quality 100.0 %
Test CRC 91F6BE2E
Copy CRC 91F6BE2E
Accurately ripped (confidence 1) [2F9DA433] (AR v2)
Copy OK

Track 13

Filename D:\#EAC new\#wav+flac\VA - Funiculi Funicula - Amore\cd 3\13. Brook Benton - Cold, Cold Heart.wav

Pre-gap length 0:00:01.26

Peak level 98.8 %
Extraction speed 9.0 X
Track quality 100.0 %
Test CRC B99F3F7C
Copy CRC B99F3F7C
Accurately ripped (confidence 1) [AB4E43FA] (AR v2)
Copy OK

Track 14

Filename D:\#EAC new\#wav+flac\VA - Funiculi Funicula - Amore\cd 3\14. Roland Cedermark - I Can't Stop Loving You.wav

Pre-gap length 0:00:01.81

Peak level 98.8 %
Extraction speed 9.6 X
Track quality 100.0 %
Test CRC E39E0214
Copy CRC E39E0214
Accurately ripped (confidence 1) [EE714D7E] (AR v2)
Copy OK

Track 15

Filename D:\#EAC new\#wav+flac\VA - Funiculi Funicula - Amore\cd 3\15. Dean Martin - Be An Angel.wav

Pre-gap length 0:00:02.26

Peak level 98.6 %
Extraction speed 9.4 X
Track quality 100.0 %
Test CRC FE613334
Copy CRC FE613334
Accurately ripped (confidence 2) [69D301F3] (AR v2)
Copy OK

Track 16

Filename D:\#EAC new\#wav+flac\VA - Funiculi Funicula - Amore\cd 3\16. Enzo Stuarti - What Now My Love.wav

Pre-gap length 0:00:01.06

Peak level 75.7 %
Extraction speed 6.9 X
Track quality 99.9 %
Test CRC 0114BF89
Copy CRC 0114BF89
Accurately ripped (confidence 2) [345B7ED1] (AR v2)
Copy OK

Track 17

Filename D:\#EAC new\#wav+flac\VA - Funiculi Funicula - Amore\cd 3\17. Harry Nilsson - I Wonder Who's Kissing Her Now.wav

Pre-gap length 0:00:01.38

Peak level 98.6 %
Extraction speed 9.4 X
Track quality 100.0 %
Test CRC BF2A30B3
Copy CRC BF2A30B3
Accurately ripped (confidence 2) [B6AE4153] (AR v2)
Copy OK

Track 18

Filename D:\#EAC new\#wav+flac\VA - Funiculi Funicula - Amore\cd 3\18. Sarah Vaughan - Eternally.wav

Pre-gap length 0:00:01.58

Peak level 87.7 %
Extraction speed 9.4 X
Track quality 100.0 %
Test CRC 746D1547
Copy CRC 746D1547
Accurately ripped (confidence 2) [C6827601] (AR v2)
Copy OK

Track 19

Filename D:\#EAC new\#wav+flac\VA - Funiculi Funicula - Amore\cd 3\19. Timi Yuro - Smile.wav

Pre-gap length 0:00:01.38

Peak level 89.7 %
Extraction speed 9.7 X
Track quality 100.0 %
Test CRC DD632A8A
Copy CRC DD632A8A
Accurately ripped (confidence 2) [16ED2ECC] (AR v2)
Copy OK

Track 20

Filename D:\#EAC new\#wav+flac\VA - Funiculi Funicula - Amore\cd 3\20. Stanley Black & His Orchestra - Melody Of Love.wav

Pre-gap length 0:00:01.06

Peak level 85.5 %
Extraction speed 6.8 X
Track quality 99.9 %
Test CRC 75FE5303
Copy CRC 75FE5303
Accurately ripped (confidence 2) [B23F9299] (AR v2)
Copy OK


All tracks accurately ripped

No errors occurred

End of status report

–– CUETools DB Plugin V2.1.6

[CTDB TOCID: lrO5It_Q1cgqHYRZkO2WskVV4nc-] found
Submit result: lrO5It_Q1cgqHYRZkO2WskVV4nc- has been confirmed
Track | CTDB Status
1 | (3/3) Accurately ripped
2 | (3/3) Accurately ripped
3 | (3/3) Accurately ripped
4 | (3/3) Accurately ripped
5 | (3/3) Accurately ripped
6 | (3/3) Accurately ripped
7 | (3/3) Accurately ripped
8 | (3/3) Accurately ripped
9 | (3/3) Accurately ripped
10 | (3/3) Accurately ripped
11 | (3/3) Accurately ripped
12 | (3/3) Accurately ripped
13 | (3/3) Accurately ripped
14 | (3/3) Accurately ripped
15 | (3/3) Accurately ripped
16 | (3/3) Accurately ripped
17 | (3/3) Accurately ripped
18 | (3/3) Accurately ripped
19 | (3/3) Accurately ripped
20 | (3/3) Accurately ripped


==== Log checksum D0A754FAE21273CC1B3D83945A2EE8D30435B0FD41BE01C86E49E3EEC606FB45 ====

––––––––––––––––––––––––––––––

Exact Audio Copy V1.3 from 2. September 2016

EAC extraction logfile from 15. November 2019, 7:22

Various Artists / Funiculi Funicula - Amore

Used drive : PLEXTOR PX-891SAF Adapter: 1 ID: 0

Read mode : Secure
Utilize accurate stream : Yes
Defeat audio cache : Yes
Make use of C2 pointers : No

Read offset correction : 6
Overread into Lead-In and Lead-Out : No
Fill up missing offset samples with silence : Yes
Delete leading and trailing silent blocks : No
Null samples used in CRC calculations : Yes
Used interface : Native Win32 interface for Win NT & 2000
Gap handling : Appended to previous track

Used output format : User Defined Encoder
Selected bitrate : 1024 kBit/s
Quality : High
Add ID3 tag : No
Command line compressor : C:\Program Files (x86)\Exact Audio Copy\Flac\flac.exe
Additional command line options : -8 -V -T "ARTIST=%artist%" -T "TITLE=%title%" -T "ALBUM=%albumtitle%" -T "DATE=%year%" -T "TRACKNUMBER=%tracknr%" -T "GENRE=%genre%" -T "PERFORMER=%albuminterpret%" -T "COMPOSER=%composer%" %haslyrics%–tag-from-file=LYRICS="%lyricsfile%"%haslyrics% -T "ALBUMARTIST=%albumartist%" -T "DISCNUMBER=%cdnumber%" -T "TOTALDISCS=%totalcds%" -T "TOTALTRACKS=%numtracks%" -T "COMMENT=%comment%" %source% -o %dest%


TOC of the extracted CD

Track | Start | Length | Start sector | End sector
––––––––––––––––––––––––––––-
1 | 0:00.00 | 4:25.30 | 0 | 19904
2 | 4:25.30 | 2:50.15 | 19905 | 32669
3 | 7:15.45 | 4:27.26 | 32670 | 52720
4 | 11:42.71 | 3:23.66 | 52721 | 68011
5 | 15:06.62 | 3:21.09 | 68012 | 83095
6 | 18:27.71 | 4:20.74 | 83096 | 102669
7 | 22:48.70 | 4:21.73 | 102670 | 122317
8 | 27:10.68 | 3:00.21 | 122318 | 135838
9 | 30:11.14 | 3:13.24 | 135839 | 150337
10 | 33:24.38 | 3:07.54 | 150338 | 164416
11 | 36:32.17 | 2:13.63 | 164417 | 174454
12 | 38:46.05 | 2:55.39 | 174455 | 187618
13 | 41:41.44 | 2:45.36 | 187619 | 200029
14 | 44:27.05 | 4:20.08 | 200030 | 219537
15 | 48:47.13 | 2:51.30 | 219538 | 232392
16 | 51:38.43 | 2:34.25 | 232393 | 243967
17 | 54:12.68 | 2:40.68 | 243968 | 256035
18 | 56:53.61 | 2:24.72 | 256036 | 266907
19 | 59:18.58 | 2:44.38 | 266908 | 279245
20 | 62:03.21 | 2:21.59 | 279246 | 289879


Track 1

Filename D:\#EAC new\#wav+flac\VA - Funiculi Funicula - Amore\cd 3\01. Marco Borsato - Kom Maar Bij Mij.wav

Pre-gap length 0:00:02.00

Peak level 82.0 %
Extraction speed 5.4 X
Track quality 100.0 %
Test CRC 96827256
Copy CRC 96827256
Accurately ripped (confidence 2) [AD6C7E70] (AR v2)
Copy OK

Track 2

Filename D:\#EAC new\#wav+flac\VA - Funiculi Funicula - Amore\cd 3\02. Elvis Presley - That's Someone You Never Forget.wav

Pre-gap length 0:00:01.26

Peak level 96.1 %
Extraction speed 5.6 X
Track quality 100.0 %
Test CRC 81685761
Copy CRC 81685761
Accurately ripped (confidence 2) [3C9849B2] (AR v2)
Copy OK

Track 3

Filename D:\#EAC new\#wav+flac\VA - Funiculi Funicula - Amore\cd 3\03. John Denver - My Sweet Lady.wav

Pre-gap length 0:00:01.58

Peak level 97.7 %
Extraction speed 6.4 X
Track quality 100.0 %
Test CRC 3BD7EB34
Copy CRC 3BD7EB34
Accurately ripped (confidence 2) [F730B865] (AR v2)
Copy OK

Track 4

Filename D:\#EAC new\#wav+flac\VA - Funiculi Funicula - Amore\cd 3\04. Nana Mouskouri - Romance De Maitre Pathelin.wav

Peak level 98.8 %
Extraction speed 6.6 X
Track quality 100.0 %
Test CRC 2E051A80
Copy CRC 2E051A80
Accurately ripped (confidence 2) [F2A04DE5] (AR v2)
Copy OK

Track 5

Filename D:\#EAC new\#wav+flac\VA - Funiculi Funicula - Amore\cd 3\05. Perry Como - Love Don't Care.wav

Peak level 98.4 %
Extraction speed 6.9 X
Track quality 100.0 %
Test CRC 0C7FD49F
Copy CRC 0C7FD49F
Accurately ripped (confidence 2) [0C893C77] (AR v2)
Copy OK

Track 6

Filename D:\#EAC new\#wav+flac\VA - Funiculi Funicula - Amore\cd 3\06. James Last - Games That Lovers Play.wav

Pre-gap length 0:00:02.66

Peak level 98.7 %
Extraction speed 7.6 X
Track quality 100.0 %
Test CRC 501B8E1D
Copy CRC 501B8E1D
Accurately ripped (confidence 2) [D4715F79] (AR v2)
Copy OK

Track 7

Filename D:\#EAC new\#wav+flac\VA - Funiculi Funicula - Amore\cd 3\07. Shirley Bassey - There Will Never Be Another You.wav

Peak level 98.6 %
Extraction speed 7.9 X
Track quality 100.0 %
Test CRC 9DB58478
Copy CRC 9DB58478
Accurately ripped (confidence 2) [3EF88101] (AR v2)
Copy OK

Track 8

Filename D:\#EAC new\#wav+flac\VA - Funiculi Funicula - Amore\cd 3\08. Doris Day - I'll Never Smile Again.wav

Pre-gap length 0:00:01.42

Peak level 87.3 %
Extraction speed 6.1 X
Track quality 99.9 %
Test CRC 84DDBE64
Copy CRC 84DDBE64
Accurately ripped (confidence 2) [B08DBD89] (AR v2)
Copy OK

Track 9

Filename D:\#EAC new\#wav+flac\VA - Funiculi Funicula - Amore\cd 3\09. Jerry Vale - Paradise.wav

Pre-gap length 0:00:01.38

Peak level 82.1 %
Extraction speed 8.2 X
Track quality 100.0 %
Test CRC BCA864E0
Copy CRC BCA864E0
Accurately ripped (confidence 2) [8C55CF3C] (AR v2)
Copy OK

Track 10

Filename D:\#EAC new\#wav+flac\VA - Funiculi Funicula - Amore\cd 3\10. Manuel & The Music Of The Mountains - Fools Rush In.wav

Peak level 98.5 %
Extraction speed 8.4 X
Track quality 100.0 %
Test CRC 5F4D2D53
Copy CRC 5F4D2D53
Accurately ripped (confidence 2) [33CED1B5] (AR v2)
Copy OK

Track 11

Filename D:\#EAC new\#wav+flac\VA - Funiculi Funicula - Amore\cd 3\11. Vic Damone - Save A Kiss.wav

Pre-gap length 0:00:01.66

Peak level 90.2 %
Extraction speed 8.0 X
Track quality 100.0 %
Test CRC 9748329B
Copy CRC 9748329B
Accurately ripped (confidence 2) [6B2F732F] (AR v2)
Copy OK

Track 12

Filename D:\#EAC new\#wav+flac\VA - Funiculi Funicula - Amore\cd 3\12. Al Martino - You Always Hurt The One You Love.wav

Pre-gap length 0:00:02.42

Peak level 98.6 %
Extraction speed 8.9 X
Track quality 100.0 %
Test CRC 91F6BE2E
Copy CRC 91F6BE2E
Accurately ripped (confidence 1) [2F9DA433] (AR v2)
Copy OK

Track 13

Filename D:\#EAC new\#wav+flac\VA - Funiculi Funicula - Amore\cd 3\13. Brook Benton - Cold, Cold Heart.wav

Pre-gap length 0:00:01.26

Peak level 98.8 %
Extraction speed 9.0 X
Track quality 100.0 %
Test CRC B99F3F7C
Copy CRC B99F3F7C
Accurately ripped (confidence 1) [AB4E43FA] (AR v2)
Copy OK

Track 14

Filename D:\#EAC new\#wav+flac\VA - Funiculi Funicula - Amore\cd 3\14. Roland Cedermark - I Can't Stop Loving You.wav

Pre-gap length 0:00:01.81

Peak level 98.8 %
Extraction speed 9.6 X
Track quality 100.0 %
Test CRC E39E0214
Copy CRC E39E0214
Accurately ripped (confidence 1) [EE714D7E] (AR v2)
Copy OK

Track 15

Filename D:\#EAC new\#wav+flac\VA - Funiculi Funicula - Amore\cd 3\15. Dean Martin - Be An Angel.wav

Pre-gap length 0:00:02.26

Peak level 98.6 %
Extraction speed 9.4 X
Track quality 100.0 %
Test CRC FE613334
Copy CRC FE613334
Accurately ripped (confidence 2) [69D301F3] (AR v2)
Copy OK

Track 16

Filename D:\#EAC new\#wav+flac\VA - Funiculi Funicula - Amore\cd 3\16. Enzo Stuarti - What Now My Love.wav

Pre-gap length 0:00:01.06

Peak level 75.7 %
Extraction speed 6.9 X
Track quality 99.9 %
Test CRC 0114BF89
Copy CRC 0114BF89
Accurately ripped (confidence 2) [345B7ED1] (AR v2)
Copy OK

Track 17

Filename D:\#EAC new\#wav+flac\VA - Funiculi Funicula - Amore\cd 3\17. Harry Nilsson - I Wonder Who's Kissing Her Now.wav

Pre-gap length 0:00:01.38

Peak level 98.6 %
Extraction speed 9.4 X
Track quality 100.0 %
Test CRC BF2A30B3
Copy CRC BF2A30B3
Accurately ripped (confidence 2) [B6AE4153] (AR v2)
Copy OK

Track 18

Filename D:\#EAC new\#wav+flac\VA - Funiculi Funicula - Amore\cd 3\18. Sarah Vaughan - Eternally.wav

Pre-gap length 0:00:01.58

Peak level 87.7 %
Extraction speed 9.4 X
Track quality 100.0 %
Test CRC 746D1547
Copy CRC 746D1547
Accurately ripped (confidence 2) [C6827601] (AR v2)
Copy OK

Track 19

Filename D:\#EAC new\#wav+flac\VA - Funiculi Funicula - Amore\cd 3\19. Timi Yuro - Smile.wav

Pre-gap length 0:00:01.38

Peak level 89.7 %
Extraction speed 9.7 X
Track quality 100.0 %
Test CRC DD632A8A
Copy CRC DD632A8A
Accurately ripped (confidence 2) [16ED2ECC] (AR v2)
Copy OK

Track 20

Filename D:\#EAC new\#wav+flac\VA - Funiculi Funicula - Amore\cd 3\20. Stanley Black & His Orchestra - Melody Of Love.wav

Pre-gap length 0:00:01.06

Peak level 85.5 %
Extraction speed 6.8 X
Track quality 99.9 %
Test CRC 75FE5303
Copy CRC 75FE5303
Accurately ripped (confidence 2) [B23F9299] (AR v2)
Copy OK


All tracks accurately ripped

No errors occurred

End of status report

–– CUETools DB Plugin V2.1.6

[CTDB TOCID: lrO5It_Q1cgqHYRZkO2WskVV4nc-] found
Submit result: lrO5It_Q1cgqHYRZkO2WskVV4nc- has been confirmed
Track | CTDB Status
1 | (3/3) Accurately ripped
2 | (3/3) Accurately ripped
3 | (3/3) Accurately ripped
4 | (3/3) Accurately ripped
5 | (3/3) Accurately ripped
6 | (3/3) Accurately ripped
7 | (3/3) Accurately ripped
8 | (3/3) Accurately ripped
9 | (3/3) Accurately ripped
10 | (3/3) Accurately ripped
11 | (3/3) Accurately ripped
12 | (3/3) Accurately ripped
13 | (3/3) Accurately ripped
14 | (3/3) Accurately ripped
15 | (3/3) Accurately ripped
16 | (3/3) Accurately ripped
17 | (3/3) Accurately ripped
18 | (3/3) Accurately ripped
19 | (3/3) Accurately ripped
20 | (3/3) Accurately ripped


==== Log checksum D0A754FAE21273CC1B3D83945A2EE8D30435B0FD41BE01C86E49E3EEC606FB45 ====