Tags
Language
Tags

VA - Gothic Rock: Vol. 1 (1993) 2CD Set [Re-Up]

Posted By: Designol
VA - Gothic Rock: Vol. 1 (1993) 2CD Set [Re-Up]

VA - Gothic Rock: Vol. 1 (1993) 2CD Set
EAC | FLAC | Image (Cue&Log) ~ 614 Mb | Scans included | Time: 01:40:13
Gothic Rock, Post-Punk, Alternative Rock | Label: Cleopatra | # CLEO 1019-2

"Goth" was a much maligned '80s genre, often deserved thanks to overtly gloomy pretentiousness, but just as often artistic, dark, bracing music. In addition to those outfits that still keep it going, this double CD is smart enough to include some of the long forgotten, unsung English practitioners who left behind stunning moments, folks such as UK Decay (see their brilliant singles and 1981 LP For Madmen Only), Theatre of Hate (too bad no "Westworld" or "Nero" here), Play Dead (thought no one remembered them!) and even Southern Death Cult (who became internationally famous a few years later when they changed their name from Death Cult to the Cult). One imagines Cleopatra couldn't get the rights to include such seminal bands as the Cure or Sisters of Mercy, but those groups don't need this kind of introduction, and the omission of the March Violets aside, this is an intelligently selected guide. Granddaddy Bauhaus are here (with their finest moment, "Dark Entries," one of the first 4AD singles 13-years-prior), as are spin-off band Tones on Tail (no Love and Rockets, sorry), as are the Banshees-ish 4AD band XMal Deutschland and post-Sisters men-in-black-hats Fields of the Nephilim (no Mission UK, and we miss Red Lorry Yellow Lorry), Irish extremists Virgin Prunes, and glossy gloomists Danse Society. You can probably do without reliving Bat-Cave crap Specimen and Alien Sex Fiend or wimpy wheezers Gene Loves Jezebel, but overall this sturdy 24-band history is a second-chance eye-opener.

Review by Jack Rabid, Allmusic.com

VA - Gothic Rock: Vol. 1 (1993) 2CD Set [Re-Up]

VA - Gothic Rock: Vol. 1 (1993) 2CD Set [Re-Up]

VA - Gothic Rock: Vol. 1 (1993) 2CD Set [Re-Up]


Tracklist:

CD1:

01. Bauhaus - Dark Entries (03:51)
02. Southern Death Cult - Moya (04:40)
03. X-Mal Deutschland - Incubus Succubus II (04:29)
04. Theatre of Hate - Black Madonna (03:21)
05. Gene Loves Jezebel - Shaving My Neck (02:54)
06. Fields of the Nephlim - Preacher Man (04:52)
07. UK Decay - Testament (03:06)
08. Virgin Prunes - Pagan Love Song (03:28)
09. Danse Society - We're So Happy (05:01)
10. Tones on Tail - Burning Skies (Edit) (05:15)
11. Alien Sex Fiend - Now I'm Feeling Zombified (06:55)

CD2:

01. Sex Gang Children - Dieche (12' Version) (07:01)
02. Specimen - Syria (03:15)
03. Play Dead - Propaganda (03:12)
04. Christian Death - This Is Heresy (Edit) (03:15)
05. Gitane Demone - Incendiary Lover (04:04)
06. The Marionettes - Ave Dementia (Edit) (03:50)
07. Rosetta Stone - Deeper (04:51)
08. Creaming Jesus - Reptile (03:49)
09. James Ray & the Performance - Assassin 64 (03:57)
10. Every New Dead Ghost - Not In A Lifetime (03:44)
11. Terminal Power Company - Burning Chrome (Mk I) (03:12)
12. Nosferatu - Inside The Devil (05:08)
13. Dominator X - Psycho Sister (02:52)


Exact Audio Copy V0.99 prebeta 4 from 23. January 2008

Отчёт EAC об извлечении, выполненном 3. февраля 2010, 19:33

Various / Gothic Rock Disc 1

Дисковод: PIONEER DVD-RW DVR-215 Adapter: 3 ID: 0

Режим чтения : Достоверность
Использование точного потока : Да
Отключение кэша аудио : Да
Использование указателей C2 : Нет

Коррекция смещения при чтении : 48
Способность читать области Lead-in и Lead-out : Нет
Заполнение пропущенных сэмплов тишиной : Да
Удаление блоков с тишиной в начале и конце : Нет
При вычислениях CRC использовались нулевые сэмплы : Да
Интерфейс : Установленный внешний ASPI-интерфейс

Выходной формат : Внутренние WAV-операции
Формат сэмплов : 44.100 Гц; 16 бит; стерео


TOC извлечённого CD

Трек | Старт | Длительность | Начальный сектор | Конечный сектор
––––––––––––––––––––––––––––––––––-
1 | 0:00.12 | 3:51.40 | 12 | 17376
2 | 3:51.52 | 4:40.45 | 17377 | 38421
3 | 8:32.22 | 4:29.58 | 38422 | 58654
4 | 13:02.05 | 3:21.37 | 58655 | 73766
5 | 16:23.42 | 2:53.70 | 73767 | 86811
6 | 19:17.37 | 4:52.50 | 86812 | 108761
7 | 24:10.12 | 3:06.45 | 108762 | 122756
8 | 27:16.57 | 3:28.35 | 122757 | 138391
9 | 30:45.17 | 5:01.48 | 138392 | 161014
10 | 35:46.65 | 5:15.02 | 161015 | 184641
11 | 41:01.67 | 6:55.13 | 184642 | 215779


Характеристики диапазона извлечения и сообщения об ошибках

Выбранный диапазон

Имя файла F:\Torrents\1Own\Gothic Rock(Cleo 1019-2)\Disc 1\Various - Gothic Rock Disc 1.wav

Пиковый уровень 100.0 %
Качество диапазона 100.0 %
CRC теста 720FD91E
CRC копии 720FD91E
Копирование… OK

Ошибок не произошло


AccurateRip: сводка

Трек 1 нет в базе данных
Трек 2 нет в базе данных
Трек 3 нет в базе данных
Трек 4 нет в базе данных
Трек 5 нет в базе данных
Трек 6 нет в базе данных
Трек 7 нет в базе данных
Трек 8 нет в базе данных
Трек 9 нет в базе данных
Трек 10 нет в базе данных
Трек 11 нет в базе данных

Ни одного трека нет в базе AccurateRip

Конец отчёта

foobar2000 1.2 / Dynamic Range Meter 1.1.1
log date: 2013-09-15 18:12:30

––––––––––––––––––––––––––––––––––––––––
Analyzed: Bauhaus - Dark Entries / Gothic Rock Disc 1 (1)
Danse Society - We're So Happy / Gothic Rock Disc 1 (2)
––––––––––––––––––––––––––––––––––––––––

DR Peak RMS Duration Track
––––––––––––––––––––––––––––––––––––––––
DR14 -1.22 dB -16.84 dB 3:52 01-Bauhaus - Dark Entries
DR11 -0.19 dB -14.53 dB 5:02 09-Danse Society - We're So Happy
––––––––––––––––––––––––––––––––––––––––

Number of tracks: 2
Official DR value: DR13

Samplerate: 44100 Hz
Channels: 2
Bits per sample: 16
Bitrate: 825 kbps
Codec: FLAC
================================================================================

––––––––––––––––––––––––––––––––––––––––
Statistics for: 06-Fields of the Nephlim - Preacher Man
Number of samples: 12906600
Duration: 4:53
––––––––––––––––––––––––––––––––––––––––

Left Right

Peak Value: -0.89 dB –- -1.61 dB
Avg RMS: -15.83 dB –- -15.46 dB
DR channel: 12.54 dB –- 12.08 dB
––––––––––––––––––––––––––––––––––––––––

Official DR Value: DR12

Samplerate: 44100 Hz
Channels: 2
Bits per sample: 16
Bitrate: 825 kbps
Codec: FLAC
================================================================================
––––––––––––––––––––––––––––––––––––––––
Statistics for: 05-Gene Loves Jezebel - Shaving My Neck
Number of samples: 7670460
Duration: 2:54
––––––––––––––––––––––––––––––––––––––––

Left Right

Peak Value: -1.48 dB –- -1.68 dB
Avg RMS: -17.61 dB –- -17.83 dB
DR channel: 13.28 dB –- 13.61 dB
––––––––––––––––––––––––––––––––––––––––

Official DR Value: DR13

Samplerate: 44100 Hz
Channels: 2
Bits per sample: 16
Bitrate: 825 kbps
Codec: FLAC
================================================================================
––––––––––––––––––––––––––––––––––––––––
Analyzed: Southern Death Cult - Moya / Gothic Rock Disc 1 (1)
Theatre of Hate - Black Madonna / Gothic Rock Disc 1 (2)
Tones on Tail - Burning Skies (Edit) / Gothic Rock Disc 1 (3)
––––––––––––––––––––––––––––––––––––––––

DR Peak RMS Duration Track
––––––––––––––––––––––––––––––––––––––––
DR14 0.00 dB -15.68 dB 4:41 02-Southern Death Cult - Moya
DR11 -1.59 dB -15.28 dB 3:21 04-Theatre of Hate - Black Madonna
DR12 -0.91 dB -16.52 dB 5:15 10-Tones on Tail - Burning Skies (Edit)
––––––––––––––––––––––––––––––––––––––––

Number of tracks: 3
Official DR value: DR12

Samplerate: 44100 Hz
Channels: 2
Bits per sample: 16
Bitrate: 825 kbps
Codec: FLAC
================================================================================

––––––––––––––––––––––––––––––––––––––––
Analyzed: UK Decay - Testament / Gothic Rock Disc 1 (1)
Virgin Prunes - Pagan Love Song / Gothic Rock Disc 1 (2)
––––––––––––––––––––––––––––––––––––––––

DR Peak RMS Duration Track
––––––––––––––––––––––––––––––––––––––––
DR12 -1.74 dB -15.96 dB 3:07 07-UK Decay - Testament
DR12 -1.34 dB -15.58 dB 3:28 08-Virgin Prunes - Pagan Love Song
––––––––––––––––––––––––––––––––––––––––

Number of tracks: 2
Official DR value: DR12

Samplerate: 44100 Hz
Channels: 2
Bits per sample: 16
Bitrate: 825 kbps
Codec: FLAC
================================================================================

––––––––––––––––––––––––––––––––––––––––
Statistics for: 03-X-Mal Deutschland - Incubus Succubus II
Number of samples: 11897004
Duration: 4:30
––––––––––––––––––––––––––––––––––––––––

Left Right

Peak Value: -0.60 dB –- -1.60 dB
Avg RMS: -14.42 dB –- -14.40 dB
DR channel: 11.94 dB –- 11.47 dB
––––––––––––––––––––––––––––––––––––––––

Official DR Value: DR12

Samplerate: 44100 Hz
Channels: 2
Bits per sample: 16
Bitrate: 825 kbps
Codec: FLAC
================================================================================
foobar2000 1.2 / Dynamic Range Meter 1.1.1
log date: 2013-09-15 18:12:20

––––––––––––––––––––––––––––––––––––––––
Statistics for: 11-Alien Sex Fiend - Now I'm Feeling Zombified
Number of samples: 18309144
Duration: 6:55
––––––––––––––––––––––––––––––––––––––––

Left Right

Peak Value: -0.83 dB –- -0.84 dB
Avg RMS: -17.16 dB –- -17.11 dB
DR channel: 14.75 dB –- 14.48 dB
––––––––––––––––––––––––––––––––––––––––

Official DR Value: DR15

Samplerate: 44100 Hz
Channels: 2
Bits per sample: 16
Bitrate: 825 kbps
Codec: FLAC
================================================================================


Exact Audio Copy V0.99 prebeta 4 from 23. January 2008

Отчёт EAC об извлечении, выполненном 3. февраля 2010, 20:10

Various Artists / Gothic Rock (Disc 2)

Дисковод: PIONEER DVD-RW DVR-215 Adapter: 3 ID: 0

Режим чтения : Достоверность
Использование точного потока : Да
Отключение кэша аудио : Да
Использование указателей C2 : Нет

Коррекция смещения при чтении : 48
Способность читать области Lead-in и Lead-out : Нет
Заполнение пропущенных сэмплов тишиной : Да
Удаление блоков с тишиной в начале и конце : Нет
При вычислениях CRC использовались нулевые сэмплы : Да
Интерфейс : Установленный внешний ASPI-интерфейс

Выходной формат : Внутренние WAV-операции
Формат сэмплов : 44.100 Гц; 16 бит; стерео


TOC извлечённого CD

Трек | Старт | Длительность | Начальный сектор | Конечный сектор
––––––––––––––––––––––––––––––––––-
1 | 0:00.67 | 7:01.43 | 67 | 31684
2 | 7:02.35 | 3:15.12 | 31685 | 46321
3 | 10:17.47 | 3:12.25 | 46322 | 60746
4 | 13:29.72 | 3:15.38 | 60747 | 75409
5 | 16:45.35 | 4:04.45 | 75410 | 93754
6 | 20:50.05 | 3:50.37 | 93755 | 111041
7 | 24:40.42 | 4:51.68 | 111042 | 132934
8 | 29:32.35 | 3:49.22 | 132935 | 150131
9 | 33:21.57 | 3:57.35 | 150132 | 167941
10 | 37:19.17 | 3:44.08 | 167942 | 184749
11 | 41:03.25 | 3:12.60 | 184750 | 199209
12 | 44:16.10 | 5:08.07 | 199210 | 222316
13 | 49:24.17 | 2:52.23 | 222317 | 235239


Характеристики диапазона извлечения и сообщения об ошибках

Выбранный диапазон

Имя файла F:\Torrents\1Own\Gothic Rock(Cleo 1019-2)\Disc 2\Various Artists - Gothic Rock (Disc 2).wav

Пиковый уровень 99.3 %
Качество диапазона 100.0 %
CRC копии 461C2746
Копирование… OK

Ошибок не произошло


AccurateRip: сводка

Трек 1 точность не определена (достоверность 8) [9FB3B141], AccurateRip вернул [A7AAA924]
Трек 2 точность не определена (достоверность 8) [6C37F0D3], AccurateRip вернул [A309516E]
Трек 3 точность не определена (достоверность 9) [51C74757], AccurateRip вернул [AB1E952E]
Трек 4 точность не определена (достоверность 8) [78F2A052], AccurateRip вернул [7CF58544]
Трек 5 точность не определена (достоверность 8) [11412D1B], AccurateRip вернул [DC1760AD]
Трек 6 точность не определена (достоверность 8) [63C47E63], AccurateRip вернул [E1B15775]
Трек 7 точность не определена (достоверность 9) [82996BE1], AccurateRip вернул [7C17D47D]
Трек 8 точность не определена (достоверность 8) [445B9AB9], AccurateRip вернул [C98280E5]
Трек 9 точность не определена (достоверность 9) [4220A3A2], AccurateRip вернул [F21DD768]
Трек 10 точность не определена (достоверность 8) [3AD3C0F6], AccurateRip вернул [66B26F17]
Трек 11 точность не определена (достоверность 9) [89405B9E], AccurateRip вернул [BCD409EC]
Трек 12 точность не определена (достоверность 8) [8721959D], AccurateRip вернул [2B0DA294]
Трек 13 точность не определена (достоверность 9) [2209ACC3], AccurateRip вернул [DBE02A69]

Ни один трек не прошёл проверки на точность
В вашей базе может быть иной вариант штамповки диска

Конец отчёта

foobar2000 1.2 / Dynamic Range Meter 1.1.1
log date: 2013-09-15 18:13:15

––––––––––––––––––––––––––––––––––––––––
Analyzed: Christian Death - This Is Heresy (Edit) / Gothic Rock (Disc 2) (1)
Creaming Jesus - Reptile / Gothic Rock (Disc 2) (2)
Dominator X - Psycho Sister / Gothic Rock (Disc 2) (3)
––––––––––––––––––––––––––––––––––––––––

DR Peak RMS Duration Track
––––––––––––––––––––––––––––––––––––––––
DR11 -1.74 dB -17.59 dB 3:16 04-Christian Death - This Is Heresy (Edit)
DR11 -3.57 dB -17.96 dB 3:49 08-Creaming Jesus - Reptile
DR13 -0.35 dB -16.17 dB 2:52 13-Dominator X - Psycho Sister
––––––––––––––––––––––––––––––––––––––––

Number of tracks: 3
Official DR value: DR12

Samplerate: 44100 Hz
Channels: 2
Bits per sample: 16
Bitrate: 856 kbps
Codec: FLAC
================================================================================

––––––––––––––––––––––––––––––––––––––––
Statistics for: 10-Every New Dead Ghost - Not In A Lifetime
Number of samples: 9883104
Duration: 3:44
––––––––––––––––––––––––––––––––––––––––

Left Right

Peak Value: -1.82 dB –- -0.80 dB
Avg RMS: -17.50 dB –- -16.43 dB
DR channel: 13.21 dB –- 13.89 dB
––––––––––––––––––––––––––––––––––––––––

Official DR Value: DR14

Samplerate: 44100 Hz
Channels: 2
Bits per sample: 16
Bitrate: 856 kbps
Codec: FLAC
================================================================================
––––––––––––––––––––––––––––––––––––––––
Analyzed: Gitane Demone - Incendiary Lover / Gothic Rock (Disc 2) (1)
James Ray & the Performance - Assassin 64 / Gothic Rock (Disc 2) (2)
Nosferatu - Inside The Devil / Gothic Rock (Disc 2) (3)
––––––––––––––––––––––––––––––––––––––––

DR Peak RMS Duration Track
––––––––––––––––––––––––––––––––––––––––
DR13 -1.59 dB -17.11 dB 4:05 05-Gitane Demone - Incendiary Lover
DR11 -2.63 dB -15.49 dB 3:57 09-James Ray & the Performance - Assassin 64
DR14 -0.42 dB -16.02 dB 5:08 12-Nosferatu - Inside The Devil
––––––––––––––––––––––––––––––––––––––––

Number of tracks: 3
Official DR value: DR13

Samplerate: 44100 Hz
Channels: 2
Bits per sample: 16
Bitrate: 856 kbps
Codec: FLAC
================================================================================

––––––––––––––––––––––––––––––––––––––––
Analyzed: Play Dead - Propaganda / Gothic Rock (Disc 2) (1)
Rosetta Stone - Deeper / Gothic Rock (Disc 2) (2)
––––––––––––––––––––––––––––––––––––––––

DR Peak RMS Duration Track
––––––––––––––––––––––––––––––––––––––––
DR12 -1.06 dB -15.82 dB 3:12 03-Play Dead - Propaganda
DR13 -1.17 dB -15.79 dB 4:52 07-Rosetta Stone - Deeper
––––––––––––––––––––––––––––––––––––––––

Number of tracks: 2
Official DR value: DR13

Samplerate: 44100 Hz
Channels: 2
Bits per sample: 16
Bitrate: 856 kbps
Codec: FLAC
================================================================================

––––––––––––––––––––––––––––––––––––––––
Analyzed: Sex Gang Children - Dieche (12' Version) / Gothic Rock (Disc 2) (1)
Specimen - Syria / Gothic Rock (Disc 2) (2)
Terminal Power Company - Burning Chrome (Mk I) / Gothic Rock (Disc 2) (3)
––––––––––––––––––––––––––––––––––––––––

DR Peak RMS Duration Track
––––––––––––––––––––––––––––––––––––––––
DR13 -0.06 dB -15.18 dB 7:02 01-Sex Gang Children - Dieche (12' Version)
DR10 -4.66 dB -16.50 dB 3:15 02-Specimen - Syria
DR12 -2.64 dB -15.84 dB 3:13 11-Terminal Power Company - Burning Chrome (Mk I)
––––––––––––––––––––––––––––––––––––––––

Number of tracks: 3
Official DR value: DR12

Samplerate: 44100 Hz
Channels: 2
Bits per sample: 16
Bitrate: 856 kbps
Codec: FLAC
================================================================================

––––––––––––––––––––––––––––––––––––––––
Statistics for: 06-The Marionettes - Ave Dementia (Edit)
Number of samples: 10164756
Duration: 3:50
––––––––––––––––––––––––––––––––––––––––

Left Right

Peak Value: -1.91 dB –- -2.26 dB
Avg RMS: -16.12 dB –- -16.17 dB
DR channel: 11.47 dB –- 11.31 dB
––––––––––––––––––––––––––––––––––––––––

Official DR Value: DR11

Samplerate: 44100 Hz
Channels: 2
Bits per sample: 16
Bitrate: 856 kbps
Codec: FLAC
================================================================================

VA - Gothic Rock: Vol. 1 (1993) 2CD Set [Re-Up]

VA - Gothic Rock: Vol. 1 (1993) 2CD Set [Re-Up]

All thanks to original releaser

More interesting music in My Blog