Subcategories

VA - Keeping the Faith: 28 Stompin' Northern Soul Classics (2CD, 2019)

Posted By: ciklon5
VA - Keeping the Faith: 28 Stompin' Northern Soul Classics (2CD, 2019)

VA - Keeping the Faith: 28 Stompin' Northern Soul Classics (2CD, 2019)
FLAC tracks +cue+log / MP3 320 kbps | 2:26:12 | 339 / 914 Mb
Genre: Soul, Funk / Label: BMG

Keeping The Faith / 28 Stompin' Northern Soul Classics consists of Northern Soul classics from the late '60s until the early '70s, including artists like Jimmy James, The Sapphires, The Showstoppers, and Kim Davis. Many of the tracks on this compilation are the rare grooves that those original fanatics of Northern Soul would have hunted down relentlessly and paid big bucks for had they found them.
Northern Soul: The very mention of the name conjures up images of a pioneering dance music scene, a scene set in an era before superclubs took dance music to the masses. A youth subculture where music met record collecting without the aid of the internet. A scene where all-night dancing was fuelled by heavy drug use but emerging a good twenty years before rave culture.

Track List:
CD 1
01. The Show Stoppers - Ain’t Nothin But A Houseparty
02. Father’s Angels - Bok To Bach
03. Alan Bown Set - Gonna Fix You Good
04. Kim Davis - The Real Thing
05. Lorraine Silver - Lost Summer Love
06. Jason Knight - Our Love Is Getting Stronger
07. Frankie Crocker - Ton Of Dynamite
08. Jimmy James & The Vagabonds - This Heart Of Mine
09. Jackie Trent - You Baby
10. Sylvia - It’s A Good Life
11. Kenny Bernard - What Love Brings
12. Geno Washington & The Ram Jam Band - If This Is Love (I’d Rather Be Lonely)
13. Timebox - Soul Sauce
14. Donnie Elbert - Where Did Our Love Go
15. The Cherry People - And Suddenly
16. Javells - Goodbye (Nothing To Say)
17. The Playthings - Stop What You’re Doing
18. The Ferris Wheel - Number One Guy
19. Willie & West - Get Away From Me Girl
20. Kenny Bernard - Ain’t No Soul (Left In These Ol Shoes)
21. The Show Stoppers - Eeny Meeny
22. The Sapphires - Baby You've Got Me
23. The Devonnes - Pick Up My Toys (& Go Home)
24. Mike Cotton Sound - Step Out Of Line
25. Willie & The Mighty Magnificents - Check It Baby
26. The Sapphires - Gotta Have Your Love
27. Leonard Whiting - That’s What Mama Say
28. Margo & The Marvettes - When Love Slips Away

CD 2
01. Larry Saunders - On The Real Side
02. The Carstairs - It Really Hurts Me Girl
03. Crown Heights Affair - Dreaming A Dream
04. Pat Lundy - Party Music
05. Derek Martin - Beautiful Woman
06. Street People - You’re My One Weakness Girl
07. Brother To Brother - In The Bottle
08. The Moments - Nine Times
09. Carl Douglas - I Want To Give You My Everything
10. Soul Train Gang - Country Girl
11. Baltimore First Class - Filled With Desire
12. Retta Young - My Man Is On His Way
13. The Moments - I Got The Need
14. Jeannie Napoli - Forget That Girl
15. Universal Mind - Something Fishy Is Going On
16. Crown Heights Affair - Every Beat Of My Heart (New Disco Version)
17. Benny Troy - I Wanna Give You Tomorrow
18. Duprees - Check Yourself
19. Carrie Lucas - I Gotta Keep Dancing
20. Festivals - Gee Baby
21. Mother Freedom Band - Beautiful Summers Day

Exact Audio Copy V1.3 from 2. September 2016

EAC extraction logfile from 3. November 2019, 16:48

Various Artists / Keeping The Faith

Used drive : PLEXTOR PX-891SAF Adapter: 1 ID: 0

Read mode : Secure
Utilize accurate stream : Yes
Defeat audio cache : Yes
Make use of C2 pointers : No

Read offset correction : 6
Overread into Lead-In and Lead-Out : No
Fill up missing offset samples with silence : Yes
Delete leading and trailing silent blocks : No
Null samples used in CRC calculations : Yes
Used interface : Native Win32 interface for Win NT & 2000
Gap handling : Appended to previous track

Used output format : User Defined Encoder
Selected bitrate : 1024 kBit/s
Quality : High
Add ID3 tag : No
Command line compressor : C:\Program Files (x86)\Exact Audio Copy\Flac\flac.exe
Additional command line options : -8 -V -T "ARTIST=%artist%" -T "TITLE=%title%" -T "ALBUM=%albumtitle%" -T "DATE=%year%" -T "TRACKNUMBER=%tracknr%" -T "GENRE=%genre%" -T "PERFORMER=%albuminterpret%" -T "COMPOSER=%composer%" %haslyrics%–tag-from-file=LYRICS="%lyricsfile%"%haslyrics% -T "ALBUMARTIST=%albumartist%" -T "DISCNUMBER=%cdnumber%" -T "TOTALDISCS=%totalcds%" -T "TOTALTRACKS=%numtracks%" -T "COMMENT=%comment%" %source% -o %dest%


TOC of the extracted CD

Track | Start | Length | Start sector | End sector
––––––––––––––––––––––––––––-
1 | 0:00.00 | 2:39.09 | 0 | 11933
2 | 2:39.09 | 2:51.06 | 11934 | 24764
3 | 5:30.15 | 2:41.15 | 24765 | 36854
4 | 8:11.30 | 2:08.09 | 36855 | 46463
5 | 10:19.39 | 2:03.04 | 46464 | 55692
6 | 12:22.43 | 2:11.71 | 55693 | 65588
7 | 14:34.39 | 2:42.51 | 65589 | 77789
8 | 17:17.15 | 2:30.28 | 77790 | 89067
9 | 19:47.43 | 2:36.53 | 89068 | 100820
10 | 22:24.21 | 2:18.14 | 100821 | 111184
11 | 24:42.35 | 2:26.36 | 111185 | 122170
12 | 27:08.71 | 2:39.69 | 122171 | 134164
13 | 29:48.65 | 2:57.00 | 134165 | 147439
14 | 32:45.65 | 3:16.06 | 147440 | 162145
15 | 36:01.71 | 2:05.29 | 162146 | 171549
16 | 38:07.25 | 2:48.34 | 171550 | 184183
17 | 40:55.59 | 2:38.40 | 184184 | 196073
18 | 43:34.24 | 1:57.11 | 196074 | 204859
19 | 45:31.35 | 2:09.35 | 204860 | 214569
20 | 47:40.70 | 2:04.26 | 214570 | 223895
21 | 49:45.21 | 2:22.74 | 223896 | 234619
22 | 52:08.20 | 2:35.27 | 234620 | 246271
23 | 54:43.47 | 3:31.42 | 246272 | 262138
24 | 58:15.14 | 2:44.26 | 262139 | 274464
25 | 60:59.40 | 2:17.67 | 274465 | 284806
26 | 63:17.32 | 2:15.69 | 284807 | 295000
27 | 65:33.26 | 1:58.00 | 295001 | 303850
28 | 67:31.26 | 2:59.48 | 303851 | 317323


Track 1

Filename D:\#cdr\#wav+flac\VA - Keeping The Faith\cd 1\01. The Show Stoppers - Ain’t Nothin But A Houseparty.wav

Pre-gap length 0:00:02.00

Peak level 100.0 %
Extraction speed 4.9 X
Track quality 100.0 %
Test CRC 86894EFE
Copy CRC 86894EFE
Track not present in AccurateRip database
Copy OK

Track 2

Filename D:\#cdr\#wav+flac\VA - Keeping The Faith\cd 1\02. Father’s Angels - Bok To Bach.wav

Peak level 94.4 %
Extraction speed 5.3 X
Track quality 100.0 %
Test CRC 6E3C8498
Copy CRC 6E3C8498
Track not present in AccurateRip database
Copy OK

Track 3

Filename D:\#cdr\#wav+flac\VA - Keeping The Faith\cd 1\03. Alan Bown Set - Gonna Fix You Good.wav

Peak level 81.2 %
Extraction speed 5.6 X
Track quality 100.0 %
Test CRC 8FAEBA7D
Copy CRC 8FAEBA7D
Track not present in AccurateRip database
Copy OK

Track 4

Filename D:\#cdr\#wav+flac\VA - Keeping The Faith\cd 1\04. Kim Davis - The Real Thing.wav

Peak level 85.1 %
Extraction speed 4.1 X
Track quality 99.9 %
Test CRC 44038B5B
Copy CRC 44038B5B
Track not present in AccurateRip database
Copy OK

Track 5

Filename D:\#cdr\#wav+flac\VA - Keeping The Faith\cd 1\05. Lorraine Silver - Lost Summer Love.wav

Peak level 94.4 %
Extraction speed 5.7 X
Track quality 100.0 %
Test CRC 78310AF1
Copy CRC 78310AF1
Track not present in AccurateRip database
Copy OK

Track 6

Filename D:\#cdr\#wav+flac\VA - Keeping The Faith\cd 1\06. Jason Knight - Our Love Is Getting Stronger.wav

Peak level 85.1 %
Extraction speed 6.0 X
Track quality 100.0 %
Test CRC 02E97520
Copy CRC 02E97520
Track not present in AccurateRip database
Copy OK

Track 7

Filename D:\#cdr\#wav+flac\VA - Keeping The Faith\cd 1\07. Frankie Crocker - Ton Of Dynamite.wav

Peak level 79.4 %
Extraction speed 5.0 X
Track quality 99.9 %
Test CRC 483E1070
Copy CRC 483E1070
Track not present in AccurateRip database
Copy OK

Track 8

Filename D:\#cdr\#wav+flac\VA - Keeping The Faith\cd 1\08. Jimmy James & The Vagabonds - This Heart Of Mine.wav

Peak level 91.2 %
Extraction speed 5.0 X
Track quality 99.9 %
Test CRC D6E9C56B
Copy CRC D6E9C56B
Track not present in AccurateRip database
Copy OK

Track 9

Filename D:\#cdr\#wav+flac\VA - Keeping The Faith\cd 1\09. Jackie Trent - You Baby.wav

Peak level 91.2 %
Extraction speed 5.2 X
Track quality 99.9 %
Test CRC 75DE5E50
Copy CRC 75DE5E50
Track not present in AccurateRip database
Copy OK

Track 10

Filename D:\#cdr\#wav+flac\VA - Keeping The Faith\cd 1\10. Sylvia - It’s A Good Life.wav

Peak level 86.3 %
Extraction speed 6.9 X
Track quality 100.0 %
Test CRC 0906DB35
Copy CRC 0906DB35
Track not present in AccurateRip database
Copy OK

Track 11

Filename D:\#cdr\#wav+flac\VA - Keeping The Faith\cd 1\11. Kenny Bernard - What Love Brings.wav

Peak level 85.1 %
Extraction speed 7.1 X
Track quality 100.0 %
Test CRC 9CE443B6
Copy CRC 9CE443B6
Track not present in AccurateRip database
Copy OK

Track 12

Filename D:\#cdr\#wav+flac\VA - Keeping The Faith\cd 1\12. Geno Washington & The Ram Jam Band - If This Is Love (I’d Rather Be Lonely).wav

Peak level 94.4 %
Extraction speed 7.4 X
Track quality 100.0 %
Test CRC 829EF1E5
Copy CRC 829EF1E5
Track not present in AccurateRip database
Copy OK

Track 13

Filename D:\#cdr\#wav+flac\VA - Keeping The Faith\cd 1\13. Timebox - Soul Sauce.wav

Peak level 94.4 %
Extraction speed 7.8 X
Track quality 100.0 %
Test CRC E0F0AB72
Copy CRC E0F0AB72
Track not present in AccurateRip database
Copy OK

Track 14

Filename D:\#cdr\#wav+flac\VA - Keeping The Faith\cd 1\14. Donnie Elbert - Where Did Our Love Go.wav

Peak level 94.4 %
Extraction speed 8.2 X
Track quality 100.0 %
Test CRC E9F25FAE
Copy CRC E9F25FAE
Track not present in AccurateRip database
Copy OK

Track 15

Filename D:\#cdr\#wav+flac\VA - Keeping The Faith\cd 1\15. The Cherry People - And Suddenly.wav

Peak level 94.4 %
Extraction speed 7.8 X
Track quality 100.0 %
Test CRC ABE27700
Copy CRC ABE27700
Track not present in AccurateRip database
Copy OK

Track 16

Filename D:\#cdr\#wav+flac\VA - Keeping The Faith\cd 1\16. Javells - Goodbye (Nothing To Say).wav

Peak level 94.4 %
Extraction speed 8.2 X
Track quality 100.0 %
Test CRC C92C794E
Copy CRC C92C794E
Track not present in AccurateRip database
Copy OK

Track 17

Filename D:\#cdr\#wav+flac\VA - Keeping The Faith\cd 1\17. The Playthings - Stop What You’re Doing.wav

Peak level 94.4 %
Extraction speed 8.3 X
Track quality 100.0 %
Test CRC 8041C67E
Copy CRC 8041C67E
Track not present in AccurateRip database
Copy OK

Track 18

Filename D:\#cdr\#wav+flac\VA - Keeping The Faith\cd 1\18. The Ferris Wheel - Number One Guy.wav

Peak level 85.1 %
Extraction speed 8.0 X
Track quality 100.0 %
Test CRC 6EB8C87C
Copy CRC 6EB8C87C
Track not present in AccurateRip database
Copy OK

Track 19

Filename D:\#cdr\#wav+flac\VA - Keeping The Faith\cd 1\19. Willie & West - Get Away From Me Girl.wav

Peak level 94.4 %
Extraction speed 6.0 X
Track quality 99.9 %
Test CRC A9148DDD
Copy CRC A9148DDD
Track not present in AccurateRip database
Copy OK

Track 20

Filename D:\#cdr\#wav+flac\VA - Keeping The Faith\cd 1\20. Kenny Bernard - Ain’t No Soul (Left In These Ol Shoes).wav

Peak level 94.4 %
Extraction speed 8.4 X
Track quality 100.0 %
Test CRC CB43A706
Copy CRC CB43A706
Track not present in AccurateRip database
Copy OK

Track 21

Filename D:\#cdr\#wav+flac\VA - Keeping The Faith\cd 1\21. The Show Stoppers - Eeny Meeny.wav

Peak level 94.4 %
Extraction speed 8.7 X
Track quality 100.0 %
Test CRC 56DEA012
Copy CRC 56DEA012
Track not present in AccurateRip database
Copy OK

Track 22

Filename D:\#cdr\#wav+flac\VA - Keeping The Faith\cd 1\22. The Sapphires - Baby You've Got Me.wav

Peak level 94.4 %
Extraction speed 6.8 X
Track quality 99.9 %
Test CRC 94E87865
Copy CRC 94E87865
Track not present in AccurateRip database
Copy OK

Track 23

Filename D:\#cdr\#wav+flac\VA - Keeping The Faith\cd 1\23. The Devonnes - Pick Up My Toys (& Go Home).wav

Peak level 94.4 %
Extraction speed 9.7 X
Track quality 100.0 %
Test CRC 24E7041B
Copy CRC 24E7041B
Track not present in AccurateRip database
Copy OK

Track 24

Filename D:\#cdr\#wav+flac\VA - Keeping The Faith\cd 1\24. Mike Cotton Sound - Step Out Of Line.wav

Peak level 85.1 %
Extraction speed 7.3 X
Track quality 99.9 %
Test CRC 4A4446DC
Copy CRC 4A4446DC
Track not present in AccurateRip database
Copy OK

Track 25

Filename D:\#cdr\#wav+flac\VA - Keeping The Faith\cd 1\25. Willie & The Mighty Magnificents - Check It Baby.wav

Peak level 94.4 %
Extraction speed 9.4 X
Track quality 100.0 %
Test CRC A0DF376E
Copy CRC A0DF376E
Track not present in AccurateRip database
Copy OK

Track 26

Filename D:\#cdr\#wav+flac\VA - Keeping The Faith\cd 1\26. The Sapphires - Gotta Have Your Love.wav

Peak level 94.4 %
Extraction speed 9.4 X
Track quality 100.0 %
Test CRC 40F77474
Copy CRC 40F77474
Track not present in AccurateRip database
Copy OK

Track 27

Filename D:\#cdr\#wav+flac\VA - Keeping The Faith\cd 1\27. Leonard Whiting - That’s What Mama Say.wav

Peak level 94.4 %
Extraction speed 9.2 X
Track quality 100.0 %
Test CRC 1A9C7BD1
Copy CRC 1A9C7BD1
Track not present in AccurateRip database
Copy OK

Track 28

Filename D:\#cdr\#wav+flac\VA - Keeping The Faith\cd 1\28. Margo & The Marvettes - When Love Slips Away.wav

Peak level 92.2 %
Extraction speed 8.0 X
Track quality 99.9 %
Test CRC 4AD3B88B
Copy CRC 4AD3B88B
Track not present in AccurateRip database
Copy OK


None of the tracks are present in the AccurateRip database

No errors occurred

End of status report

–– CUETools DB Plugin V2.1.6

[CTDB TOCID: zhJ9QV06hLquFnmGIBJJWNrMN84-] disk not present in database
Submit result: zhJ9QV06hLquFnmGIBJJWNrMN84- has been uploaded


==== Log checksum 2C0A5371BCF9C33A0D724BD60C8C5EA547BE290CC0DAA0F2EB95BB82EF2C4396 ====

––––––––––––––––––––––––––––––

Exact Audio Copy V1.3 from 2. September 2016

EAC extraction logfile from 3. November 2019, 16:48

Various Artists / Keeping The Faith

Used drive : PLEXTOR PX-891SAF Adapter: 1 ID: 0

Read mode : Secure
Utilize accurate stream : Yes
Defeat audio cache : Yes
Make use of C2 pointers : No

Read offset correction : 6
Overread into Lead-In and Lead-Out : No
Fill up missing offset samples with silence : Yes
Delete leading and trailing silent blocks : No
Null samples used in CRC calculations : Yes
Used interface : Native Win32 interface for Win NT & 2000
Gap handling : Appended to previous track

Used output format : User Defined Encoder
Selected bitrate : 1024 kBit/s
Quality : High
Add ID3 tag : No
Command line compressor : C:\Program Files (x86)\Exact Audio Copy\Flac\flac.exe
Additional command line options : -8 -V -T "ARTIST=%artist%" -T "TITLE=%title%" -T "ALBUM=%albumtitle%" -T "DATE=%year%" -T "TRACKNUMBER=%tracknr%" -T "GENRE=%genre%" -T "PERFORMER=%albuminterpret%" -T "COMPOSER=%composer%" %haslyrics%–tag-from-file=LYRICS="%lyricsfile%"%haslyrics% -T "ALBUMARTIST=%albumartist%" -T "DISCNUMBER=%cdnumber%" -T "TOTALDISCS=%totalcds%" -T "TOTALTRACKS=%numtracks%" -T "COMMENT=%comment%" %source% -o %dest%


TOC of the extracted CD

Track | Start | Length | Start sector | End sector
––––––––––––––––––––––––––––-
1 | 0:00.00 | 2:39.09 | 0 | 11933
2 | 2:39.09 | 2:51.06 | 11934 | 24764
3 | 5:30.15 | 2:41.15 | 24765 | 36854
4 | 8:11.30 | 2:08.09 | 36855 | 46463
5 | 10:19.39 | 2:03.04 | 46464 | 55692
6 | 12:22.43 | 2:11.71 | 55693 | 65588
7 | 14:34.39 | 2:42.51 | 65589 | 77789
8 | 17:17.15 | 2:30.28 | 77790 | 89067
9 | 19:47.43 | 2:36.53 | 89068 | 100820
10 | 22:24.21 | 2:18.14 | 100821 | 111184
11 | 24:42.35 | 2:26.36 | 111185 | 122170
12 | 27:08.71 | 2:39.69 | 122171 | 134164
13 | 29:48.65 | 2:57.00 | 134165 | 147439
14 | 32:45.65 | 3:16.06 | 147440 | 162145
15 | 36:01.71 | 2:05.29 | 162146 | 171549
16 | 38:07.25 | 2:48.34 | 171550 | 184183
17 | 40:55.59 | 2:38.40 | 184184 | 196073
18 | 43:34.24 | 1:57.11 | 196074 | 204859
19 | 45:31.35 | 2:09.35 | 204860 | 214569
20 | 47:40.70 | 2:04.26 | 214570 | 223895
21 | 49:45.21 | 2:22.74 | 223896 | 234619
22 | 52:08.20 | 2:35.27 | 234620 | 246271
23 | 54:43.47 | 3:31.42 | 246272 | 262138
24 | 58:15.14 | 2:44.26 | 262139 | 274464
25 | 60:59.40 | 2:17.67 | 274465 | 284806
26 | 63:17.32 | 2:15.69 | 284807 | 295000
27 | 65:33.26 | 1:58.00 | 295001 | 303850
28 | 67:31.26 | 2:59.48 | 303851 | 317323


Track 1

Filename D:\#cdr\#wav+flac\VA - Keeping The Faith\cd 1\01. The Show Stoppers - Ain’t Nothin But A Houseparty.wav

Pre-gap length 0:00:02.00

Peak level 100.0 %
Extraction speed 4.9 X
Track quality 100.0 %
Test CRC 86894EFE
Copy CRC 86894EFE
Track not present in AccurateRip database
Copy OK

Track 2

Filename D:\#cdr\#wav+flac\VA - Keeping The Faith\cd 1\02. Father’s Angels - Bok To Bach.wav

Peak level 94.4 %
Extraction speed 5.3 X
Track quality 100.0 %
Test CRC 6E3C8498
Copy CRC 6E3C8498
Track not present in AccurateRip database
Copy OK

Track 3

Filename D:\#cdr\#wav+flac\VA - Keeping The Faith\cd 1\03. Alan Bown Set - Gonna Fix You Good.wav

Peak level 81.2 %
Extraction speed 5.6 X
Track quality 100.0 %
Test CRC 8FAEBA7D
Copy CRC 8FAEBA7D
Track not present in AccurateRip database
Copy OK

Track 4

Filename D:\#cdr\#wav+flac\VA - Keeping The Faith\cd 1\04. Kim Davis - The Real Thing.wav

Peak level 85.1 %
Extraction speed 4.1 X
Track quality 99.9 %
Test CRC 44038B5B
Copy CRC 44038B5B
Track not present in AccurateRip database
Copy OK

Track 5

Filename D:\#cdr\#wav+flac\VA - Keeping The Faith\cd 1\05. Lorraine Silver - Lost Summer Love.wav

Peak level 94.4 %
Extraction speed 5.7 X
Track quality 100.0 %
Test CRC 78310AF1
Copy CRC 78310AF1
Track not present in AccurateRip database
Copy OK

Track 6

Filename D:\#cdr\#wav+flac\VA - Keeping The Faith\cd 1\06. Jason Knight - Our Love Is Getting Stronger.wav

Peak level 85.1 %
Extraction speed 6.0 X
Track quality 100.0 %
Test CRC 02E97520
Copy CRC 02E97520
Track not present in AccurateRip database
Copy OK

Track 7

Filename D:\#cdr\#wav+flac\VA - Keeping The Faith\cd 1\07. Frankie Crocker - Ton Of Dynamite.wav

Peak level 79.4 %
Extraction speed 5.0 X
Track quality 99.9 %
Test CRC 483E1070
Copy CRC 483E1070
Track not present in AccurateRip database
Copy OK

Track 8

Filename D:\#cdr\#wav+flac\VA - Keeping The Faith\cd 1\08. Jimmy James & The Vagabonds - This Heart Of Mine.wav

Peak level 91.2 %
Extraction speed 5.0 X
Track quality 99.9 %
Test CRC D6E9C56B
Copy CRC D6E9C56B
Track not present in AccurateRip database
Copy OK

Track 9

Filename D:\#cdr\#wav+flac\VA - Keeping The Faith\cd 1\09. Jackie Trent - You Baby.wav

Peak level 91.2 %
Extraction speed 5.2 X
Track quality 99.9 %
Test CRC 75DE5E50
Copy CRC 75DE5E50
Track not present in AccurateRip database
Copy OK

Track 10

Filename D:\#cdr\#wav+flac\VA - Keeping The Faith\cd 1\10. Sylvia - It’s A Good Life.wav

Peak level 86.3 %
Extraction speed 6.9 X
Track quality 100.0 %
Test CRC 0906DB35
Copy CRC 0906DB35
Track not present in AccurateRip database
Copy OK

Track 11

Filename D:\#cdr\#wav+flac\VA - Keeping The Faith\cd 1\11. Kenny Bernard - What Love Brings.wav

Peak level 85.1 %
Extraction speed 7.1 X
Track quality 100.0 %
Test CRC 9CE443B6
Copy CRC 9CE443B6
Track not present in AccurateRip database
Copy OK

Track 12

Filename D:\#cdr\#wav+flac\VA - Keeping The Faith\cd 1\12. Geno Washington & The Ram Jam Band - If This Is Love (I’d Rather Be Lonely).wav

Peak level 94.4 %
Extraction speed 7.4 X
Track quality 100.0 %
Test CRC 829EF1E5
Copy CRC 829EF1E5
Track not present in AccurateRip database
Copy OK

Track 13

Filename D:\#cdr\#wav+flac\VA - Keeping The Faith\cd 1\13. Timebox - Soul Sauce.wav

Peak level 94.4 %
Extraction speed 7.8 X
Track quality 100.0 %
Test CRC E0F0AB72
Copy CRC E0F0AB72
Track not present in AccurateRip database
Copy OK

Track 14

Filename D:\#cdr\#wav+flac\VA - Keeping The Faith\cd 1\14. Donnie Elbert - Where Did Our Love Go.wav

Peak level 94.4 %
Extraction speed 8.2 X
Track quality 100.0 %
Test CRC E9F25FAE
Copy CRC E9F25FAE
Track not present in AccurateRip database
Copy OK

Track 15

Filename D:\#cdr\#wav+flac\VA - Keeping The Faith\cd 1\15. The Cherry People - And Suddenly.wav

Peak level 94.4 %
Extraction speed 7.8 X
Track quality 100.0 %
Test CRC ABE27700
Copy CRC ABE27700
Track not present in AccurateRip database
Copy OK

Track 16

Filename D:\#cdr\#wav+flac\VA - Keeping The Faith\cd 1\16. Javells - Goodbye (Nothing To Say).wav

Peak level 94.4 %
Extraction speed 8.2 X
Track quality 100.0 %
Test CRC C92C794E
Copy CRC C92C794E
Track not present in AccurateRip database
Copy OK

Track 17

Filename D:\#cdr\#wav+flac\VA - Keeping The Faith\cd 1\17. The Playthings - Stop What You’re Doing.wav

Peak level 94.4 %
Extraction speed 8.3 X
Track quality 100.0 %
Test CRC 8041C67E
Copy CRC 8041C67E
Track not present in AccurateRip database
Copy OK

Track 18

Filename D:\#cdr\#wav+flac\VA - Keeping The Faith\cd 1\18. The Ferris Wheel - Number One Guy.wav

Peak level 85.1 %
Extraction speed 8.0 X
Track quality 100.0 %
Test CRC 6EB8C87C
Copy CRC 6EB8C87C
Track not present in AccurateRip database
Copy OK

Track 19

Filename D:\#cdr\#wav+flac\VA - Keeping The Faith\cd 1\19. Willie & West - Get Away From Me Girl.wav

Peak level 94.4 %
Extraction speed 6.0 X
Track quality 99.9 %
Test CRC A9148DDD
Copy CRC A9148DDD
Track not present in AccurateRip database
Copy OK

Track 20

Filename D:\#cdr\#wav+flac\VA - Keeping The Faith\cd 1\20. Kenny Bernard - Ain’t No Soul (Left In These Ol Shoes).wav

Peak level 94.4 %
Extraction speed 8.4 X
Track quality 100.0 %
Test CRC CB43A706
Copy CRC CB43A706
Track not present in AccurateRip database
Copy OK

Track 21

Filename D:\#cdr\#wav+flac\VA - Keeping The Faith\cd 1\21. The Show Stoppers - Eeny Meeny.wav

Peak level 94.4 %
Extraction speed 8.7 X
Track quality 100.0 %
Test CRC 56DEA012
Copy CRC 56DEA012
Track not present in AccurateRip database
Copy OK

Track 22

Filename D:\#cdr\#wav+flac\VA - Keeping The Faith\cd 1\22. The Sapphires - Baby You've Got Me.wav

Peak level 94.4 %
Extraction speed 6.8 X
Track quality 99.9 %
Test CRC 94E87865
Copy CRC 94E87865
Track not present in AccurateRip database
Copy OK

Track 23

Filename D:\#cdr\#wav+flac\VA - Keeping The Faith\cd 1\23. The Devonnes - Pick Up My Toys (& Go Home).wav

Peak level 94.4 %
Extraction speed 9.7 X
Track quality 100.0 %
Test CRC 24E7041B
Copy CRC 24E7041B
Track not present in AccurateRip database
Copy OK

Track 24

Filename D:\#cdr\#wav+flac\VA - Keeping The Faith\cd 1\24. Mike Cotton Sound - Step Out Of Line.wav

Peak level 85.1 %
Extraction speed 7.3 X
Track quality 99.9 %
Test CRC 4A4446DC
Copy CRC 4A4446DC
Track not present in AccurateRip database
Copy OK

Track 25

Filename D:\#cdr\#wav+flac\VA - Keeping The Faith\cd 1\25. Willie & The Mighty Magnificents - Check It Baby.wav

Peak level 94.4 %
Extraction speed 9.4 X
Track quality 100.0 %
Test CRC A0DF376E
Copy CRC A0DF376E
Track not present in AccurateRip database
Copy OK

Track 26

Filename D:\#cdr\#wav+flac\VA - Keeping The Faith\cd 1\26. The Sapphires - Gotta Have Your Love.wav

Peak level 94.4 %
Extraction speed 9.4 X
Track quality 100.0 %
Test CRC 40F77474
Copy CRC 40F77474
Track not present in AccurateRip database
Copy OK

Track 27

Filename D:\#cdr\#wav+flac\VA - Keeping The Faith\cd 1\27. Leonard Whiting - That’s What Mama Say.wav

Peak level 94.4 %
Extraction speed 9.2 X
Track quality 100.0 %
Test CRC 1A9C7BD1
Copy CRC 1A9C7BD1
Track not present in AccurateRip database
Copy OK

Track 28

Filename D:\#cdr\#wav+flac\VA - Keeping The Faith\cd 1\28. Margo & The Marvettes - When Love Slips Away.wav

Peak level 92.2 %
Extraction speed 8.0 X
Track quality 99.9 %
Test CRC 4AD3B88B
Copy CRC 4AD3B88B
Track not present in AccurateRip database
Copy OK


None of the tracks are present in the AccurateRip database

No errors occurred

End of status report

–– CUETools DB Plugin V2.1.6

[CTDB TOCID: zhJ9QV06hLquFnmGIBJJWNrMN84-] disk not present in database
Submit result: zhJ9QV06hLquFnmGIBJJWNrMN84- has been uploaded


==== Log checksum 2C0A5371BCF9C33A0D724BD60C8C5EA547BE290CC0DAA0F2EB95BB82EF2C4396 ====

Exact Audio Copy V1.3 from 2. September 2016

EAC extraction logfile from 3. November 2019, 17:10

Various Artists / Keeping The Faith

Used drive : PLEXTOR PX-891SAF Adapter: 1 ID: 0

Read mode : Secure
Utilize accurate stream : Yes
Defeat audio cache : Yes
Make use of C2 pointers : No

Read offset correction : 6
Overread into Lead-In and Lead-Out : No
Fill up missing offset samples with silence : Yes
Delete leading and trailing silent blocks : No
Null samples used in CRC calculations : Yes
Used interface : Native Win32 interface for Win NT & 2000
Gap handling : Appended to previous track

Used output format : User Defined Encoder
Selected bitrate : 1024 kBit/s
Quality : High
Add ID3 tag : No
Command line compressor : C:\Program Files (x86)\Exact Audio Copy\Flac\flac.exe
Additional command line options : -8 -V -T "ARTIST=%artist%" -T "TITLE=%title%" -T "ALBUM=%albumtitle%" -T "DATE=%year%" -T "TRACKNUMBER=%tracknr%" -T "GENRE=%genre%" -T "PERFORMER=%albuminterpret%" -T "COMPOSER=%composer%" %haslyrics%–tag-from-file=LYRICS="%lyricsfile%"%haslyrics% -T "ALBUMARTIST=%albumartist%" -T "DISCNUMBER=%cdnumber%" -T "TOTALDISCS=%totalcds%" -T "TOTALTRACKS=%numtracks%" -T "COMMENT=%comment%" %source% -o %dest%


TOC of the extracted CD

Track | Start | Length | Start sector | End sector
––––––––––––––––––––––––––––-
1 | 0:00.00 | 3:32.67 | 0 | 15966
2 | 3:32.67 | 3:30.42 | 15967 | 31758
3 | 7:03.34 | 3:05.73 | 31759 | 45706
4 | 10:09.32 | 4:09.13 | 45707 | 64394
5 | 14:18.45 | 3:14.58 | 64395 | 79002
6 | 17:33.28 | 3:09.29 | 79003 | 93206
7 | 20:42.57 | 3:19.02 | 93207 | 108133
8 | 24:01.59 | 4:32.58 | 108134 | 128591
9 | 28:34.42 | 2:38.00 | 128592 | 140441
10 | 31:12.42 | 3:20.70 | 140442 | 155511
11 | 34:33.37 | 3:42.28 | 155512 | 172189
12 | 38:15.65 | 3:22.03 | 172190 | 187342
13 | 41:37.68 | 2:42.58 | 187343 | 199550
14 | 44:20.51 | 2:27.29 | 199551 | 210604
15 | 46:48.05 | 4:15.47 | 210605 | 229776
16 | 51:03.52 | 5:45.68 | 229777 | 255719
17 | 56:49.45 | 5:13.31 | 255720 | 279225
18 | 62:03.01 | 3:11.71 | 279226 | 293621
19 | 65:14.72 | 5:07.73 | 293622 | 316719
20 | 70:22.70 | 2:39.38 | 316720 | 328682
21 | 73:02.33 | 2:39.64 | 328683 | 340671


Track 1

Filename D:\#cdr\#wav+flac\VA - Keeping The Faith\cd 2\01. Larry Saunders - On The Real Side.wav

Pre-gap length 0:00:02.00

Peak level 94.4 %
Extraction speed 5.3 X
Track quality 100.0 %
Test CRC 0177303D
Copy CRC 0177303D
Track not present in AccurateRip database
Copy OK

Track 2

Filename D:\#cdr\#wav+flac\VA - Keeping The Faith\cd 2\02. The Carstairs - It Really Hurts Me Girl.wav

Peak level 85.1 %
Extraction speed 5.8 X
Track quality 100.0 %
Test CRC E8CE7C67
Copy CRC E8CE7C67
Track not present in AccurateRip database
Copy OK

Track 3

Filename D:\#cdr\#wav+flac\VA - Keeping The Faith\cd 2\03. Crown Heights Affair - Dreaming A Dream.wav

Peak level 94.4 %
Extraction speed 6.1 X
Track quality 100.0 %
Test CRC 0E23FE4C
Copy CRC 0E23FE4C
Track not present in AccurateRip database
Copy OK

Track 4

Filename D:\#cdr\#wav+flac\VA - Keeping The Faith\cd 2\04. Pat Lundy - Party Music.wav

Peak level 94.4 %
Extraction speed 6.7 X
Track quality 100.0 %
Test CRC 5BB5F644
Copy CRC 5BB5F644
Track not present in AccurateRip database
Copy OK

Track 5

Filename D:\#cdr\#wav+flac\VA - Keeping The Faith\cd 2\05. Derek Martin - Beautiful Woman.wav

Peak level 94.4 %
Extraction speed 6.8 X
Track quality 100.0 %
Test CRC EFF7F8AB
Copy CRC EFF7F8AB
Track not present in AccurateRip database
Copy OK

Track 6

Filename D:\#cdr\#wav+flac\VA - Keeping The Faith\cd 2\06. Street People - You’re My One Weakness Girl.wav

Peak level 85.1 %
Extraction speed 7.2 X
Track quality 100.0 %
Test CRC AA8C3408
Copy CRC AA8C3408
Track not present in AccurateRip database
Copy OK

Track 7

Filename D:\#cdr\#wav+flac\VA - Keeping The Faith\cd 2\07. Brother To Brother - In The Bottle.wav

Peak level 94.4 %
Extraction speed 7.5 X
Track quality 100.0 %
Test CRC 03343631
Copy CRC 03343631
Track not present in AccurateRip database
Copy OK

Track 8

Filename D:\#cdr\#wav+flac\VA - Keeping The Faith\cd 2\08. The Moments - Nine Times.wav

Peak level 100.0 %
Extraction speed 8.1 X
Track quality 100.0 %
Test CRC C11D96FC
Copy CRC C11D96FC
Track not present in AccurateRip database
Copy OK

Track 9

Filename D:\#cdr\#wav+flac\VA - Keeping The Faith\cd 2\09. Carl Douglas - I Want To Give You My Everything.wav

Peak level 87.1 %
Extraction speed 6.1 X
Track quality 99.9 %
Test CRC FF0183FF
Copy CRC FF0183FF
Track not present in AccurateRip database
Copy OK

Track 10

Filename D:\#cdr\#wav+flac\VA - Keeping The Faith\cd 2\10. Soul Train Gang - Country Girl.wav

Peak level 94.4 %
Extraction speed 8.3 X
Track quality 100.0 %
Test CRC 236B446F
Copy CRC 236B446F
Track not present in AccurateRip database
Copy OK

Track 11

Filename D:\#cdr\#wav+flac\VA - Keeping The Faith\cd 2\11. Baltimore First Class - Filled With Desire.wav

Peak level 94.4 %
Extraction speed 8.8 X
Track quality 100.0 %
Test CRC B1067046
Copy CRC B1067046
Track not present in AccurateRip database
Copy OK

Track 12

Filename D:\#cdr\#wav+flac\VA - Keeping The Faith\cd 2\12. Retta Young - My Man Is On His Way.wav

Peak level 94.4 %
Extraction speed 8.8 X
Track quality 100.0 %
Test CRC BAD0722C
Copy CRC BAD0722C
Track not present in AccurateRip database
Copy OK

Track 13

Filename D:\#cdr\#wav+flac\VA - Keeping The Faith\cd 2\13. The Moments - I Got The Need.wav

Peak level 94.4 %
Extraction speed 8.6 X
Track quality 100.0 %
Test CRC 7F7BB659
Copy CRC 7F7BB659
Track not present in AccurateRip database
Copy OK

Track 14

Filename D:\#cdr\#wav+flac\VA - Keeping The Faith\cd 2\14. Jeannie Napoli - Forget That Girl.wav

Peak level 88.9 %
Extraction speed 6.4 X
Track quality 99.9 %
Test CRC D46BAB46
Copy CRC D46BAB46
Track not present in AccurateRip database
Copy OK

Track 15

Filename D:\#cdr\#wav+flac\VA - Keeping The Faith\cd 2\15. Universal Mind - Something Fishy Is Going On.wav

Peak level 94.4 %
Extraction speed 8.0 X
Track quality 99.9 %
Test CRC 0C501882
Copy CRC 0C501882
Track not present in AccurateRip database
Copy OK

Track 16

Filename D:\#cdr\#wav+flac\VA - Keeping The Faith\cd 2\16. Crown Heights Affair - Every Beat Of My Heart (New Disco Version).wav

Peak level 94.4 %
Extraction speed 8.9 X
Track quality 99.9 %
Test CRC 2EA4A23E
Copy CRC 2EA4A23E
Track not present in AccurateRip database
Copy OK

Track 17

Filename D:\#cdr\#wav+flac\VA - Keeping The Faith\cd 2\17. Benny Troy - I Wanna Give You Tomorrow.wav

Peak level 94.4 %
Extraction speed 9.0 X
Track quality 99.9 %
Test CRC 86A25C41
Copy CRC 86A25C41
Track not present in AccurateRip database
Copy OK

Track 18

Filename D:\#cdr\#wav+flac\VA - Keeping The Faith\cd 2\18. Duprees - Check Yourself.wav

Peak level 94.4 %
Extraction speed 10.2 X
Track quality 100.0 %
Test CRC B1B15A70
Copy CRC B1B15A70
Track not present in AccurateRip database
Copy OK

Track 19

Filename D:\#cdr\#wav+flac\VA - Keeping The Faith\cd 2\19. Carrie Lucas - I Gotta Keep Dancing.wav

Peak level 96.4 %
Extraction speed 11.0 X
Track quality 100.0 %
Test CRC DF78B0A5
Copy CRC DF78B0A5
Track not present in AccurateRip database
Copy OK

Track 20

Filename D:\#cdr\#wav+flac\VA - Keeping The Faith\cd 2\20. Festivals - Gee Baby.wav

Peak level 94.4 %
Extraction speed 10.2 X
Track quality 100.0 %
Test CRC 4CF9C64C
Copy CRC 4CF9C64C
Track not present in AccurateRip database
Copy OK

Track 21

Filename D:\#cdr\#wav+flac\VA - Keeping The Faith\cd 2\21. Mother Freedom Band - Beautiful Summers Day.wav

Peak level 94.4 %
Extraction speed 10.2 X
Track quality 100.0 %
Test CRC 54CB3DB2
Copy CRC 54CB3DB2
Track not present in AccurateRip database
Copy OK


None of the tracks are present in the AccurateRip database

No errors occurred

End of status report

–– CUETools DB Plugin V2.1.6

[CTDB TOCID: LL6Lu_rydKXhdZeLrBhf47RGNY0-] disk not present in database
Submit result: LL6Lu_rydKXhdZeLrBhf47RGNY0- has been uploaded


==== Log checksum 8DA9D7863DD03DC28BD6CB7CC5A70EEAD51E4EE182CDA7BBC640BF3387FB2EAA ====

––––––––––––––––––––––––––––––

Exact Audio Copy V1.3 from 2. September 2016

EAC extraction logfile from 3. November 2019, 17:11

Various Artists / Keeping The Faith

Used drive : PLEXTOR PX-891SAF Adapter: 1 ID: 0

Read mode : Secure
Utilize accurate stream : Yes
Defeat audio cache : Yes
Make use of C2 pointers : No

Read offset correction : 6
Overread into Lead-In and Lead-Out : No
Fill up missing offset samples with silence : Yes
Delete leading and trailing silent blocks : No
Null samples used in CRC calculations : Yes
Used interface : Native Win32 interface for Win NT & 2000
Gap handling : Appended to previous track

Used output format : User Defined Encoder
Selected bitrate : 1024 kBit/s
Quality : High
Add ID3 tag : No
Command line compressor : C:\Program Files (x86)\Exact Audio Copy\Flac\flac.exe
Additional command line options : -8 -V -T "ARTIST=%artist%" -T "TITLE=%title%" -T "ALBUM=%albumtitle%" -T "DATE=%year%" -T "TRACKNUMBER=%tracknr%" -T "GENRE=%genre%" -T "PERFORMER=%albuminterpret%" -T "COMPOSER=%composer%" %haslyrics%–tag-from-file=LYRICS="%lyricsfile%"%haslyrics% -T "ALBUMARTIST=%albumartist%" -T "DISCNUMBER=%cdnumber%" -T "TOTALDISCS=%totalcds%" -T "TOTALTRACKS=%numtracks%" -T "COMMENT=%comment%" %source% -o %dest%


TOC of the extracted CD

Track | Start | Length | Start sector | End sector
––––––––––––––––––––––––––––-
1 | 0:00.00 | 3:32.67 | 0 | 15966
2 | 3:32.67 | 3:30.42 | 15967 | 31758
3 | 7:03.34 | 3:05.73 | 31759 | 45706
4 | 10:09.32 | 4:09.13 | 45707 | 64394
5 | 14:18.45 | 3:14.58 | 64395 | 79002
6 | 17:33.28 | 3:09.29 | 79003 | 93206
7 | 20:42.57 | 3:19.02 | 93207 | 108133
8 | 24:01.59 | 4:32.58 | 108134 | 128591
9 | 28:34.42 | 2:38.00 | 128592 | 140441
10 | 31:12.42 | 3:20.70 | 140442 | 155511
11 | 34:33.37 | 3:42.28 | 155512 | 172189
12 | 38:15.65 | 3:22.03 | 172190 | 187342
13 | 41:37.68 | 2:42.58 | 187343 | 199550
14 | 44:20.51 | 2:27.29 | 199551 | 210604
15 | 46:48.05 | 4:15.47 | 210605 | 229776
16 | 51:03.52 | 5:45.68 | 229777 | 255719
17 | 56:49.45 | 5:13.31 | 255720 | 279225
18 | 62:03.01 | 3:11.71 | 279226 | 293621
19 | 65:14.72 | 5:07.73 | 293622 | 316719
20 | 70:22.70 | 2:39.38 | 316720 | 328682
21 | 73:02.33 | 2:39.64 | 328683 | 340671


Track 1

Filename D:\#cdr\#wav+flac\VA - Keeping The Faith\cd 2\01. Larry Saunders - On The Real Side.wav

Pre-gap length 0:00:02.00

Peak level 94.4 %
Extraction speed 5.3 X
Track quality 100.0 %
Test CRC 0177303D
Copy CRC 0177303D
Track not present in AccurateRip database
Copy OK

Track 2

Filename D:\#cdr\#wav+flac\VA - Keeping The Faith\cd 2\02. The Carstairs - It Really Hurts Me Girl.wav

Peak level 85.1 %
Extraction speed 5.8 X
Track quality 100.0 %
Test CRC E8CE7C67
Copy CRC E8CE7C67
Track not present in AccurateRip database
Copy OK

Track 3

Filename D:\#cdr\#wav+flac\VA - Keeping The Faith\cd 2\03. Crown Heights Affair - Dreaming A Dream.wav

Peak level 94.4 %
Extraction speed 6.1 X
Track quality 100.0 %
Test CRC 0E23FE4C
Copy CRC 0E23FE4C
Track not present in AccurateRip database
Copy OK

Track 4

Filename D:\#cdr\#wav+flac\VA - Keeping The Faith\cd 2\04. Pat Lundy - Party Music.wav

Peak level 94.4 %
Extraction speed 6.7 X
Track quality 100.0 %
Test CRC 5BB5F644
Copy CRC 5BB5F644
Track not present in AccurateRip database
Copy OK

Track 5

Filename D:\#cdr\#wav+flac\VA - Keeping The Faith\cd 2\05. Derek Martin - Beautiful Woman.wav

Peak level 94.4 %
Extraction speed 6.8 X
Track quality 100.0 %
Test CRC EFF7F8AB
Copy CRC EFF7F8AB
Track not present in AccurateRip database
Copy OK

Track 6

Filename D:\#cdr\#wav+flac\VA - Keeping The Faith\cd 2\06. Street People - You’re My One Weakness Girl.wav

Peak level 85.1 %
Extraction speed 7.2 X
Track quality 100.0 %
Test CRC AA8C3408
Copy CRC AA8C3408
Track not present in AccurateRip database
Copy OK

Track 7

Filename D:\#cdr\#wav+flac\VA - Keeping The Faith\cd 2\07. Brother To Brother - In The Bottle.wav

Peak level 94.4 %
Extraction speed 7.5 X
Track quality 100.0 %
Test CRC 03343631
Copy CRC 03343631
Track not present in AccurateRip database
Copy OK

Track 8

Filename D:\#cdr\#wav+flac\VA - Keeping The Faith\cd 2\08. The Moments - Nine Times.wav

Peak level 100.0 %
Extraction speed 8.1 X
Track quality 100.0 %
Test CRC C11D96FC
Copy CRC C11D96FC
Track not present in AccurateRip database
Copy OK

Track 9

Filename D:\#cdr\#wav+flac\VA - Keeping The Faith\cd 2\09. Carl Douglas - I Want To Give You My Everything.wav

Peak level 87.1 %
Extraction speed 6.1 X
Track quality 99.9 %
Test CRC FF0183FF
Copy CRC FF0183FF
Track not present in AccurateRip database
Copy OK

Track 10

Filename D:\#cdr\#wav+flac\VA - Keeping The Faith\cd 2\10. Soul Train Gang - Country Girl.wav

Peak level 94.4 %
Extraction speed 8.3 X
Track quality 100.0 %
Test CRC 236B446F
Copy CRC 236B446F
Track not present in AccurateRip database
Copy OK

Track 11

Filename D:\#cdr\#wav+flac\VA - Keeping The Faith\cd 2\11. Baltimore First Class - Filled With Desire.wav

Peak level 94.4 %
Extraction speed 8.8 X
Track quality 100.0 %
Test CRC B1067046
Copy CRC B1067046
Track not present in AccurateRip database
Copy OK

Track 12

Filename D:\#cdr\#wav+flac\VA - Keeping The Faith\cd 2\12. Retta Young - My Man Is On His Way.wav

Peak level 94.4 %
Extraction speed 8.8 X
Track quality 100.0 %
Test CRC BAD0722C
Copy CRC BAD0722C
Track not present in AccurateRip database
Copy OK

Track 13

Filename D:\#cdr\#wav+flac\VA - Keeping The Faith\cd 2\13. The Moments - I Got The Need.wav

Peak level 94.4 %
Extraction speed 8.6 X
Track quality 100.0 %
Test CRC 7F7BB659
Copy CRC 7F7BB659
Track not present in AccurateRip database
Copy OK

Track 14

Filename D:\#cdr\#wav+flac\VA - Keeping The Faith\cd 2\14. Jeannie Napoli - Forget That Girl.wav

Peak level 88.9 %
Extraction speed 6.4 X
Track quality 99.9 %
Test CRC D46BAB46
Copy CRC D46BAB46
Track not present in AccurateRip database
Copy OK

Track 15

Filename D:\#cdr\#wav+flac\VA - Keeping The Faith\cd 2\15. Universal Mind - Something Fishy Is Going On.wav

Peak level 94.4 %
Extraction speed 8.0 X
Track quality 99.9 %
Test CRC 0C501882
Copy CRC 0C501882
Track not present in AccurateRip database
Copy OK

Track 16

Filename D:\#cdr\#wav+flac\VA - Keeping The Faith\cd 2\16. Crown Heights Affair - Every Beat Of My Heart (New Disco Version).wav

Peak level 94.4 %
Extraction speed 8.9 X
Track quality 99.9 %
Test CRC 2EA4A23E
Copy CRC 2EA4A23E
Track not present in AccurateRip database
Copy OK

Track 17

Filename D:\#cdr\#wav+flac\VA - Keeping The Faith\cd 2\17. Benny Troy - I Wanna Give You Tomorrow.wav

Peak level 94.4 %
Extraction speed 9.0 X
Track quality 99.9 %
Test CRC 86A25C41
Copy CRC 86A25C41
Track not present in AccurateRip database
Copy OK

Track 18

Filename D:\#cdr\#wav+flac\VA - Keeping The Faith\cd 2\18. Duprees - Check Yourself.wav

Peak level 94.4 %
Extraction speed 10.2 X
Track quality 100.0 %
Test CRC B1B15A70
Copy CRC B1B15A70
Track not present in AccurateRip database
Copy OK

Track 19

Filename D:\#cdr\#wav+flac\VA - Keeping The Faith\cd 2\19. Carrie Lucas - I Gotta Keep Dancing.wav

Peak level 96.4 %
Extraction speed 11.0 X
Track quality 100.0 %
Test CRC DF78B0A5
Copy CRC DF78B0A5
Track not present in AccurateRip database
Copy OK

Track 20

Filename D:\#cdr\#wav+flac\VA - Keeping The Faith\cd 2\20. Festivals - Gee Baby.wav

Peak level 94.4 %
Extraction speed 10.2 X
Track quality 100.0 %
Test CRC 4CF9C64C
Copy CRC 4CF9C64C
Track not present in AccurateRip database
Copy OK

Track 21

Filename D:\#cdr\#wav+flac\VA - Keeping The Faith\cd 2\21. Mother Freedom Band - Beautiful Summers Day.wav

Peak level 94.4 %
Extraction speed 10.2 X
Track quality 100.0 %
Test CRC 54CB3DB2
Copy CRC 54CB3DB2
Track not present in AccurateRip database
Copy OK


None of the tracks are present in the AccurateRip database

No errors occurred

End of status report

–– CUETools DB Plugin V2.1.6

[CTDB TOCID: LL6Lu_rydKXhdZeLrBhf47RGNY0-] disk not present in database
Submit result: LL6Lu_rydKXhdZeLrBhf47RGNY0- has been uploaded


==== Log checksum 265D6DCD76D5EB937D974420F24316F4CDBAF6B51EB44B038B11755DE71C5310 ====