Subcategories

VA - Life Is Music 2018.1 (2018)

Posted By: ciklon5
VA - Life Is Music 2018.1 (2018)

VA - Life Is Music 2018.1 (2018)
FLAC (tracks+cue+log) / MP3 320 kbps | 2:30:50 | 894 Mb / 341 Mb
Genre: Pop, Rock, Breakbeat, House, Dance / Label: Universal Music Belgium

Studio Brussel presenteert met trots de eerste "Life Is Music"-compilatie van 2018, met alle highlights uit de fel gesmaakte Stubru-playlist van dit jaar. Met onder meer: Sofi Tukker, The war On Drugs, Post Malone, Years & Years, Eels, Milo Meskens, The Chainsmokers, Nathaniel Rateliff, Editors, Claptone, Imagine Dragons en veel meer….

Track List:

CD1:
01. Magazine : Editors [00:03:55]
02. You Worry Me : Nathaniel Rateliff & The Night Sweats [00:03:33]
03. Strangest Thing : The War On Drugs [00:06:37]
04. Stone Cold Liar : Milo Meskens [00:03:13]
05. Next To Me : Imagine Dragons [00:03:50]
06. Today Is The Day : Eels [00:03:01]
07. Matilda : Portland [00:04:05]
08. Dancing After All : Faces On Tv [00:03:13]
09. I Love You, Will You Marry Me : Yungblud [00:02:58]
10. Need Your Love : Jasper Steverlinck [00:04:02]
11. Wild Love : James Bay [00:03:16]
12. Bugatti : Glints [00:03:28]
13. Swangin' : Blackwave [00:03:01]
14. After The Storm : Kali Uchis Feat. Tyler, The Creator, WRZmusic & Bootsy Collins [00:03:26]
15. Gucci Gang : Lil Pump [00:02:05]
16. Lenita : Roméo Elvis & Le Motel [00:03:33]
17. Cool Kids : Todiefor Feat. Caballero & Jeanjass, Alex Lucas & Anser [00:02:54]
18. Las Vegas : The Magician Feat. Ebenezer [00:03:41]
19. Blame : Amery [00:02:45]
20. Alleen : Lil Kleine [00:03:18]
21. Sick Boy : The Chainsmokers [00:03:12]

CD2:
01. Best Friend : Sofi Tukker Feat. Nervo, The Knocks & Alisa Ueno [00:03:03]
02. Bum Bum Tam Tam : Mc Fioti, Future, J. Balvin, Stefflon Don & Juan Magan [00:03:34]
03. Psycho : Post Malone Feat. Ty Dolla $ign [00:03:40]
04. Je Veux Tes Yeux : Angèle [00:03:24]
05. Sanctify : Years & Years [00:03:11]
06. Glue : Bicep [00:04:31]
07. In The Night : Claptone Feat. Ben Duffy [00:02:58]
08. Crazy : Lost Frequencies &Zonderling [00:02:31]
09. Worry No More : Diplo Feat. Lil Yachty & Santigold [00:03:21]
10. Leuk : De Jeugd Van Tegenwoordig [00:02:54]
11. Miss You : Cashmere Cat, Major Lazer & Tory Lanez [00:03:05]
12. Take It Up : Wilkinson & Sub Focus [00:03:02]
13. Ja! : Bizzey Feat. Kraantje Pappie, Chivy & Yung Felix [00:03:03]
14. Bam! : 'T Hof Van Commerce [00:03:33]
15. You Got To Show Me : Thecolorgrey [00:03:32]
16. Headlights : The Lighthouse [00:03:19]
17. Golden Sky : Absynthe Minded [00:03:31]
18. A Boat To An Island On The Wall : Ben Howard [00:07:09]
19. Ready Made Wild Life : The Van Jets [00:04:05]
20. Too Good At Goodbyes : Sam Smith [00:03:22]
21. Promise : Warhola [00:03:31]
22. Leave A Light On : Tom Walker [00:03:02]

Exact Audio Copy V1.3 from 2. September 2016

EAC extraction logfile from 6. July 2018, 11:38

Various / Life Is Music 2018.1

Used drive : PLEXTOR PX-891SAF Adapter: 1 ID: 0

Read mode : Secure
Utilize accurate stream : Yes
Defeat audio cache : Yes
Make use of C2 pointers : No

Read offset correction : 6
Overread into Lead-In and Lead-Out : No
Fill up missing offset samples with silence : Yes
Delete leading and trailing silent blocks : No
Null samples used in CRC calculations : Yes
Used interface : Native Win32 interface for Win NT & 2000
Gap handling : Appended to previous track

Used output format : User Defined Encoder
Selected bitrate : 1024 kBit/s
Quality : High
Add ID3 tag : No
Command line compressor : C:\Program Files (x86)\Exact Audio Copy\Flac\flac.exe
Additional command line options : -8 -V -T "ARTIST=%artist%" -T "TITLE=%title%" -T "ALBUM=%albumtitle%" -T "DATE=%year%" -T "TRACKNUMBER=%tracknr%" -T "GENRE=%genre%" -T "PERFORMER=%albuminterpret%" -T "COMPOSER=%composer%" %haslyrics%–tag-from-file=LYRICS="%lyricsfile%"%haslyrics% -T "ALBUMARTIST=%albumartist%" -T "DISCNUMBER=%cdnumber%" -T "TOTALDISCS=%totalcds%" -T "TOTALTRACKS=%numtracks%" -T "COMMENT=%comment%" %source% -o %dest%


TOC of the extracted CD

Track | Start | Length | Start sector | End sector
––––––––––––––––––––––––––––-
1 | 0:00.00 | 3:55.07 | 0 | 17631
2 | 3:55.07 | 3:33.60 | 17632 | 33666
3 | 7:28.67 | 6:37.33 | 33667 | 63474
4 | 14:06.25 | 3:13.59 | 63475 | 78008
5 | 17:20.09 | 3:50.13 | 78009 | 95271
6 | 21:10.22 | 3:01.41 | 95272 | 108887
7 | 24:11.63 | 4:05.53 | 108888 | 127315
8 | 28:17.41 | 3:13.69 | 127316 | 141859
9 | 31:31.35 | 2:58.24 | 141860 | 155233
10 | 34:29.59 | 4:02.31 | 155234 | 173414
11 | 38:32.15 | 3:16.52 | 173415 | 188166
12 | 41:48.67 | 3:28.18 | 188167 | 203784
13 | 45:17.10 | 3:01.10 | 203785 | 217369
14 | 48:18.20 | 3:26.58 | 217370 | 232877
15 | 51:45.03 | 2:05.50 | 232878 | 242302
16 | 53:50.53 | 3:33.00 | 242303 | 258277
17 | 57:23.53 | 2:54.61 | 258278 | 271388
18 | 60:18.39 | 3:41.65 | 271389 | 288028
19 | 64:00.29 | 2:45.62 | 288029 | 300465
20 | 66:46.16 | 3:18.32 | 300466 | 315347
21 | 70:04.48 | 3:12.13 | 315348 | 329760


Track 1

Filename I:\#New Rips + FLAC\VA - Life Is Music 2018 vol 1\cd 1\01. Magazine - Editors.wav

Pre-gap length 0:00:02.00

Peak level 47.8 %
Extraction speed 5.6 X
Track quality 100.0 %
Test CRC 3F2FB370
Copy CRC 3F2FB370
Track not present in AccurateRip database
Copy OK

Track 2

Filename I:\#New Rips + FLAC\VA - Life Is Music 2018 vol 1\cd 1\02. You Worry Me - Nathaniel Rateliff & The Night Sweats.wav

Pre-gap length 0:00:02.00

Peak level 58.2 %
Extraction speed 5.0 X
Track quality 99.9 %
Test CRC 4478B7B6
Copy CRC 4478B7B6
Track not present in AccurateRip database
Copy OK

Track 3

Filename I:\#New Rips + FLAC\VA - Life Is Music 2018 vol 1\cd 1\03. Strangest Thing - The War On Drugs.wav

Pre-gap length 0:00:02.00

Peak level 52.0 %
Extraction speed 7.1 X
Track quality 100.0 %
Test CRC C834C733
Copy CRC C834C733
Track not present in AccurateRip database
Copy OK

Track 4

Filename I:\#New Rips + FLAC\VA - Life Is Music 2018 vol 1\cd 1\04. Stone Cold Liar - Milo Meskens.wav

Pre-gap length 0:00:01.98

Peak level 58.2 %
Extraction speed 7.0 X
Track quality 100.0 %
Test CRC EA2BE894
Copy CRC EA2BE894
Track not present in AccurateRip database
Copy OK

Track 5

Filename I:\#New Rips + FLAC\VA - Life Is Music 2018 vol 1\cd 1\05. Next To Me - Imagine Dragons.wav

Pre-gap length 0:00:02.00

Peak level 51.2 %
Extraction speed 7.5 X
Track quality 100.0 %
Test CRC 78443A26
Copy CRC 78443A26
Track not present in AccurateRip database
Copy OK

Track 6

Filename I:\#New Rips + FLAC\VA - Life Is Music 2018 vol 1\cd 1\06. Today Is The Day - Eels.wav

Pre-gap length 0:00:02.00

Peak level 57.5 %
Extraction speed 7.5 X
Track quality 100.0 %
Test CRC B57F9BCF
Copy CRC B57F9BCF
Track not present in AccurateRip database
Copy OK

Track 7

Filename I:\#New Rips + FLAC\VA - Life Is Music 2018 vol 1\cd 1\07. Matilda - Portland.wav

Pre-gap length 0:00:02.00

Peak level 98.8 %
Extraction speed 8.2 X
Track quality 100.0 %
Test CRC FF2BB173
Copy CRC FF2BB173
Track not present in AccurateRip database
Copy OK

Track 8

Filename I:\#New Rips + FLAC\VA - Life Is Music 2018 vol 1\cd 1\08. Dancing After All - Faces On Tv.wav

Pre-gap length 0:00:02.00

Peak level 57.5 %
Extraction speed 8.2 X
Track quality 100.0 %
Test CRC CAB792DF
Copy CRC CAB792DF
Track not present in AccurateRip database
Copy OK

Track 9

Filename I:\#New Rips + FLAC\VA - Life Is Music 2018 vol 1\cd 1\09. I Love You, Will You Marry Me - Yungblud.wav

Pre-gap length 0:00:02.00

Peak level 58.2 %
Extraction speed 8.3 X
Track quality 100.0 %
Test CRC 2752774E
Copy CRC 2752774E
Track not present in AccurateRip database
Copy OK

Track 10

Filename I:\#New Rips + FLAC\VA - Life Is Music 2018 vol 1\cd 1\10. Need Your Love - Jasper Steverlinck.wav

Pre-gap length 0:00:02.00

Peak level 95.5 %
Extraction speed 9.0 X
Track quality 100.0 %
Test CRC E7E634BA
Copy CRC E7E634BA
Track not present in AccurateRip database
Copy OK

Track 11

Filename I:\#New Rips + FLAC\VA - Life Is Music 2018 vol 1\cd 1\11. Wild Love - James Bay.wav

Pre-gap length 0:00:02.00

Peak level 60.9 %
Extraction speed 9.0 X
Track quality 100.0 %
Test CRC E8A9A5D5
Copy CRC E8A9A5D5
Track not present in AccurateRip database
Copy OK

Track 12

Filename I:\#New Rips + FLAC\VA - Life Is Music 2018 vol 1\cd 1\12. Bugatti - Glints.wav

Pre-gap length 0:00:02.00

Peak level 66.0 %
Extraction speed 9.3 X
Track quality 100.0 %
Test CRC C4567CB4
Copy CRC C4567CB4
Track not present in AccurateRip database
Copy OK

Track 13

Filename I:\#New Rips + FLAC\VA - Life Is Music 2018 vol 1\cd 1\13. Swangin' - Blackwave.wav

Pre-gap length 0:00:02.00

Peak level 73.2 %
Extraction speed 9.3 X
Track quality 100.0 %
Test CRC 9519D06A
Copy CRC 9519D06A
Track not present in AccurateRip database
Copy OK

Track 14

Filename I:\#New Rips + FLAC\VA - Life Is Music 2018 vol 1\cd 1\14. After The Storm - Kali Uchis Feat. Tyler, The Creator & Bootsy Collins.wav

Pre-gap length 0:00:02.00

Peak level 58.2 %
Extraction speed 9.7 X
Track quality 100.0 %
Test CRC 32991794
Copy CRC 32991794
Track not present in AccurateRip database
Copy OK

Track 15

Filename I:\#New Rips + FLAC\VA - Life Is Music 2018 vol 1\cd 1\15. Gucci Gang - Lil Pump.wav

Pre-gap length 0:00:02.00

Peak level 74.9 %
Extraction speed 9.0 X
Track quality 100.0 %
Test CRC 22A2CBAE
Copy CRC 22A2CBAE
Track not present in AccurateRip database
Copy OK

Track 16

Filename I:\#New Rips + FLAC\VA - Life Is Music 2018 vol 1\cd 1\16. Lenita - Roméo Elvis & Le Motel wrzmusic.wav

Pre-gap length 0:00:02.00

Peak level 73.2 %
Extraction speed 10.1 X
Track quality 100.0 %
Test CRC FB44074C
Copy CRC FB44074C
Track not present in AccurateRip database
Copy OK

Track 17

Filename I:\#New Rips + FLAC\VA - Life Is Music 2018 vol 1\cd 1\17. Cool Kids - Todiefor Feat. Caballero & Jeanjass, Alex Lucas & Anser.wav

Pre-gap length 0:00:02.00

Peak level 56.8 %
Extraction speed 10.1 X
Track quality 100.0 %
Test CRC 8CCE5D77
Copy CRC 8CCE5D77
Track not present in AccurateRip database
Copy OK

Track 18

Filename I:\#New Rips + FLAC\VA - Life Is Music 2018 vol 1\cd 1\18. Las Vegas - The Magician Feat. Ebenezer.wav

Pre-gap length 0:00:02.00

Peak level 68.3 %
Extraction speed 10.6 X
Track quality 100.0 %
Test CRC CFEA3A38
Copy CRC CFEA3A38
Track not present in AccurateRip database
Copy OK

Track 19

Filename I:\#New Rips + FLAC\VA - Life Is Music 2018 vol 1\cd 1\19. Blame - Amery.wav

Pre-gap length 0:00:02.00

Peak level 71.6 %
Extraction speed 10.4 X
Track quality 100.0 %
Test CRC 06220E10
Copy CRC 06220E10
Track not present in AccurateRip database
Copy OK

Track 20

Filename I:\#New Rips + FLAC\VA - Life Is Music 2018 vol 1\cd 1\20. Alleen - Lil Kleine.wav

Pre-gap length 0:00:02.00

Peak level 70.7 %
Extraction speed 10.8 X
Track quality 100.0 %
Test CRC D2DB880D
Copy CRC D2DB880D
Track not present in AccurateRip database
Copy OK

Track 21

Filename I:\#New Rips + FLAC\VA - Life Is Music 2018 vol 1\cd 1\21. Sick Boy - The Chainsmokers.wav

Pre-gap length 0:00:02.00

Peak level 74.9 %
Extraction speed 10.9 X
Track quality 100.0 %
Test CRC 6D2F7C60
Copy CRC 6D2F7C60
Track not present in AccurateRip database
Copy OK


None of the tracks are present in the AccurateRip database

No errors occurred

End of status report

–– CUETools DB Plugin V2.1.6

[CTDB TOCID: E0RPLuRkOBM8uZjgGB6XuJGutKE-] found
Submit result: E0RPLuRkOBM8uZjgGB6XuJGutKE- has been confirmed
Track | CTDB Status
1 | (4/4) Accurately ripped
2 | (4/4) Accurately ripped
3 | (4/4) Accurately ripped
4 | (4/4) Accurately ripped
5 | (4/4) Accurately ripped
6 | (4/4) Accurately ripped
7 | (4/4) Accurately ripped
8 | (4/4) Accurately ripped
9 | (4/4) Accurately ripped
10 | (4/4) Accurately ripped
11 | (4/4) Accurately ripped
12 | (4/4) Accurately ripped
13 | (4/4) Accurately ripped
14 | (4/4) Accurately ripped
15 | (4/4) Accurately ripped
16 | (4/4) Accurately ripped
17 | (4/4) Accurately ripped
18 | (4/4) Accurately ripped
19 | (4/4) Accurately ripped
20 | (4/4) Accurately ripped
21 | (4/4) Accurately ripped


==== Log checksum C9AAA7B6965F2453081964A33558F231E0C9A6316B4ADDC3FF581070BC60A028 ====

––––––––––––––––––––––––––––––

Exact Audio Copy V1.3 from 2. September 2016

EAC extraction logfile from 6. July 2018, 11:38

Various / Life Is Music 2018.1

Used drive : PLEXTOR PX-891SAF Adapter: 1 ID: 0

Read mode : Secure
Utilize accurate stream : Yes
Defeat audio cache : Yes
Make use of C2 pointers : No

Read offset correction : 6
Overread into Lead-In and Lead-Out : No
Fill up missing offset samples with silence : Yes
Delete leading and trailing silent blocks : No
Null samples used in CRC calculations : Yes
Used interface : Native Win32 interface for Win NT & 2000
Gap handling : Appended to previous track

Used output format : User Defined Encoder
Selected bitrate : 1024 kBit/s
Quality : High
Add ID3 tag : No
Command line compressor : C:\Program Files (x86)\Exact Audio Copy\Flac\flac.exe
Additional command line options : -8 -V -T "ARTIST=%artist%" -T "TITLE=%title%" -T "ALBUM=%albumtitle%" -T "DATE=%year%" -T "TRACKNUMBER=%tracknr%" -T "GENRE=%genre%" -T "PERFORMER=%albuminterpret%" -T "COMPOSER=%composer%" %haslyrics%–tag-from-file=LYRICS="%lyricsfile%"%haslyrics% -T "ALBUMARTIST=%albumartist%" -T "DISCNUMBER=%cdnumber%" -T "TOTALDISCS=%totalcds%" -T "TOTALTRACKS=%numtracks%" -T "COMMENT=%comment%" %source% -o %dest%


TOC of the extracted CD

Track | Start | Length | Start sector | End sector
––––––––––––––––––––––––––––-
1 | 0:00.00 | 3:55.07 | 0 | 17631
2 | 3:55.07 | 3:33.60 | 17632 | 33666
3 | 7:28.67 | 6:37.33 | 33667 | 63474
4 | 14:06.25 | 3:13.59 | 63475 | 78008
5 | 17:20.09 | 3:50.13 | 78009 | 95271
6 | 21:10.22 | 3:01.41 | 95272 | 108887
7 | 24:11.63 | 4:05.53 | 108888 | 127315
8 | 28:17.41 | 3:13.69 | 127316 | 141859
9 | 31:31.35 | 2:58.24 | 141860 | 155233
10 | 34:29.59 | 4:02.31 | 155234 | 173414
11 | 38:32.15 | 3:16.52 | 173415 | 188166
12 | 41:48.67 | 3:28.18 | 188167 | 203784
13 | 45:17.10 | 3:01.10 | 203785 | 217369
14 | 48:18.20 | 3:26.58 | 217370 | 232877
15 | 51:45.03 | 2:05.50 | 232878 | 242302
16 | 53:50.53 | 3:33.00 | 242303 | 258277
17 | 57:23.53 | 2:54.61 | 258278 | 271388
18 | 60:18.39 | 3:41.65 | 271389 | 288028
19 | 64:00.29 | 2:45.62 | 288029 | 300465
20 | 66:46.16 | 3:18.32 | 300466 | 315347
21 | 70:04.48 | 3:12.13 | 315348 | 329760


Track 1

Filename I:\#New Rips + FLAC\VA - Life Is Music 2018 vol 1\cd 1\01. Magazine - Editors.wav

Pre-gap length 0:00:02.00

Peak level 47.8 %
Extraction speed 5.6 X
Track quality 100.0 %
Test CRC 3F2FB370
Copy CRC 3F2FB370
Track not present in AccurateRip database
Copy OK

Track 2

Filename I:\#New Rips + FLAC\VA - Life Is Music 2018 vol 1\cd 1\02. You Worry Me - Nathaniel Rateliff & The Night Sweats.wav

Pre-gap length 0:00:02.00

Peak level 58.2 %
Extraction speed 5.0 X
Track quality 99.9 %
Test CRC 4478B7B6
Copy CRC 4478B7B6
Track not present in AccurateRip database
Copy OK

Track 3

Filename I:\#New Rips + FLAC\VA - Life Is Music 2018 vol 1\cd 1\03. Strangest Thing - The War On Drugs.wav

Pre-gap length 0:00:02.00

Peak level 52.0 %
Extraction speed 7.1 X
Track quality 100.0 %
Test CRC C834C733
Copy CRC C834C733
Track not present in AccurateRip database
Copy OK

Track 4

Filename I:\#New Rips + FLAC\VA - Life Is Music 2018 vol 1\cd 1\04. Stone Cold Liar - Milo Meskens.wav

Pre-gap length 0:00:01.98

Peak level 58.2 %
Extraction speed 7.0 X
Track quality 100.0 %
Test CRC EA2BE894
Copy CRC EA2BE894
Track not present in AccurateRip database
Copy OK

Track 5

Filename I:\#New Rips + FLAC\VA - Life Is Music 2018 vol 1\cd 1\05. Next To Me - Imagine Dragons.wav

Pre-gap length 0:00:02.00

Peak level 51.2 %
Extraction speed 7.5 X
Track quality 100.0 %
Test CRC 78443A26
Copy CRC 78443A26
Track not present in AccurateRip database
Copy OK

Track 6

Filename I:\#New Rips + FLAC\VA - Life Is Music 2018 vol 1\cd 1\06. Today Is The Day - Eels.wav

Pre-gap length 0:00:02.00

Peak level 57.5 %
Extraction speed 7.5 X
Track quality 100.0 %
Test CRC B57F9BCF
Copy CRC B57F9BCF
Track not present in AccurateRip database
Copy OK

Track 7

Filename I:\#New Rips + FLAC\VA - Life Is Music 2018 vol 1\cd 1\07. Matilda - Portland.wav

Pre-gap length 0:00:02.00

Peak level 98.8 %
Extraction speed 8.2 X
Track quality 100.0 %
Test CRC FF2BB173
Copy CRC FF2BB173
Track not present in AccurateRip database
Copy OK

Track 8

Filename I:\#New Rips + FLAC\VA - Life Is Music 2018 vol 1\cd 1\08. Dancing After All - Faces On Tv.wav

Pre-gap length 0:00:02.00

Peak level 57.5 %
Extraction speed 8.2 X
Track quality 100.0 %
Test CRC CAB792DF
Copy CRC CAB792DF
Track not present in AccurateRip database
Copy OK

Track 9

Filename I:\#New Rips + FLAC\VA - Life Is Music 2018 vol 1\cd 1\09. I Love You, Will You Marry Me - Yungblud.wav

Pre-gap length 0:00:02.00

Peak level 58.2 %
Extraction speed 8.3 X
Track quality 100.0 %
Test CRC 2752774E
Copy CRC 2752774E
Track not present in AccurateRip database
Copy OK

Track 10

Filename I:\#New Rips + FLAC\VA - Life Is Music 2018 vol 1\cd 1\10. Need Your Love - Jasper Steverlinck.wav

Pre-gap length 0:00:02.00

Peak level 95.5 %
Extraction speed 9.0 X
Track quality 100.0 %
Test CRC E7E634BA
Copy CRC E7E634BA
Track not present in AccurateRip database
Copy OK

Track 11

Filename I:\#New Rips + FLAC\VA - Life Is Music 2018 vol 1\cd 1\11. Wild Love - James Bay.wav

Pre-gap length 0:00:02.00

Peak level 60.9 %
Extraction speed 9.0 X
Track quality 100.0 %
Test CRC E8A9A5D5
Copy CRC E8A9A5D5
Track not present in AccurateRip database
Copy OK

Track 12

Filename I:\#New Rips + FLAC\VA - Life Is Music 2018 vol 1\cd 1\12. Bugatti - Glints.wav

Pre-gap length 0:00:02.00

Peak level 66.0 %
Extraction speed 9.3 X
Track quality 100.0 %
Test CRC C4567CB4
Copy CRC C4567CB4
Track not present in AccurateRip database
Copy OK

Track 13

Filename I:\#New Rips + FLAC\VA - Life Is Music 2018 vol 1\cd 1\13. Swangin' - Blackwave.wav

Pre-gap length 0:00:02.00

Peak level 73.2 %
Extraction speed 9.3 X
Track quality 100.0 %
Test CRC 9519D06A
Copy CRC 9519D06A
Track not present in AccurateRip database
Copy OK

Track 14

Filename I:\#New Rips + FLAC\VA - Life Is Music 2018 vol 1\cd 1\14. After The Storm - Kali Uchis Feat. Tyler, The Creator & Bootsy Collins.wav

Pre-gap length 0:00:02.00

Peak level 58.2 %
Extraction speed 9.7 X
Track quality 100.0 %
Test CRC 32991794
Copy CRC 32991794
Track not present in AccurateRip database
Copy OK

Track 15

Filename I:\#New Rips + FLAC\VA - Life Is Music 2018 vol 1\cd 1\15. Gucci Gang - Lil Pump.wav

Pre-gap length 0:00:02.00

Peak level 74.9 %
Extraction speed 9.0 X
Track quality 100.0 %
Test CRC 22A2CBAE
Copy CRC 22A2CBAE
Track not present in AccurateRip database
Copy OK

Track 16

Filename I:\#New Rips + FLAC\VA - Life Is Music 2018 vol 1\cd 1\16. Lenita - Roméo Elvis & Le Motel.wav

Pre-gap length 0:00:02.00

Peak level 73.2 %
Extraction speed 10.1 X
Track quality 100.0 %
Test CRC FB44074C
Copy CRC FB44074C
Track not present in AccurateRip database
Copy OK

Track 17

Filename I:\#New Rips + FLAC\VA - Life Is Music 2018 vol 1\cd 1\17. Cool Kids - Todiefor Feat. Caballero & Jeanjass, Alex Lucas & Anser.wav

Pre-gap length 0:00:02.00

Peak level 56.8 %
Extraction speed 10.1 X
Track quality 100.0 %
Test CRC 8CCE5D77
Copy CRC 8CCE5D77
Track not present in AccurateRip database
Copy OK

Track 18

Filename I:\#New Rips + FLAC\VA - Life Is Music 2018 vol 1\cd 1\18. Las Vegas - The Magician Feat. Ebenezer.wav

Pre-gap length 0:00:02.00

Peak level 68.3 %
Extraction speed 10.6 X
Track quality 100.0 %
Test CRC CFEA3A38
Copy CRC CFEA3A38
Track not present in AccurateRip database
Copy OK

Track 19

Filename I:\#New Rips + FLAC\VA - Life Is Music 2018 vol 1\cd 1\19. Blame - Amery.wav

Pre-gap length 0:00:02.00

Peak level 71.6 %
Extraction speed 10.4 X
Track quality 100.0 %
Test CRC 06220E10
Copy CRC 06220E10
Track not present in AccurateRip database
Copy OK

Track 20

Filename I:\#New Rips + FLAC\VA - Life Is Music 2018 vol 1\cd 1\20. Alleen - Lil Kleine.wav

Pre-gap length 0:00:02.00

Peak level 70.7 %
Extraction speed 10.8 X
Track quality 100.0 %
Test CRC D2DB880D
Copy CRC D2DB880D
Track not present in AccurateRip database
Copy OK

Track 21

Filename I:\#New Rips + FLAC\VA - Life Is Music 2018 vol 1\cd 1\21. Sick Boy - The Chainsmokers.wav

Pre-gap length 0:00:02.00

Peak level 74.9 %
Extraction speed 10.9 X
Track quality 100.0 %
Test CRC 6D2F7C60
Copy CRC 6D2F7C60
Track not present in AccurateRip database
Copy OK


None of the tracks are present in the AccurateRip database

No errors occurred

End of status report

–– CUETools DB Plugin V2.1.6

[CTDB TOCID: E0RPLuRkOBM8uZjgGB6XuJGutKE-] found
Submit result: E0RPLuRkOBM8uZjgGB6XuJGutKE- has been confirmed
Track | CTDB Status
1 | (4/4) Accurately ripped
2 | (4/4) Accurately ripped
3 | (4/4) Accurately ripped
4 | (4/4) Accurately ripped
5 | (4/4) Accurately ripped
6 | (4/4) Accurately ripped
7 | (4/4) Accurately ripped
8 | (4/4) Accurately ripped
9 | (4/4) Accurately ripped
10 | (4/4) Accurately ripped
11 | (4/4) Accurately ripped
12 | (4/4) Accurately ripped
13 | (4/4) Accurately ripped
14 | (4/4) Accurately ripped
15 | (4/4) Accurately ripped
16 | (4/4) Accurately ripped
17 | (4/4) Accurately ripped
18 | (4/4) Accurately ripped
19 | (4/4) Accurately ripped
20 | (4/4) Accurately ripped
21 | (4/4) Accurately ripped


==== Log checksum C9AAA7B6965F2453081964A33558F231E0C9A6316B4ADDC3FF581070BC60A028 ====