Subcategories

VA - Made In Cuba (2000) {Reissue}

Posted By: popsakov
VA - Made In Cuba (2000) {Reissue}

VA - Made In Cuba (2000) {Reissue}
2CD | EAC Rip | FLAC (Img) + Cue + Log ~ 801 Mb | MP3 CBR320 ~ 299 Mb
Full Scans ~ 94 Mb | 01:07:26 + 00:56:56 | RAR 5% Recovery
Latin, Salsa, Afro-Cuban Jazz | Virgin Records #VIR 8499232

Hand-made songs, delightfully crooked, like cigars. Songs for exquisite eardrums. Select quality for music- lovers and demanding collectors Cuban music for fun and pleasure. A luxury for a global minority. In MADE IN CUBA you will find a natural gathering of genres, periods, and the great figures and values of Cuban music. Songs that have walked through the doors of our lives and have comfortably installed themselves in the urban legens at the end of the millennium, driven by the warmth of a new way of thinking, apparently crossbred and global. Songs that bring a new understanding of both traditional and modern values. Made in Cuba is a duble album, the cream, the most expensive cohibas of Cuban music: Eliades Ochoa, Compay Segundo, Los Van Van, Benny More, Bola de Nieve, firahilfi'fierrer, el Trlo Matamoros, Pepesito Reyes, Celia Cruz, Cachao, La Lupe and El Guayabero amongst others…

***************

VA - Made In Cuba (2000) {Reissue}

Track List CD1:

01. Pepesito Reyes - Descarga No 2 (Live) [4:13]
02. Afro Cuban All Stars - Amor Verdadero [6:38]
03. Eliades Ochoa & El Cuarteto Patria - Chan Chan (Live) [4:39]
04. Sierra Maestra - Dumdunbanza [5:08]
05. Trio Matamoros - Tu Veràs [2:36]
06. El Jilguero De Cienfuegos - Camino De Zaza [5:26]
07. Los Guanches De Santiago De Cuba - La Mamarrachá [3:30]
08. Machito - Tanga [3:33]
09. Orquesta De Julio Cuevas - Camisa Sin Botones [3:16]
10. Benny Morè - Cienfuegos [3:08]
11. Cachao - Descarga [6:23]
12. Celia Cruz - Pachito Eche [3:39]
13. La Lupe - A Benny Morè [3:28]
14. Albita Rodriguez - Ta Bueno Ya [4:13]
15. Omara Portuondo - Veinte Años [4:44]
16. Huberal Herrera / Ernesto Lecuona - La Comparsa [1:40]
17. Bola De Nieve - Ay Mama Inés [1:15]

Exact Audio Copy V1.0 beta 3 from 29. August 2011

EAC extraction logfile from 10. February 2013, 6:48

Various Artists / Cuba All Stars, Volume 1

Used drive : HL-DT-STBDDVDRW GBC-H20N Adapter: 1 ID: 0

Read mode : Secure
Utilize accurate stream : Yes
Defeat audio cache : Yes
Make use of C2 pointers : No

Read offset correction : 667
Overread into Lead-In and Lead-Out : No
Fill up missing offset samples with silence : Yes
Delete leading and trailing silent blocks : No
Null samples used in CRC calculations : Yes
Used interface : Native Win32 interface for Win NT & 2000

Used output format : User Defined Encoder
Selected bitrate : 1024 kBit/s
Quality : High
Add ID3 tag : No
Command line compressor : C:\Program Files\Exact Audio Copy\wavpack.exe
Additional command line options : -hm %source% %dest%


TOC of the extracted CD

Track | Start | Length | Start sector | End sector
––––––––––––––––––––––––––––-
1 | 0:00.00 | 4:13.15 | 0 | 18989
2 | 4:13.15 | 6:37.42 | 18990 | 48806
3 | 10:50.57 | 4:38.40 | 48807 | 69696
4 | 15:29.22 | 5:08.23 | 69697 | 92819
5 | 20:37.45 | 2:35.55 | 92820 | 104499
6 | 23:13.25 | 5:25.50 | 104500 | 128924
7 | 28:39.00 | 3:29.60 | 128925 | 144659
8 | 32:08.60 | 3:33.05 | 144660 | 160639
9 | 35:41.65 | 3:15.55 | 160640 | 175319
10 | 38:57.45 | 3:07.65 | 175320 | 189409
11 | 42:05.35 | 6:23.35 | 189410 | 218169
12 | 48:28.70 | 3:38.45 | 218170 | 234564
13 | 52:07.40 | 3:27.45 | 234565 | 250134
14 | 55:35.10 | 4:12.60 | 250135 | 269094
15 | 59:47.70 | 4:43.40 | 269095 | 290359
16 | 64:31.35 | 1:40.17 | 290360 | 297876
17 | 66:11.52 | 1:14.40 | 297877 | 303466


Range status and errors

Selected range

Filename C:\Users\ProgDog\Music\ZALIVKI\Latin\Made In Cuba\1\Various Artists - Cuba All Stars, Volume 1.wav

Peak level 100.0 %
Extraction speed 6.2 X
Range quality 100.0 %
Test CRC 132C9525
Copy CRC 132C9525
Copy OK

No errors occurred


AccurateRip summary

Track 1 accurately ripped (confidence 3) [65CB046C] (AR v1)
Track 2 accurately ripped (confidence 3) [26D3DCF0] (AR v1)
Track 3 accurately ripped (confidence 3) [89910994] (AR v1)
Track 4 accurately ripped (confidence 3) [506E3146] (AR v1)
Track 5 accurately ripped (confidence 3) [CD4906CC] (AR v1)
Track 6 accurately ripped (confidence 3) [4F29547A] (AR v1)
Track 7 accurately ripped (confidence 3) [63FDBCEB] (AR v1)
Track 8 accurately ripped (confidence 3) [52493BCF] (AR v1)
Track 9 accurately ripped (confidence 3) [AAF01929] (AR v1)
Track 10 accurately ripped (confidence 3) [CF1BA3B9] (AR v1)
Track 11 accurately ripped (confidence 3) [085C0072] (AR v1)
Track 12 accurately ripped (confidence 3) [5977BC79] (AR v1)
Track 13 accurately ripped (confidence 3) [5A452056] (AR v1)
Track 14 accurately ripped (confidence 3) [94DBCD37] (AR v1)
Track 15 accurately ripped (confidence 3) [62ECD614] (AR v1)
Track 16 accurately ripped (confidence 3) [E1DE30C8] (AR v1)
Track 17 accurately ripped (confidence 3) [5A46DC35] (AR v1)

All tracks accurately ripped

End of status report

–– CUETools DB Plugin V2.1.3

[CTDB TOCID: hlj54OLT1fGWb_NRM3xgG0.uMTQ-] found, Submit result: hlj54OLT1fGWb_NRM3xgG0.uMTQ- has been confirmed
[c4298a3f] (1/3) Differs in 1036 samples @59:52:41-59:52:42,59:57:45,59:59:74-60:00:00,60:00:19-60:00:20,60:01:24-60:01:25,60:01:64,60:02:08-60:02:09,60:03:53-60:03:54,60:03:73-60:03:74,60:04:18-60:04:19,60:04:58-60:04:59,60:05:23-60:05:24,60:05:63-60:05:64,60:06:27-60:06:28,60:06:67-60:06:68,60:07:12-60:07:13,60:07:32-60:07:33,60:07:52-60:07:53,60:07:72-60:07:73,60:08:17-60:08:18,60:08:37-60:08:38,60:08:57-60:08:58,60:09:62-60:09:63,60:10:07-60:10:08,60:10:27-60:10:28,60:11:32,60:11:51-60:11:52,60:11:71-60:11:72,60:12:56-60:12:57,60:13:01-60:13:02,60:13:21-60:13:22,60:14:46-60:14:47,60:16:16-60:16:17,60:16:56-60:16:57,60:17:01-60:17:02,60:17:21-60:17:22,60:18:46-60:18:47,60:19:11,60:20:35-60:20:36,60:21:00-60:21:01,60:21:60-60:21:61,60:22:06,60:22:25-60:22:26,60:23:30-60:23:31,60:23:50-60:23:51,60:24:55-60:24:56,60:25:60-60:25:61,60:26:05-60:26:06,60:26:25-60:26:26,60:28:15-60:28:16,60:28:55-60:28:56,60:29:20-60:29:21,60:29:40-60:29:41,60:29:60-60:29:61
[8438b35e] (2/3) Accurately ripped
You can use CUETools to repair this rip.


==== Log checksum 848CA30ED0C22135CE97589ADBD2318FCC24A11EC8471BE2219051D7177792F0 ====

[CUETools log; Date: 17.10.2016 0:49:09; Version: 2.1.5]
[CTDB TOCID: hlj54OLT1fGWb_NRM3xgG0.uMTQ-] found.
Track | CTDB Status
1 | (6/6) Accurately ripped
2 | (6/6) Accurately ripped
3 | (6/6) Accurately ripped
4 | (6/6) Accurately ripped
5 | (6/6) Accurately ripped
6 | (6/6) Accurately ripped
7 | (6/6) Accurately ripped
8 | (6/6) Accurately ripped
9 | (6/6) Accurately ripped
10 | (6/6) Accurately ripped
11 | (6/6) Accurately ripped
12 | (6/6) Accurately ripped
13 | (6/6) Accurately ripped
14 | (6/6) Accurately ripped
15 | (5/6) Accurately ripped, or (1/6) differs in 1036 samples @00:04:46-00:04:47,00:09:50,00:12:04-00:12:05,00:12:24-00:12:25,00:13:29-00:13:30,00:13:69,00:14:13-00:14:14,00:15:58-00:15:59,00:16:03-00:16:04,00:16:23-00:16:24,00:16:63-00:16:64,00:17:28-00:17:29,00:17:68-00:17:69,00:18:32-00:18:33,00:18:72-00:18:73,00:19:17-00:19:18,00:19:37-00:19:38,00:19:57-00:19:58,00:20:02-00:20:03,00:20:22-00:20:23,00:20:42-00:20:43,00:20:62-00:20:63,00:21:67-00:21:68,00:22:12-00:22:13,00:22:32-00:22:33,00:23:37,00:23:56-00:23:57,00:24:01-00:24:02,00:24:61-00:24:62,00:25:06-00:25:07,00:25:26-00:25:27,00:26:51-00:26:52,00:28:21-00:28:22,00:28:61-00:28:62,00:29:06-00:29:07,00:29:26-00:29:27,00:30:51-00:30:52,00:31:16,00:32:40-00:32:41,00:33:05-00:33:06,00:33:65-00:33:66,00:34:11,00:34:30-00:34:31,00:35:35-00:35:36,00:35:55-00:35:56,00:36:60-00:36:61,00:37:65-00:37:66,00:38:10-00:38:11,00:38:30-00:38:31,00:40:20-00:40:21,00:40:60-00:40:61,00:41:25-00:41:26,00:41:45-00:41:46,00:41:65-00:41:66
16 | (6/6) Accurately ripped
17 | (6/6) Accurately ripped
[AccurateRip ID: 002dbcbe-0238c2b2-fb0fce11] found.
Track [ CRC | V2 ] Status
01 [65cb046c|2b56eb18] (3+3/6) Accurately ripped
02 [26d3dcf0|aee60927] (3+3/6) Accurately ripped
03 [89910994|508c57b2] (3+3/6) Accurately ripped
04 [506e3146|564c0e7a] (3+4/7) Accurately ripped
05 [cd4906cc|772eb526] (3+4/7) Accurately ripped
06 [4f29547a|d9a9bd05] (3+4/7) Accurately ripped
07 [63fdbceb|beeea91b] (3+4/7) Accurately ripped
08 [52493bcf|1453739e] (3+4/7) Accurately ripped
09 [aaf01929|06f559b7] (3+4/7) Accurately ripped
10 [cf1ba3b9|b9ca225a] (3+4/7) Accurately ripped
11 [085c0072|bf1cce67] (3+4/7) Accurately ripped
12 [5977bc79|c8d72fc9] (3+4/7) Accurately ripped
13 [5a452056|4a4c1f9b] (3+4/7) Accurately ripped
14 [94dbcd37|26a612f1] (3+4/7) Accurately ripped
15 [62ecd614|1a31a73d] (3+4/7) Accurately ripped
16 [e1de30c8|c30394a3] (3+4/7) Accurately ripped
17 [5a46dc35|498cd991] (3+4/7) Accurately ripped

Track Peak [ CRC32 ] [W/O NULL] [ LOG ]
– 100,0 [132C9525] [A2401109] CRC32
01 98,8 [DC2C9701] [D3A79514]
02 99,3 [78A48436] [796EDB32]
03 98,7 [3F4CCA80] [3B084EE1]
04 99,0 [8AFDDD23] [6B897A69]
05 98,8 [41837309] [2405DA17]
06 98,7 [36E0A638] [BB14EF16]
07 98,5 [A8666A54] [1D1E9266]
08 100,0 [0CDBFCB4] [9E905857]
09 99,9 [570DE6B9] [D06B9D64]
10 98,3 [7836E6D3] [1BAA7F7A]
11 99,1 [0D07FF1F] [41130121]
12 99,1 [9D01B56A] [33BC898A]
13 100,0 [64235BAD] [9D592858]
14 99,9 [3201F88C] [560577BB]
15 89,8 [72F81202] [D83BA216]
16 98,4 [8F4A1C2B] [3C13D5F0]
17 98,1 [F9684FFE] [09601D44]

VA - Made In Cuba (2000) {Reissue}

Track List CD2:

01. Antonio Machin - Dos Gardenias [2:58]
02. Compay Segundo - Orgullecida [1:56]
03. Nico Saquito - Al Vaiven De Mi Carreta [4:57]
04. Charlie Musselwhite With Cuarteto Patria - Que Te Parece Cholita [6:38]
05. Guillermo Portabales - El Carretero [3:09]
06. Vieja Trova Santiaguera - Maria Cristina [3:35]
07. Hermanas Ferrin - Caerita Vendo Agua [4:14]
08. La Familia Varela Miranda - Nengon Para Ti [1:44]
09. El Guayabero - Como Baila Marieta [7:40]
10. Ibrahim Ferrer - Compositor Confundido [4:32]
11. Orquesta Gigante De Chepin - Carolina [3:13]
12. Los Van Van - Esto Te Pone La Cabeza Mala [4:06]
13. Elio Reve - Mi Salsa Tiene Sandunga [5:25]
14. Carlos Puebla - Si No Fuera Por Emiliana [2:50]

Exact Audio Copy V1.0 beta 3 from 29. August 2011

EAC extraction logfile from 10. February 2013, 7:18

Various Artists / Cuba All Stars, Volume 1

Used drive : HL-DT-STBDDVDRW GBC-H20N Adapter: 1 ID: 0

Read mode : Secure
Utilize accurate stream : Yes
Defeat audio cache : Yes
Make use of C2 pointers : No

Read offset correction : 667
Overread into Lead-In and Lead-Out : No
Fill up missing offset samples with silence : Yes
Delete leading and trailing silent blocks : No
Null samples used in CRC calculations : Yes
Used interface : Native Win32 interface for Win NT & 2000

Used output format : User Defined Encoder
Selected bitrate : 1024 kBit/s
Quality : High
Add ID3 tag : No
Command line compressor : C:\Program Files\Exact Audio Copy\wavpack.exe
Additional command line options : -hm %source% %dest%


TOC of the extracted CD

Track | Start | Length | Start sector | End sector
––––––––––––––––––––––––––––-
1 | 0:00.00 | 2:58.07 | 0 | 13356
2 | 2:58.07 | 1:55.53 | 13357 | 22034
3 | 4:53.60 | 4:57.32 | 22035 | 44341
4 | 9:51.17 | 6:37.58 | 44342 | 74174
5 | 16:29.00 | 3:08.70 | 74175 | 88344
6 | 19:37.70 | 3:34.40 | 88345 | 104434
7 | 23:12.35 | 4:13.65 | 104435 | 123474
8 | 27:26.25 | 1:43.65 | 123475 | 131264
9 | 29:10.15 | 7:40.10 | 131265 | 165774
10 | 36:50.25 | 4:31.65 | 165775 | 186164
11 | 41:22.15 | 3:13.02 | 186165 | 200641
12 | 44:35.17 | 4:05.65 | 200642 | 219081
13 | 48:41.07 | 5:24.43 | 219082 | 243424
14 | 54:05.50 | 2:50.22 | 243425 | 256196


Range status and errors

Selected range

Filename C:\Users\ProgDog\Music\ZALIVKI\Latin\Made In Cuba\2\Various Artists - Cuba All Stars, Volume 1.wav

Peak level 100.0 %
Extraction speed 6.1 X
Range quality 99.9 %
Test CRC 2E767A09
Copy CRC 2E767A09
Copy OK

No errors occurred


AccurateRip summary

Track 1 accurately ripped (confidence 3) [D8FE075E] (AR v1)
Track 2 accurately ripped (confidence 3) [5AAE327E] (AR v1)
Track 3 accurately ripped (confidence 2) [8BB60E37] (AR v1)
Track 4 accurately ripped (confidence 3) [D74163AC] (AR v1)
Track 5 accurately ripped (confidence 3) [D07578E1] (AR v1)
Track 6 accurately ripped (confidence 2) [F03A389C] (AR v1)
Track 7 accurately ripped (confidence 2) [9E81797C] (AR v1)
Track 8 accurately ripped (confidence 3) [95232BBD] (AR v1)
Track 9 accurately ripped (confidence 2) [03BCEBB0] (AR v1)
Track 10 accurately ripped (confidence 3) [B4F4C11F] (AR v1)
Track 11 accurately ripped (confidence 3) [8FB08481] (AR v1)
Track 12 accurately ripped (confidence 3) [5A39A655] (AR v1)
Track 13 accurately ripped (confidence 2) [6EA681A2] (AR v1)
Track 14 accurately ripped (confidence 2) [F6FA93DE] (AR v1)

All tracks accurately ripped

End of status report

–– CUETools DB Plugin V2.1.3

[CTDB TOCID: 7rojLg1KRm_JbfDKkfJjIBs53JA-] found, Submit result: 7rojLg1KRm_JbfDKkfJjIBs53JA- has been confirmed
[8bc76da8] (2/2) Accurately ripped


==== Log checksum A45E4A8EFF24FD1837CEA856C4873A15895E0185D22700B2EC754F8F1E2F5C17 ====

[CUETools log; Date: 17.10.2016 0:59:33; Version: 2.1.5]
[CTDB TOCID: 7rojLg1KRm_JbfDKkfJjIBs53JA-] found.
Track | CTDB Status
1 | (5/5) Accurately ripped
2 | (5/5) Accurately ripped
3 | (5/5) Accurately ripped
4 | (5/5) Accurately ripped
5 | (5/5) Accurately ripped
6 | (5/5) Accurately ripped
7 | (5/5) Accurately ripped
8 | (5/5) Accurately ripped
9 | (5/5) Accurately ripped
10 | (5/5) Accurately ripped
11 | (5/5) Accurately ripped
12 | (5/5) Accurately ripped
13 | (5/5) Accurately ripped
14 | (5/5) Accurately ripped
[AccurateRip ID: 001c934b-013580d3-d30d570e] found.
Track [ CRC | V2 ] Status
01 [d8fe075e|0a48b67a] (3+4/7) Accurately ripped
02 [5aae327e|b6245727] (3+4/7) Accurately ripped
03 [8bb60e37|084e1eba] (2+4/6) Accurately ripped
04 [d74163ac|4d99c14f] (3+4/7) Accurately ripped
05 [d07578e1|660af0c8] (3+4/7) Accurately ripped
06 [f03a389c|05a5b8e7] (2+4/6) Accurately ripped
07 [9e81797c|d4b598b8] (2+4/6) Accurately ripped
08 [95232bbd|bca235a4] (3+4/7) Accurately ripped
09 [03bcebb0|ae26dd98] (2+4/6) Accurately ripped
10 [b4f4c11f|6b93a0e7] (3+4/7) Accurately ripped
11 [8fb08481|89e4b67d] (3+4/7) Accurately ripped
12 [5a39a655|e0c3f7db] (3+3/6) Accurately ripped
13 [6ea681a2|095440ab] (2+4/6) Accurately ripped
14 [f6fa93de|764e5caf] (2+4/6) Accurately ripped

Track Peak [ CRC32 ] [W/O NULL] [ LOG ]
– 100,0 [2E767A09] [9CCD5674] CRC32
01 98,1 [E433F0E3] [1A323E42]
02 82,8 [D0EA45CA] [406D211A]
03 98,1 [7CC01001] [069F0C89]
04 98,7 [7EE61ADE] [293CBF7E]
05 98,0 [3DB57AC9] [24E66F53]
06 99,6 [A3C4F462] [458D6830]
07 100,0 [7CC095BC] [4A8E49D5]
08 100,0 [AE7D900D] [0B040D05]
09 97,9 [3A98778E] [AB4F6E02]
10 100,0 [E79740E7] [BDB7AFB3]
11 91,7 [B6489940] [0CBFC4E1]
12 99,8 [61D465F6] [1A44CE12]
13 100,0 [319C0C28] [F1BB0A16]
14 100,0 [C4D0BEEB] [5B559BFD]

VA - Made In Cuba (2000) {Reissue}


All thanks go to AD's

>>> My Blog <<<

DOWNLOAD: