Subcategories
Tags
Language
Tags

VA - Mito ’60 La meravigliosa estate italiana Vol.I (2018)

Posted By: ciklon5
VA - Mito ’60 La meravigliosa estate italiana Vol.I (2018)

VA - Mito ’60 La meravigliosa estate italiana Vol.I (2018)
Mp3 320 kbps / FLAC (tracks+.cue artwork) | 1:30:33 | 455 Mb / 218 Mb
Genre: Pop, Disco / Label: Ermitage

Una fenomenale collezione in Doppio CD, che raccoglie tutte le più belle canzoni capaci di rievocare un periodo da leggenda: le calde, emozionanti e romantiche estati d’Italia degli anni ’60! Torna la voglia di ballare e cantare riascoltando senza fine le magnifiche hit di interpreti indimenticabili!

Track List:
Disc 1

01. Piero Focaccia - Stessa Spiaggia Stesso Mare (2:25)
02. Edoardo Vianello - Abbronzatissima (2:35)
03. Little Tony - 24 Mila Baci (2:52)
04. Mina - Tintarella Di Luna (3:01)
05. Gino Paoli - La Gatta (2:26)
06. Marcellos Ferial - Cuando Calienta El Sol (2:28)
07. Adriano Celentano - Si È Spento Il Sole (2:57)
08. Peppino Di Capri - Let's Twist Again (2:35)
09. Tony Renis - Quando Quando Quando (2:53)
10. Giorgio Gaber - La Ballata Del Cerutti (3:47)
11. Rita Pavone - Come Te Non C'è Nessuno (2:46)
12. Gianni Morandi - Fatti Mandare Dalla Mamma A Prendere Il Latte (2:17)
13. Marino Marini - Marina (3:00)
14. Ray Charles - I Can't Stop Loving You (4:15)
15. Domenico Modugno - Selene (2:41)

Disc 2

01. Domenico Modugno - Notte Di Luna Calante (4:26)
02. Gino Paoli - Sapore Di Sale (3:36)
03. Gino Paoli - Il Mare Nel Cassetto (3:01)
04. Johnny Dorelli - Montecarlo (2:34)
05. Peppino Di Capri - Speedy Gonzales (2:40)
06. Dalida - Pezzettini Di Bikini (2:20)
07. Gianni Morandi - Go Kart Twist (2:34)
08. Fausto Papetti - Estate Violenta (2:37)
09. Pino Donaggio - Come Sinfonia (3:22)
10. Mina - Le Mille Bolle Blu (3:45)
11. Edoardo Vianello - Pinne, Fucile Ed Occhiali (2:41)
12. Gianni Meccia - Patatina (2:58)
13. Elvis Presley - Are You Lonesome Tonight (3:08)
14. Umberto Bindi - Il Nostro Concerto (5:28)
15. Betty Curtis - Tango Del Mare (2:22)

Exact Audio Copy V1.3 from 2. September 2016

EAC extraction logfile from 1. August 2018, 11:02

Various Artists / Mito '60 Vol.1 (cd1)

Used drive : ASUS BC-12D2HT Adapter: 0 ID: 0

Read mode : Secure
Utilize accurate stream : Yes
Defeat audio cache : Yes
Make use of C2 pointers : No

Read offset correction : 6
Overread into Lead-In and Lead-Out : No
Fill up missing offset samples with silence : Yes
Delete leading and trailing silent blocks : No
Null samples used in CRC calculations : Yes
Used interface : Installed external ASPI interface
Gap handling : Appended to previous track

Used output format : User Defined Encoder
Selected bitrate : 1024 kBit/s
Quality : High
Add ID3 tag : No
Command line compressor : C:\Program Files (x86)\Exact Audio Copy\FLAC\FLAC.EXE
Additional command line options : -8 -V -T "Artist=%artist%" -T "Title=%title%" -T "Album=%albumtitle%" -T "DATE=%year%" -T "TRACKNUMBER=%tracknr%" -T "Genre=%genre%" -T "ALBUMARTIST=%albumartist%" -T "ALBUM ARTIST=%albumartist%" -T "COMMENT=EAC Secure Mode, Test & Copy, AccurateRip, FLAC -8" %source%


TOC of the extracted CD

Track | Start | Length | Start sector | End sector
––––––––––––––––––––––––––––-
1 | 0:00.00 | 2:24.43 | 0 | 10842
2 | 2:24.43 | 2:34.57 | 10843 | 22449
3 | 4:59.25 | 2:52.30 | 22450 | 35379
4 | 7:51.55 | 3:00.49 | 35380 | 48928
5 | 10:52.29 | 2:25.60 | 48929 | 59863
6 | 13:18.14 | 2:28.19 | 59864 | 70982
7 | 15:46.33 | 2:57.05 | 70983 | 84262
8 | 18:43.38 | 2:34.71 | 84263 | 95883
9 | 21:18.34 | 2:53.14 | 95884 | 108872
10 | 24:11.48 | 3:47.06 | 108873 | 125903
11 | 27:58.54 | 2:46.02 | 125904 | 138355
12 | 30:44.56 | 2:17.29 | 138356 | 148659
13 | 33:02.10 | 3:00.31 | 148660 | 162190
14 | 36:02.41 | 4:14.74 | 162191 | 181314
15 | 40:17.40 | 2:40.51 | 181315 | 193365


Track 1

Filename C:\EAC\01. Piero Focaccia - Stessa spiaggia stesso mare.wav

Pre-gap length 0:00:02.00

Peak level 38.3 %
Extraction speed 3.9 X
Track quality 100.0 %
Test CRC C5E6EEB8
Copy CRC C5E6EEB8
Track not present in AccurateRip database
Copy OK

Track 2

Filename C:\EAC\02. Edoardo Vianello - Abbronzatissima.wav

Peak level 39.0 %
Extraction speed 4.2 X
Track quality 100.0 %
Test CRC 02DB6323
Copy CRC 02DB6323
Track not present in AccurateRip database
Copy OK

Track 3

Filename C:\EAC\03. Little Tony - 24 mila baci.wav

Peak level 37.7 %
Extraction speed 4.6 X
Track quality 100.0 %
Test CRC 2D620BFA
Copy CRC 2D620BFA
Track not present in AccurateRip database
Copy OK

Track 4

Filename C:\EAC\04. Mina - Tintarella di luna.wav

Peak level 38.5 %
Extraction speed 4.8 X
Track quality 100.0 %
Test CRC D77C7382
Copy CRC D77C7382
Track not present in AccurateRip database
Copy OK

Track 5

Filename C:\EAC\05. Gino Paoli - La gatta.wav

Peak level 39.3 %
Extraction speed 4.9 X
Track quality 100.0 %
Test CRC 9196EEBE
Copy CRC 9196EEBE
Track not present in AccurateRip database
Copy OK

Track 6

Filename C:\EAC\06. Marcellos Ferial - Cuando calienta el sol.wav

Peak level 43.4 %
Extraction speed 5.1 X
Track quality 100.0 %
Test CRC DEFFD5F8
Copy CRC DEFFD5F8
Track not present in AccurateRip database
Copy OK

Track 7

Filename C:\EAC\07. Adriano Celentano - Si è spento il sole.wav

Peak level 40.6 %
Extraction speed 5.6 X
Track quality 100.0 %
Test CRC 1035E3E3
Copy CRC 1035E3E3
Track not present in AccurateRip database
Copy OK

Track 8

Filename C:\EAC\08. Peppino di Capri - Let's twist again.wav

Peak level 45.4 %
Extraction speed 5.6 X
Track quality 100.0 %
Test CRC B516AEF8
Copy CRC B516AEF8
Track not present in AccurateRip database
Copy OK

Track 9

Filename C:\EAC\09. Tony Renis - Quando quando quando.wav

Peak level 39.8 %
Extraction speed 5.9 X
Track quality 100.0 %
Test CRC EA3D2A8B
Copy CRC EA3D2A8B
Track not present in AccurateRip database
Copy OK

Track 10

Filename C:\EAC\10. Giorgio Gaber - La ballata del Cerutti.wav

Peak level 39.4 %
Extraction speed 5.4 X
Track quality 99.9 %
Test CRC BCEFD95A
Copy CRC BCEFD95A
Track not present in AccurateRip database
Copy OK

Track 11

Filename C:\EAC\11. Rita Pavone - Come te non c'è nessuno.wav

Peak level 44.5 %
Extraction speed 6.4 X
Track quality 100.0 %
Test CRC 30165DA1
Copy CRC 30165DA1
Track not present in AccurateRip database
Copy OK

Track 12

Filename C:\EAC\12. Gianni Morandi - Fatti mandare dalla mamma a prendere il latte.wav

Peak level 45.5 %
Extraction speed 6.3 X
Track quality 100.0 %
Test CRC 1CFA4D7E
Copy CRC 1CFA4D7E
Track not present in AccurateRip database
Copy OK

Track 13

Filename C:\EAC\13. Marino Marini - Marina.wav

Peak level 43.0 %
Extraction speed 6.8 X
Track quality 100.0 %
Test CRC 6E5DBBB8
Copy CRC 6E5DBBB8
Track not present in AccurateRip database
Copy OK

Track 14

Filename C:\EAC\14. Ray Charles - I can't stop loving you.wav

Peak level 41.6 %
Extraction speed 6.2 X
Track quality 99.9 %
Test CRC EADDB62B
Copy CRC EADDB62B
Track not present in AccurateRip database
Copy OK

Track 15

Filename C:\EAC\15. Domenico Modugno - Selene.wav

Peak level 39.6 %
Extraction speed 5.5 X
Track quality 99.9 %
Test CRC B11DFA68
Copy CRC B11DFA68
Track not present in AccurateRip database
Copy OK


None of the tracks are present in the AccurateRip database

No errors occurred

End of status report

–– CUETools DB Plugin V2.1.6

[CTDB TOCID: MwZv1rx8j_qOakzUvpM0CJngUNo-] disk not present in database
Submit result: MwZv1rx8j_qOakzUvpM0CJngUNo- has been uploaded


==== Log checksum 065A9DA13038480B024A2E3C86551A79AEEB575F3E00B6EDD4738E4489DBEB28 ====

Exact Audio Copy V1.3 from 2. September 2016

EAC extraction logfile from 1. August 2018, 11:27

Various Artists / Mito '60 Vol.1 (cd2)

Used drive : ASUS BC-12D2HT Adapter: 0 ID: 0

Read mode : Secure
Utilize accurate stream : Yes
Defeat audio cache : Yes
Make use of C2 pointers : No

Read offset correction : 6
Overread into Lead-In and Lead-Out : No
Fill up missing offset samples with silence : Yes
Delete leading and trailing silent blocks : No
Null samples used in CRC calculations : Yes
Used interface : Installed external ASPI interface
Gap handling : Appended to previous track

Used output format : User Defined Encoder
Selected bitrate : 1024 kBit/s
Quality : High
Add ID3 tag : No
Command line compressor : C:\Program Files (x86)\Exact Audio Copy\FLAC\FLAC.EXE
Additional command line options : -8 -V -T "Artist=%artist%" -T "Title=%title%" -T "Album=%albumtitle%" -T "DATE=%year%" -T "TRACKNUMBER=%tracknr%" -T "Genre=%genre%" -T "ALBUMARTIST=%albumartist%" -T "ALBUM ARTIST=%albumartist%" -T "COMMENT=EAC Secure Mode, Test & Copy, AccurateRip, FLAC -8" %source%


TOC of the extracted CD

Track | Start | Length | Start sector | End sector
––––––––––––––––––––––––––––-
1 | 0:00.00 | 4:25.64 | 0 | 19938
2 | 4:25.64 | 3:36.34 | 19939 | 36172
3 | 8:02.23 | 3:01.30 | 36173 | 49777
4 | 11:03.53 | 2:34.08 | 49778 | 61335
5 | 13:37.61 | 2:39.73 | 61336 | 73333
6 | 16:17.59 | 2:20.33 | 73334 | 83866
7 | 18:38.17 | 2:34.04 | 83867 | 95420
8 | 21:12.21 | 2:37.30 | 95421 | 107225
9 | 23:49.51 | 3:21.56 | 107226 | 122356
10 | 27:11.32 | 3:45.22 | 122357 | 139253
11 | 30:56.54 | 2:41.37 | 139254 | 151365
12 | 33:38.16 | 2:58.17 | 151366 | 164732
13 | 36:36.33 | 3:08.29 | 164733 | 178861
14 | 39:44.62 | 5:28.06 | 178862 | 203467
15 | 45:12.68 | 2:21.44 | 203468 | 214086


Track 1

Filename C:\EAC\01. Domenico Modugno - Notte di luna calante.wav

Pre-gap length 0:00:02.00

Peak level 41.9 %
Extraction speed 4.4 X
Track quality 100.0 %
Test CRC 72041761
Copy CRC 72041761
Track not present in AccurateRip database
Copy OK

Track 2

Filename C:\EAC\02. Gino Paoli - Sapore di sale.wav

Peak level 43.4 %
Extraction speed 3.9 X
Track quality 99.9 %
Test CRC A1F78C6D
Copy CRC A1F78C6D
Track not present in AccurateRip database
Copy OK

Track 3

Filename C:\EAC\03. Gino Paoli - Il mare nel cassetto.wav

Peak level 43.0 %
Extraction speed 4.9 X
Track quality 100.0 %
Test CRC 97286F27
Copy CRC 97286F27
Track not present in AccurateRip database
Copy OK

Track 4

Filename C:\EAC\04. Johnny Dorelli - Montecarlo.wav

Peak level 43.3 %
Extraction speed 5.0 X
Track quality 100.0 %
Test CRC 9E2E56C5
Copy CRC 9E2E56C5
Track not present in AccurateRip database
Copy OK

Track 5

Filename C:\EAC\05. Peppino di Capri - Speedy Gonzales.wav

Peak level 40.1 %
Extraction speed 4.1 X
Track quality 99.9 %
Test CRC 5262CE35
Copy CRC 5262CE35
Track not present in AccurateRip database
Copy OK

Track 6

Filename C:\EAC\06. Dalida - Pezzettini di bikini.wav

Peak level 45.1 %
Extraction speed 4.1 X
Track quality 99.9 %
Test CRC 06C919F8
Copy CRC 06C919F8
Track not present in AccurateRip database
Copy OK

Track 7

Filename C:\EAC\07. Gianni Morandi - Go kart twist.wav

Peak level 48.3 %
Extraction speed 4.4 X
Track quality 99.9 %
Test CRC 6776EBA8
Copy CRC 6776EBA8
Track not present in AccurateRip database
Copy OK

Track 8

Filename C:\EAC\08. Fausto Papetti - Estate violenta.wav

Pre-gap length 0:00:00.05

Peak level 43.3 %
Extraction speed 5.8 X
Track quality 100.0 %
Test CRC 58CA594D
Copy CRC 58CA594D
Track not present in AccurateRip database
Copy OK

Track 9

Filename C:\EAC\09. Pino Donaggio - Come sinfonia.wav

Peak level 42.9 %
Extraction speed 6.3 X
Track quality 100.0 %
Test CRC 8F41B2D5
Copy CRC 8F41B2D5
Track not present in AccurateRip database
Copy OK

Track 10

Filename C:\EAC\10. Mina - Le mille bolle blu.wav

Peak level 43.6 %
Extraction speed 6.7 X
Track quality 100.0 %
Test CRC A44FB8B1
Copy CRC A44FB8B1
Track not present in AccurateRip database
Copy OK

Track 11

Filename C:\EAC\11. Edoardo Vianello - Pinne, fucile ed occhiali.wav

Peak level 43.9 %
Extraction speed 6.5 X
Track quality 100.0 %
Test CRC DF99430F
Copy CRC DF99430F
Track not present in AccurateRip database
Copy OK

Track 12

Filename C:\EAC\12. Gianni Meccia - Patatina.wav

Peak level 46.1 %
Extraction speed 6.8 X
Track quality 100.0 %
Test CRC A1AF6F50
Copy CRC A1AF6F50
Track not present in AccurateRip database
Copy OK

Track 13

Filename C:\EAC\13. Elvis Presley - Are you lonesome tonight.wav

Peak level 42.4 %
Extraction speed 7.0 X
Track quality 100.0 %
Test CRC 36D5C033
Copy CRC 36D5C033
Track not present in AccurateRip database
Copy OK

Track 14

Filename C:\EAC\14. Umberto Bindi - Il nostro concerto.wav

Peak level 50.3 %
Extraction speed 7.8 X
Track quality 100.0 %
Test CRC 0B23E878
Copy CRC 0B23E878
Track not present in AccurateRip database
Copy OK

Track 15

Filename C:\EAC\15. Betty Curtis - Tango del mare.wav

Peak level 44.8 %
Extraction speed 7.0 X
Track quality 100.0 %
Test CRC E4C2A1BA
Copy CRC E4C2A1BA
Track not present in AccurateRip database
Copy OK


None of the tracks are present in the AccurateRip database

No errors occurred

End of status report

–– CUETools DB Plugin V2.1.6

[CTDB TOCID: Af.MUnvXO5DBwz1SpLmkH.IROZM-] disk not present in database
Submit result: Af.MUnvXO5DBwz1SpLmkH.IROZM- has been uploaded


==== Log checksum 652569D66C77A661C9EA7B748D87A50DA716A1D651C9737FD080EE3D6387D11C ====