Subcategories
Tags
Language
Tags

VA - Mito ’60 La meravigliosa estate italiana Vol.II (2018)

Posted By: ciklon5
VA - Mito ’60 La meravigliosa estate italiana Vol.II (2018)

VA - Mito ’60 La meravigliosa estate italiana Vol.II (2018)
Mp3 320 kbps / FLAC (tracks+.cue artwork) | Dance, Disco, Pop | 215 Mb / 445 Mb
Genre: Pop, Dance, Disco / Label: Ermitage

Una fenomenale collezione in Doppio CD, che raccoglie tutte le più belle canzoni capaci di rievocare un periodo da leggenda: le calde, emozionanti e romantiche estati d’Italia degli anni ’60! Torna la voglia di ballare e cantare riascoltando senza fine le magnifiche hit di interpreti indimenticabili!

Track List:
Disc 1

01. Nico Fidenco - Legata ad un granello di sabbia (4:13)
02. Adriano Celentano - Impazzivo per te (2:01)
03. Betty Curtis - Chariot (2:44)
04. Sergio Endrigo - Io che amo solo te (3:50)
05. Peppino di Capri - Roberta (3:15)
06. Caterina Valente - Personalità (2:40)
07. Gianni Morandi - Andavo a ceno all'ora (2:32)
08. Domenico Modugno - Femmine di lusso (2:17)
09. Mina - Il cielo in una stanza (2:58)
10. Michelino - Cha cha cha della segretaria (2:35)
11. Edoardo Vianello - Guarda come dondolo (2:33)
12. Little Tony - Il ragazzo col ciuffo (1:58)
13. Milva - Quattro vestiti (3:43)
14. Tony Dallara - Romantica (3:19)
15. Gino Paoli - Sassi (4:34)

Disc 2

01. Elvis Presley - It's now or never (3:14)
02. Gianni Meccia - Il barattolo (3:06)
03. Giorgio Gaber - Non arrossire (2:26)
04. Mina - Una zebra a pois (3:26)
05. Adriano Celentano - Nata per me (2:48)
06. Peppino di Capri - Nessuno al mondo (2:51)
07. Pino Donaggio - La ragazza col maglione (2:46)
08. Dalida - Uno a te uno a me (2:37)
09. Edoardo Vianello - Il capello (2:30)
10. Little Tony - Un rock per Judy (2:05)
11. Gianni Morandi - Corri corri (2:05)
12. Milva - Flamenco rock (3:28)
13. Umberto Bindi - E' vero (4:44)
14. Domenico Modugno - Libero (2:47)
15. Gino Paoli - Le cose dell'amore (2:54)

Exact Audio Copy V1.3 from 2. September 2016

EAC extraction logfile from 7. August 2018, 17:56

Various Artists / Mito '60 Vol.2 (cd1)

Used drive : ASUS BC-12D2HT Adapter: 0 ID: 0

Read mode : Secure
Utilize accurate stream : Yes
Defeat audio cache : Yes
Make use of C2 pointers : No

Read offset correction : 6
Overread into Lead-In and Lead-Out : No
Fill up missing offset samples with silence : Yes
Delete leading and trailing silent blocks : No
Null samples used in CRC calculations : Yes
Used interface : Installed external ASPI interface
Gap handling : Appended to previous track

Used output format : User Defined Encoder
Selected bitrate : 1024 kBit/s
Quality : High
Add ID3 tag : No
Command line compressor : C:\Program Files (x86)\Exact Audio Copy\FLAC\FLAC.EXE
Additional command line options : -8 -V -T "Artist=%artist%" -T "Title=%title%" -T "Album=%albumtitle%" -T "DATE=%year%" -T "TRACKNUMBER=%tracknr%" -T "Genre=%genre%" -T "ALBUMARTIST=%albumartist%" -T "ALBUM ARTIST=%albumartist%" -T "COMMENT=EAC Secure Mode, Test & Copy, AccurateRip, FLAC -8" %source%


TOC of the extracted CD

Track | Start | Length | Start sector | End sector
––––––––––––––––––––––––––––-
1 | 0:00.00 | 4:12.58 | 0 | 18957
2 | 4:12.58 | 2:00.72 | 18958 | 28029
3 | 6:13.55 | 2:43.66 | 28030 | 40320
4 | 8:57.46 | 3:50.21 | 40321 | 57591
5 | 12:47.67 | 3:15.05 | 57592 | 72221
6 | 16:02.72 | 2:40.07 | 72222 | 84228
7 | 18:43.04 | 2:31.67 | 84229 | 95620
8 | 21:14.71 | 2:17.33 | 95621 | 105928
9 | 23:32.29 | 2:57.66 | 105929 | 119269
10 | 26:30.20 | 2:34.61 | 119270 | 130880
11 | 29:05.06 | 2:32.41 | 130881 | 142321
12 | 31:37.47 | 1:57.65 | 142322 | 151161
13 | 33:35.37 | 3:43.09 | 151162 | 167895
14 | 37:18.46 | 3:19.37 | 167896 | 182857
15 | 40:38.08 | 4:33.46 | 182858 | 203378


Track 1

Filename C:\EAC\01. Nico Fidenco - Legata ad un granello di sabbia.wav

Pre-gap length 0:00:02.00

Peak level 43.6 %
Extraction speed 4.3 X
Track quality 100.0 %
Test CRC F1C21D46
Copy CRC F1C21D46
Track not present in AccurateRip database
Copy OK

Track 2

Filename C:\EAC\02. Adriano Celentano - Impazzivo per te.wav

Pre-gap length 0:00:01.89

Peak level 41.6 %
Extraction speed 4.1 X
Track quality 100.0 %
Test CRC 5415159E
Copy CRC 5415159E
Track not present in AccurateRip database
Copy OK

Track 3

Filename C:\EAC\03. Betty Curtis - Chariot.wav

Pre-gap length 0:00:01.89

Peak level 41.8 %
Extraction speed 4.7 X
Track quality 100.0 %
Test CRC 89611EC2
Copy CRC 89611EC2
Track not present in AccurateRip database
Copy OK

Track 4

Filename C:\EAC\04. Sergio Endrigo - Io che amo solo te.wav

Pre-gap length 0:00:01.89

Peak level 43.2 %
Extraction speed 5.2 X
Track quality 100.0 %
Test CRC 15E5DB90
Copy CRC 15E5DB90
Track not present in AccurateRip database
Copy OK

Track 5

Filename C:\EAC\05. Peppino di Capri - Roberta.wav

Pre-gap length 0:00:01.89

Peak level 41.8 %
Extraction speed 5.4 X
Track quality 100.0 %
Test CRC CDA6F480
Copy CRC CDA6F480
Track not present in AccurateRip database
Copy OK

Track 6

Filename C:\EAC\06. Caterina Valente - Personalità.wav

Pre-gap length 0:00:01.89

Peak level 43.9 %
Extraction speed 5.4 X
Track quality 100.0 %
Test CRC 3E9BEAF7
Copy CRC 3E9BEAF7
Track not present in AccurateRip database
Copy OK

Track 7

Filename C:\EAC\07. Gianni Morandi - Andavo a ceno all'ora.wav

Pre-gap length 0:00:01.89

Peak level 42.5 %
Extraction speed 5.6 X
Track quality 100.0 %
Test CRC 5297AF83
Copy CRC 5297AF83
Track not present in AccurateRip database
Copy OK

Track 8

Filename C:\EAC\08. Domenico Modugno - Femmine di lusso.wav

Pre-gap length 0:00:01.89

Peak level 43.4 %
Extraction speed 4.4 X
Track quality 99.9 %
Test CRC 2228FAF9
Copy CRC 2228FAF9
Track not present in AccurateRip database
Copy OK

Track 9

Filename C:\EAC\09. Mina - Il cielo in una stanza.wav

Pre-gap length 0:00:01.89

Peak level 42.6 %
Extraction speed 6.2 X
Track quality 100.0 %
Test CRC DC9FB5F0
Copy CRC DC9FB5F0
Track not present in AccurateRip database
Copy OK

Track 10

Filename C:\EAC\10. Michelino - Cha cha cha della segretaria.wav

Pre-gap length 0:00:01.89

Peak level 42.8 %
Extraction speed 6.2 X
Track quality 100.0 %
Test CRC 0EF225DE
Copy CRC 0EF225DE
Track not present in AccurateRip database
Copy OK

Track 11

Filename C:\EAC\11. Edoardo Vianello - Guarda come dondolo.wav

Pre-gap length 0:00:01.89

Peak level 41.9 %
Extraction speed 6.3 X
Track quality 100.0 %
Test CRC 1CA8BF21
Copy CRC 1CA8BF21
Track not present in AccurateRip database
Copy OK

Track 12

Filename C:\EAC\12. Little Tony - Il ragazzo col ciuffo.wav

Pre-gap length 0:00:01.89

Peak level 42.4 %
Extraction speed 4.7 X
Track quality 99.9 %
Test CRC 4975DD5C
Copy CRC 4975DD5C
Track not present in AccurateRip database
Copy OK

Track 13

Filename C:\EAC\13. Milva - Quattro vestiti.wav

Pre-gap length 0:00:01.89

Peak level 44.6 %
Extraction speed 5.9 X
Track quality 99.9 %
Test CRC A7C60BDF
Copy CRC A7C60BDF
Track not present in AccurateRip database
Copy OK

Track 14

Filename C:\EAC\14. Tony Dallara - Romantica.wav

Pre-gap length 0:00:01.89

Peak level 42.8 %
Extraction speed 7.2 X
Track quality 100.0 %
Test CRC C7C347D0
Copy CRC C7C347D0
Track not present in AccurateRip database
Copy OK

Track 15

Filename C:\EAC\15. Gino Paoli - Sassi.wav

Pre-gap length 0:00:01.89

Peak level 42.2 %
Extraction speed 7.6 X
Track quality 100.0 %
Test CRC 57FA5E45
Copy CRC 57FA5E45
Track not present in AccurateRip database
Copy OK


None of the tracks are present in the AccurateRip database

No errors occurred

End of status report

–– CUETools DB Plugin V2.1.6

[CTDB TOCID: ntlMVv4agNKS8YCJXWzoFyPB7ug-] disk not present in database
Submit result: ntlMVv4agNKS8YCJXWzoFyPB7ug- has been uploaded


==== Log checksum 57517122EDA043124059F7FD1E1DD30F2D92F43557DA4734DD6A05711DCAC149 ====

Exact Audio Copy V1.3 from 2. September 2016

EAC extraction logfile from 7. August 2018, 18:47

Various Artists / Mito '60 Vol.2 (cd2)

Used drive : ASUS BC-12D2HT Adapter: 0 ID: 0

Read mode : Secure
Utilize accurate stream : Yes
Defeat audio cache : Yes
Make use of C2 pointers : No

Read offset correction : 6
Overread into Lead-In and Lead-Out : No
Fill up missing offset samples with silence : Yes
Delete leading and trailing silent blocks : No
Null samples used in CRC calculations : Yes
Used interface : Installed external ASPI interface
Gap handling : Appended to previous track

Used output format : User Defined Encoder
Selected bitrate : 1024 kBit/s
Quality : High
Add ID3 tag : No
Command line compressor : C:\Program Files (x86)\Exact Audio Copy\FLAC\FLAC.EXE
Additional command line options : -8 -V -T "Artist=%artist%" -T "Title=%title%" -T "Album=%albumtitle%" -T "DATE=%year%" -T "TRACKNUMBER=%tracknr%" -T "Genre=%genre%" -T "ALBUMARTIST=%albumartist%" -T "ALBUM ARTIST=%albumartist%" -T "COMMENT=EAC Secure Mode, Test & Copy, AccurateRip, FLAC -8" %source%


TOC of the extracted CD

Track | Start | Length | Start sector | End sector
––––––––––––––––––––––––––––-
1 | 0:00.00 | 3:13.68 | 0 | 14542
2 | 3:13.68 | 3:05.41 | 14543 | 28458
3 | 6:19.34 | 2:26.36 | 28459 | 39444
4 | 8:45.70 | 3:26.01 | 39445 | 54895
5 | 12:11.71 | 2:47.38 | 54896 | 67458
6 | 14:59.34 | 2:51.24 | 67459 | 80307
7 | 17:50.58 | 2:46.26 | 80308 | 92783
8 | 20:37.09 | 2:37.11 | 92784 | 104569
9 | 23:14.20 | 2:30.04 | 104570 | 115823
10 | 25:44.24 | 2:04.68 | 115824 | 125191
11 | 27:49.17 | 2:04.74 | 125192 | 134565
12 | 29:54.16 | 3:28.17 | 134566 | 150182
13 | 33:22.33 | 4:43.55 | 150183 | 171462
14 | 38:06.13 | 2:47.01 | 171463 | 183988
15 | 40:53.14 | 2:54.17 | 183989 | 197055


Track 1

Filename C:\EAC\01. Elvis Presley - It's now or never.wav

Pre-gap length 0:00:02.00

Peak level 44.5 %
Extraction speed 1.8 X
Track quality 100.0 %
Test CRC B26ACE57
Copy CRC B26ACE57
Track not present in AccurateRip database
Copy OK

Track 2

Filename C:\EAC\02. Gianni Meccia - Il barattolo.wav

Pre-gap length 0:00:01.89

Peak level 44.1 %
Extraction speed 2.0 X
Track quality 100.0 %
Test CRC C0366FDF
Copy CRC C0366FDF
Track not present in AccurateRip database
Copy OK

Track 3

Filename C:\EAC\03. Giorgio Gaber - Non arrossire.wav

Pre-gap length 0:00:01.89

Peak level 46.1 %
Extraction speed 2.1 X
Track quality 100.0 %
Test CRC 11C16C4E
Copy CRC 11C16C4E
Track not present in AccurateRip database
Copy OK

Track 4

Filename C:\EAC\04. Mina - Una zebra a pois.wav

Pre-gap length 0:00:01.89

Peak level 44.6 %
Extraction speed 2.3 X
Track quality 100.0 %
Test CRC A018DCAD
Copy CRC A018DCAD
Track not present in AccurateRip database
Copy OK

Track 5

Filename C:\EAC\05. Adriano Celentano - Nata per me.wav

Pre-gap length 0:00:01.89

Peak level 38.2 %
Extraction speed 2.4 X
Track quality 100.0 %
Test CRC B0931FCC
Copy CRC B0931FCC
Track not present in AccurateRip database
Copy OK

Track 6

Filename C:\EAC\06. Peppino di Capri - Nessuno al mondo.wav

Pre-gap length 0:00:01.89

Peak level 47.2 %
Extraction speed 2.1 X
Track quality 99.9 %
Test CRC 9BA1AF14
Copy CRC 9BA1AF14
Track not present in AccurateRip database
Copy OK

Track 7

Filename C:\EAC\07. Pino Donaggio - La ragazza col maglione.wav

Pre-gap length 0:00:01.89

Peak level 41.0 %
Extraction speed 1.7 X
Track quality 99.9 %
Test CRC A79D8270
Copy CRC A79D8270
Track not present in AccurateRip database
Copy OK

Track 8

Filename C:\EAC\08. Dalida - Uno a te uno a me.wav

Pre-gap length 0:00:01.89

Peak level 44.8 %
Extraction speed 2.7 X
Track quality 100.0 %
Test CRC 31487AFF
Copy CRC 31487AFF
Track not present in AccurateRip database
Copy OK

Track 9

Filename C:\EAC\09. Edoardo Vianello - Il capello.wav

Pre-gap length 0:00:01.89

Peak level 39.8 %
Extraction speed 2.2 X
Track quality 99.9 %
Test CRC CF4B2577
Copy CRC CF4B2577
Track not present in AccurateRip database
Copy OK

Track 10

Filename C:\EAC\10. Little Tony - Un rock per Judy.wav

Pre-gap length 0:00:01.89

Peak level 41.5 %
Extraction speed 2.7 X
Track quality 100.0 %
Test CRC 6EBF8A7B
Copy CRC 6EBF8A7B
Track not present in AccurateRip database
Copy OK

Track 11

Filename C:\EAC\11. Gianni Morandi - Corri corri.wav

Pre-gap length 0:00:01.89

Peak level 41.7 %
Extraction speed 2.8 X
Track quality 100.0 %
Test CRC 9CEE4A7B
Copy CRC 9CEE4A7B
Track not present in AccurateRip database
Copy OK

Track 12

Filename C:\EAC\12. Milva - Flamenco rock.wav

Pre-gap length 0:00:01.89

Peak level 40.3 %
Extraction speed 3.1 X
Track quality 100.0 %
Test CRC 93B82248
Copy CRC 93B82248
Track not present in AccurateRip database
Copy OK

Track 13

Filename C:\EAC\13. Umberto Bindi - E' vero.wav

Pre-gap length 0:00:01.89

Peak level 41.1 %
Extraction speed 3.4 X
Track quality 100.0 %
Test CRC 6C0EBED3
Copy CRC 6C0EBED3
Track not present in AccurateRip database
Copy OK

Track 14

Filename C:\EAC\14. Domenico Modugno - Libero.wav

Pre-gap length 0:00:01.89

Peak level 96.3 %
Extraction speed 3.2 X
Track quality 100.0 %
Test CRC 9B1B5C96
Copy CRC 9B1B5C96
Track not present in AccurateRip database
Copy OK

Track 15

Filename C:\EAC\15. Gino Paoli - Le cose dell'amore.wav

Pre-gap length 0:00:01.89

Peak level 44.0 %
Extraction speed 3.3 X
Track quality 100.0 %
Test CRC 186AF0AD
Copy CRC 186AF0AD
Track not present in AccurateRip database
Copy OK


None of the tracks are present in the AccurateRip database

No errors occurred

End of status report

–– CUETools DB Plugin V2.1.6

[CTDB TOCID: .GiihodXDuTZjusyMR8_FBEsXeI-] disk not present in database
Submit result: .GiihodXDuTZjusyMR8_FBEsXeI- has been uploaded


==== Log checksum 00BA013C6277FF0B7A2A4E0BF1C5EF0A5E8717048171D588063EE79CB85B8C45 ====