Subcategories

VA - Rock Road Trip: The Ultimate Collection (5CD, 2018)

Posted By: ciklon5
VA - Rock Road Trip: The Ultimate Collection (5CD, 2018)

VA - Rock Road Trip: The Ultimate Collection (5CD, 2018)
FLAC (tracks+.cue+log+scans) / MP3 CBR 320 kbps | 6:05:55 | 861 Mb / 2,6 Gb
Genre: Pop, Rock / Label: Union Square Music Ltd

Whether you are embarking on an American type road trip or cruising through countryside or maybe just on your daily commute, we’ve compiled the best rock road trip songs to get your motor running and kick your journey into high gear! Ultimate Rock Road Trip serves up 100 solid rock hits for a rip-roaring drive, including a superb mix of classic rock, metal, new wave, alternative and modern indie nuggets. The legendary classic bands include Rainbow, Thin Lizzy, Status Quo, Motorhead, Kiss, Iggy Pop, Magnum, Nazareth and The Velvet Underground to name but a few. The newer names include Jake Bugg, Papa Roach, Fall Out Boy, 3 Doors Down, Blink 182, Hoobastank,Thirty Seconds To Mars plus a host of others great bands. This is the perfect collection of essential rock bangers to accompany you on your road trip and make it enjoyable. Now all you have to do is start your engine, crank up the stereo and rock out to Ultimate Rock Road Trip.

Track List:

CD1:
01.The Troggs - Wild Thing (Edit) - 00:02:25
02.Free - All Right Now (Single Version) - 00:04:12
03.The Velvet Underground - I'm Waiting For The Man - 00:04:38
04.Uriah Heep - Easy Livin' - 00:02:35
05.Lynyrd Skynyrd - Sweet Home Alabama (Album Version) - 00:03:37
06.Rod Stewart - Maggie May (Single Version) - 00:03:42
07.Status Quo - Caroline - 00:03:45
08.The Allman Brothers - Ramblin' Man - 00:04:48
09.Bachman-Turner Overdrive - You Ain't Seen Nothing Yet (Single Version) - 00:03:52
10.Norman Greenbaum - Spirit In The Sky - 00:03:58
11.Stealers Wheel - Stuck In The Middle With You - 00:03:24
12.Chuck Berry - Route 66 (Album Version) - 00:02:52
13.Status Quo - Pictures Of Matchstick Men - 00:03:15
14.Juicy Lucy - Who Do You Love? - 00:03:00
15.Atomic Rooster - Tomorrow Night - 00:03:14
16.New York Dolls - Personality Crisis (Album Version) - 00:03:41
17.Nazareth - Hair Of The Dog - 00:03:20
18.Baker Gurvitz Army - Love Is - 00:02:49
19.Dan McCafferty - Out Of Time - 00:03:48
20.Climax Blues Band - Couldn't Get It Right - 00:03:16

CD2:
01.Rainbow - Since You Been Gone (Single Version) - 00:03:17
02.Thin Lizzy - The Boys Are Back In Town - 00:04:27
03.Blondie - One Way Or Another - 00:03:26
04.Kiss - I Was Made For Lovin' You (Single Version) - 00:03:59
05.Billy Idol - White Wedding Pt. 1 - 00:03:33
06.Joe Jackson - Is She Really Going Out With Him? (Album Version) - 00:03:34
07.Bonnie Tyler - It's A Heartache - 00:03:30
08.Emerson, Lake & Palmer - Fanfare For The Common Man - 00:02:58
09.Girlschool - Race With The Devil - 00:02:51
10.Motorhead - Overkill - 00:05:12
11.The Runaways - Cherry Bomb - 00:02:18
12.Rose Tattoo - Rock 'N' Roll Outlaw - 00:03:21
13.Hanoi Rocks - I Want You - 00:03:13
14.Angel Witch - Angel Witch - 00:03:23
15.Girlschool & Motorhead - Please Don't Touch - 00:02:47
16.Plasmatics - Butcher Baby - 00:03:33
17.Raven - Hard Ride - 00:03:05
18.Samson - Riding With The Angels - 00:03:39
19.Johnny Guitar Watson - Gangster Of Love - 00:03:44
20.Tenpole Tudor - Swords Of A Thousand Men - 00:02:55

CD3:
01.Iggy Pop - Real Wild Child (Wild One) - 00:03:34
02.The Cure - Never Enough (Single Version) - 00:04:25
03.Scorpions - Wind Of Change - 00:03:40
04.Little Angels - Too Much Too Young - 00:04:20
05.Magnum - On A Storyteller's Night - 00:04:59
06.Nazareth - Bad Bad Boy - 00:03:54
07.Cher - Just Like Jesse James - 00:04:03
08.Motorhead - I Got Mine - 00:05:21
09.Gary Moore - Really Gonna Rock Tonight - 00:03:47
10.Big Country - In A Big Country (Radio Edit) - 00:03:49
11.Frankie Goes To Hollywood - Two Tribes - 00:03:22
12.Cutting Crew - (I Just) Died In Your Arms Tonight - 00:04:22
13.Magnum - The Spirit - 00:04:17
14.The Damned - Life Goes On - 00:04:06
15.L.A. Guns - Rip And Tear - 00:04:10
16.Venom - To Hell And Back - 00:03:00
17.Cinderella - Gypsy Road (Album Version) - 00:03:49
18.Poison - Nothin' But A Good Time - 00:03:43
19.The Silencers - Painted Moon - 00:04:00
20.Fleetwood Mac - Man Of The World (1998 Remaster) - 00:02:59

CD4:
01.Lenny Kravitz - Are You Gonna Go My Way? - 00:03:31
02.The Dandy Warhols - Bohemian Like You - 00:03:29
03.Sheryl Crow - All I Wanna Do - 00:04:33
04.Ugly Kid Joe - Cats In The Cradle - 00:04:02
05.Therapy? - Screamager - 00:02:41
06.The Cardigans - My Favourite Game - 00:03:37
07.Hole - Celebrity Skin - 00:02:42
08.4 Non Blondes - What's Up - 00:04:13
09.James - She's A Star (Album Version) - 00:03:40
10.Ocean Colour Scene - The Riverboat Song (Album Version) - 00:04:57
11.The Jam - Town Called Malice - 00:02:53
12.The Cranberries - Zombie (Edit) - 00:05:08
13.Extreme - More Than Words (Radio Edit) - 00:03:40
14.Caravan - Memory Lain, Hugh (Live) - 00:05:02
15.1927 - That's When I Think Of You - 00:04:13
16.Corrosion Of Conformity - Stare Too Long - 00:04:55
17.Joey Ramone - Don't Worry About Me - 00:03:55
18.The Damned - New Rose - 00:02:42
19.Billy Idol - Scream (Radio Edit) - 00:03:53
20.Raspberries - Overnight Sensation (Digitally Remastered) - 00:05:22

CD5:
01.Jake Bugg - Lightning Bolt - 00:02:23
02.The Stereophonics - Have A Nice Day - 00:03:25
03.Bastille - Pompeii - 00:03:34
04.Frankie Goes To Hollywood - The Power Of Love - 00:05:29
05.Razorlight - America - 00:04:09
06.Papa Roach - Last Resort (Album Version) - 00:03:20
07.Puddle Of Mudd - Blurry (Radio Edit) - 00:04:19
08.Fall Out Boy - My Songs Know What You Did In The Dark (Light Em Up) - 00:03:08
09.3 Doors Down - Kryptonite (2009 Remaster) - 00:03:55
10.Alien Ant Farm - Smooth Criminal - 00:03:28
11.Blink-182 - What's My Age Again? - 00:02:28
12.Sum 41 - Fat Lip (Album Version) - 00:02:59
13.Smash Mouth - All Star - 00:03:19
14.Weezer - Buddy Holly - 00:02:39
15.Raging Speedhorn - The Gush - 00:03:53
16.Hoobastank - The Reason (UK Radio Mix) - 00:03:52
17.You Me At Six - Underdog - 00:02:24
18.Thirty Seconds To Mars - The Kill (Bury Me) (Edit) - 00:03:45
19.The Cooper Temple Clause - Promises, Promises - 00:03:19
20.Black Rebel Motorcycle Club - Ain't No Easy Way - 00:02:35

Exact Audio Copy V1.3 from 2. September 2016

EAC extraction logfile from 24. July 2018, 18:31

Various / Rock - Road Trip - The Ultimate Collection - CD1

Used drive : HL-DT-STDVDRAM GSA-E40N Adapter: 1 ID: 1

Read mode : Secure
Utilize accurate stream : Yes
Defeat audio cache : No
Make use of C2 pointers : Yes

Read offset correction : 667
Overread into Lead-In and Lead-Out : No
Fill up missing offset samples with silence : Yes
Delete leading and trailing silent blocks : No
Null samples used in CRC calculations : Yes
Used interface : Native Win32 interface for Win NT & 2000
Gap handling : Not detected, thus appended to previous track

Used output format : User Defined Encoder
Selected bitrate : 896 kBit/s
Quality : High
Add ID3 tag : No
Command line compressor : C:\Program Files (x86)\Exact Audio Copy\FLAC\FLAC.EXE
Additional command line options : -6 -V -T "ARTIST=%artist%" -T "TITLE=%title%" -T "ALBUM=%albumtitle%" -T "DATE=%year%" -T "TRACKNUMBER=%tracknr%" -T "GENRE=%genre%" -T "COMMENT=%comment%" -T "BAND=%albuminterpret%" -T "ALBUMARTIST=%albuminterpret%" -T "COMPOSER=%composer%" %haslyrics%–tag-from-file=LYRICS="%lyricsfile%"%haslyrics% -T "DISCNUMBER=%cdnumber%" -T "TOTALDISCS=%totalcds%" -T "TOTALTRACKS=%numtracks%" %hascover%–picture="%coverfile%"%hascover% %source% -o %dest%


TOC of the extracted CD

Track | Start | Length | Start sector | End sector
––––––––––––––––––––––––––––-
1 | 0:00.00 | 2:25.64 | 0 | 10938
2 | 2:25.64 | 4:12.19 | 10939 | 29857
3 | 6:38.08 | 4:38.38 | 29858 | 50745
4 | 11:16.46 | 2:35.55 | 50746 | 62425
5 | 13:52.26 | 3:37.12 | 62426 | 78712
6 | 17:29.38 | 3:42.14 | 78713 | 95376
7 | 21:11.52 | 3:45.49 | 95377 | 112300
8 | 24:57.26 | 4:48.56 | 112301 | 133956
9 | 29:46.07 | 3:52.68 | 133957 | 151424
10 | 33:39.00 | 3:58.38 | 151425 | 169312
11 | 37:37.38 | 3:24.35 | 169313 | 184647
12 | 41:01.73 | 2:52.10 | 184648 | 197557
13 | 43:54.08 | 3:15.17 | 197558 | 212199
14 | 47:09.25 | 3:00.68 | 212200 | 225767
15 | 50:10.18 | 3:14.32 | 225768 | 240349
16 | 53:24.50 | 3:41.48 | 240350 | 256972
17 | 57:06.23 | 3:20.43 | 256973 | 272015
18 | 60:26.66 | 2:49.13 | 272016 | 284703
19 | 63:16.04 | 3:48.64 | 284704 | 301867
20 | 67:04.68 | 3:16.56 | 301868 | 316623


Track 1

Filename A:\PsPBuRnOuT's MUSIC\ROCK\ROCK - ROAD TRIP - THE ULTIMATE COLLECTION\ROCK - ROAD TRIP - CD1\01.The Troggs - Wild Thing (Edit).wav

Peak level 96.9 %
Extraction speed 5.0 X
Track quality 99.0 %
Copy CRC 1F49EC8E
Accurately ripped (confidence 1) [A9579457] (AR v2)
Copy OK

Track 2

Filename A:\PsPBuRnOuT's MUSIC\ROCK\ROCK - ROAD TRIP - THE ULTIMATE COLLECTION\ROCK - ROAD TRIP - CD1\02.Free - All Right Now (Single Version).wav

Peak level 100.0 %
Extraction speed 8.1 X
Track quality 99.4 %
Copy CRC 53949F3E
Accurately ripped (confidence 1) [EA06EDDA] (AR v2)
Copy OK

Track 3

Filename A:\PsPBuRnOuT's MUSIC\ROCK\ROCK - ROAD TRIP - THE ULTIMATE COLLECTION\ROCK - ROAD TRIP - CD1\03.The Velvet Underground - I'm Waiting For The Man.wav

Peak level 100.0 %
Extraction speed 19.0 X
Track quality 99.9 %
Copy CRC AC631044
Accurately ripped (confidence 1) [E6745020] (AR v2)
Copy OK

Track 4

Filename A:\PsPBuRnOuT's MUSIC\ROCK\ROCK - ROAD TRIP - THE ULTIMATE COLLECTION\ROCK - ROAD TRIP - CD1\04.Uriah Heep - Easy Livin'.wav

Peak level 100.0 %
Extraction speed 19.2 X
Track quality 100.0 %
Copy CRC 600893D5
Accurately ripped (confidence 1) [3F2228B6] (AR v2)
Copy OK

Track 5

Filename A:\PsPBuRnOuT's MUSIC\ROCK\ROCK - ROAD TRIP - THE ULTIMATE COLLECTION\ROCK - ROAD TRIP - CD1\05.Lynyrd Skynyrd - Sweet Home Alabama (Album Version).wav

Peak level 98.7 %
Extraction speed 21.4 X
Track quality 100.0 %
Copy CRC 4392C5A4
Accurately ripped (confidence 1) [A1D7E972] (AR v2)
Copy OK

Track 6

Filename A:\PsPBuRnOuT's MUSIC\ROCK\ROCK - ROAD TRIP - THE ULTIMATE COLLECTION\ROCK - ROAD TRIP - CD1\06.Rod Stewart - Maggie May (Single Version).wav

Peak level 100.0 %
Extraction speed 24.0 X
Track quality 100.0 %
Copy CRC 3E1EADC7
Accurately ripped (confidence 1) [FC7BB22B] (AR v2)
Copy OK

Track 7

Filename A:\PsPBuRnOuT's MUSIC\ROCK\ROCK - ROAD TRIP - THE ULTIMATE COLLECTION\ROCK - ROAD TRIP - CD1\07.Status Quo - Caroline.wav

Peak level 100.0 %
Extraction speed 24.8 X
Track quality 100.0 %
Copy CRC EC943640
Accurately ripped (confidence 1) [BC185E1A] (AR v2)
Copy OK

Track 8

Filename A:\PsPBuRnOuT's MUSIC\ROCK\ROCK - ROAD TRIP - THE ULTIMATE COLLECTION\ROCK - ROAD TRIP - CD1\08.The Allman Brothers - Ramblin' Man.wav

Peak level 88.6 %
Extraction speed 27.1 X
Track quality 100.0 %
Copy CRC 10453936
Accurately ripped (confidence 1) [4CE736F6] (AR v2)
Copy OK

Track 9

Filename A:\PsPBuRnOuT's MUSIC\ROCK\ROCK - ROAD TRIP - THE ULTIMATE COLLECTION\ROCK - ROAD TRIP - CD1\09.Bachman-Turner Overdrive - You Ain't Seen Nothing Yet (Single Version).wav

Peak level 100.0 %
Extraction speed 24.9 X
Track quality 100.0 %
Copy CRC EBA93911
Accurately ripped (confidence 1) [AD89C5B8] (AR v2)
Copy OK

Track 10

Filename A:\PsPBuRnOuT's MUSIC\ROCK\ROCK - ROAD TRIP - THE ULTIMATE COLLECTION\ROCK - ROAD TRIP - CD1\10.Norman Greenbaum - Spirit In The Sky.wav

Peak level 100.0 %
Extraction speed 27.3 X
Track quality 100.0 %
Copy CRC 5BD71809
Accurately ripped (confidence 1) [BDCC4B3C] (AR v2)
Copy OK

Track 11

Filename A:\PsPBuRnOuT's MUSIC\ROCK\ROCK - ROAD TRIP - THE ULTIMATE COLLECTION\ROCK - ROAD TRIP - CD1\11.Stealers Wheel - Stuck In The Middle With You.wav

Peak level 100.0 %
Extraction speed 26.7 X
Track quality 100.0 %
Copy CRC B459FC00
Accurately ripped (confidence 1) [D73BDF43] (AR v2)
Copy OK

Track 12

Filename A:\PsPBuRnOuT's MUSIC\ROCK\ROCK - ROAD TRIP - THE ULTIMATE COLLECTION\ROCK - ROAD TRIP - CD1\12.Chuck Berry - Route 66 (Album Version).wav

Peak level 95.5 %
Extraction speed 30.9 X
Track quality 100.0 %
Copy CRC 08D9782B
Accurately ripped (confidence 1) [319EC17D] (AR v2)
Copy OK

Track 13

Filename A:\PsPBuRnOuT's MUSIC\ROCK\ROCK - ROAD TRIP - THE ULTIMATE COLLECTION\ROCK - ROAD TRIP - CD1\13.Status Quo - Pictures Of Matchstick Men.wav

Peak level 94.4 %
Extraction speed 27.9 X
Track quality 100.0 %
Copy CRC EE581FFC
Accurately ripped (confidence 1) [96FD9E6F] (AR v2)
Copy OK

Track 14

Filename A:\PsPBuRnOuT's MUSIC\ROCK\ROCK - ROAD TRIP - THE ULTIMATE COLLECTION\ROCK - ROAD TRIP - CD1\14.Juicy Lucy - Who Do You Love.wav

Peak level 96.6 %
Extraction speed 27.5 X
Track quality 100.0 %
Copy CRC 50154A06
Accurately ripped (confidence 1) [64B90D71] (AR v2)
Copy OK

Track 15

Filename A:\PsPBuRnOuT's MUSIC\ROCK\ROCK - ROAD TRIP - THE ULTIMATE COLLECTION\ROCK - ROAD TRIP - CD1\15.Atomic Rooster - Tomorrow Night.wav

Peak level 100.0 %
Extraction speed 33.2 X
Track quality 100.0 %
Copy CRC A7E1D351
Accurately ripped (confidence 1) [3D0DDB49] (AR v2)
Copy OK

Track 16

Filename A:\PsPBuRnOuT's MUSIC\ROCK\ROCK - ROAD TRIP - THE ULTIMATE COLLECTION\ROCK - ROAD TRIP - CD1\16.New York Dolls - Personality Crisis (Album Version).wav

Peak level 100.0 %
Extraction speed 29.7 X
Track quality 100.0 %
Copy CRC CAD231F6
Accurately ripped (confidence 1) [96E753EE] (AR v2)
Copy OK

Track 17

Filename A:\PsPBuRnOuT's MUSIC\ROCK\ROCK - ROAD TRIP - THE ULTIMATE COLLECTION\ROCK - ROAD TRIP - CD1\17.Nazareth - Hair Of The Dog.wav

Peak level 87.9 %
Extraction speed 35.7 X
Track quality 100.0 %
Copy CRC 41FA85C7
Accurately ripped (confidence 1) [1178B38D] (AR v2)
Copy OK

Track 18

Filename A:\PsPBuRnOuT's MUSIC\ROCK\ROCK - ROAD TRIP - THE ULTIMATE COLLECTION\ROCK - ROAD TRIP - CD1\18.Baker Gurvitz Army - Love Is.wav

Peak level 86.1 %
Extraction speed 30.8 X
Track quality 100.0 %
Copy CRC 569BBF6A
Accurately ripped (confidence 1) [B9412E5E] (AR v2)
Copy OK

Track 19

Filename A:\PsPBuRnOuT's MUSIC\ROCK\ROCK - ROAD TRIP - THE ULTIMATE COLLECTION\ROCK - ROAD TRIP - CD1\19.Dan McCafferty - Out Of Time.wav

Peak level 100.0 %
Extraction speed 36.5 X
Track quality 100.0 %
Copy CRC 718A8BF1
Accurately ripped (confidence 1) [16FB2AC8] (AR v2)
Copy OK

Track 20

Filename A:\PsPBuRnOuT's MUSIC\ROCK\ROCK - ROAD TRIP - THE ULTIMATE COLLECTION\ROCK - ROAD TRIP - CD1\20.Climax Blues Band - Couldn't Get It Right.wav

Peak level 96.6 %
Extraction speed 35.4 X
Track quality 100.0 %
Copy CRC 594825E8
Accurately ripped (confidence 1) [503742F4] (AR v2)
Copy OK


All tracks accurately ripped

No errors occurred

End of status report

–– CUETools DB Plugin V2.1.6

[CTDB TOCID: fwQ0qjm1K8c5BsHf9KbzxxHby14-] found
Submit result: fwQ0qjm1K8c5BsHf9KbzxxHby14- has been confirmed
Track | CTDB Status
1 | (2/2) Accurately ripped
2 | (2/2) Accurately ripped
3 | (2/2) Accurately ripped
4 | (2/2) Accurately ripped
5 | (2/2) Accurately ripped
6 | (2/2) Accurately ripped
7 | (2/2) Accurately ripped
8 | (2/2) Accurately ripped
9 | (2/2) Accurately ripped
10 | (2/2) Accurately ripped
11 | (2/2) Accurately ripped
12 | (2/2) Accurately ripped
13 | (2/2) Accurately ripped
14 | (2/2) Accurately ripped
15 | (2/2) Accurately ripped
16 | (2/2) Accurately ripped
17 | (2/2) Accurately ripped
18 | (2/2) Accurately ripped
19 | (2/2) Accurately ripped
20 | (2/2) Accurately ripped

Exact Audio Copy V1.3 from 2. September 2016

EAC extraction logfile from 24. July 2018, 19:41

Various / Rock - Road Trip - The Ultimate Collection - CD2

Used drive : HL-DT-STDVDRAM GSA-E40N Adapter: 1 ID: 1

Read mode : Secure
Utilize accurate stream : Yes
Defeat audio cache : No
Make use of C2 pointers : Yes

Read offset correction : 667
Overread into Lead-In and Lead-Out : No
Fill up missing offset samples with silence : Yes
Delete leading and trailing silent blocks : No
Null samples used in CRC calculations : Yes
Used interface : Native Win32 interface for Win NT & 2000
Gap handling : Not detected, thus appended to previous track

Used output format : User Defined Encoder
Selected bitrate : 896 kBit/s
Quality : High
Add ID3 tag : No
Command line compressor : C:\Program Files (x86)\Exact Audio Copy\FLAC\FLAC.EXE
Additional command line options : -6 -V -T "ARTIST=%artist%" -T "TITLE=%title%" -T "ALBUM=%albumtitle%" -T "DATE=%year%" -T "TRACKNUMBER=%tracknr%" -T "GENRE=%genre%" -T "COMMENT=%comment%" -T "BAND=%albuminterpret%" -T "ALBUMARTIST=%albuminterpret%" -T "COMPOSER=%composer%" %haslyrics%–tag-from-file=LYRICS="%lyricsfile%"%haslyrics% -T "DISCNUMBER=%cdnumber%" -T "TOTALDISCS=%totalcds%" -T "TOTALTRACKS=%numtracks%" %hascover%–picture="%coverfile%"%hascover% %source% -o %dest%


TOC of the extracted CD

Track | Start | Length | Start sector | End sector
––––––––––––––––––––––––––––-
1 | 0:00.00 | 3:17.73 | 0 | 14847
2 | 3:17.73 | 4:27.60 | 14848 | 34932
3 | 7:45.58 | 3:26.27 | 34933 | 50409
4 | 11:12.10 | 3:59.67 | 50410 | 68401
5 | 15:12.02 | 3:33.44 | 68402 | 84420
6 | 18:45.46 | 3:34.73 | 84421 | 100543
7 | 22:20.44 | 3:30.50 | 100544 | 116343
8 | 25:51.19 | 2:58.08 | 116344 | 129701
9 | 28:49.27 | 2:51.27 | 129702 | 142553
10 | 31:40.54 | 5:12.01 | 142554 | 165954
11 | 36:52.55 | 2:18.44 | 165955 | 176348
12 | 39:11.24 | 3:21.05 | 176349 | 191428
13 | 42:32.29 | 3:13.23 | 191429 | 205926
14 | 45:45.52 | 3:23.42 | 205927 | 221193
15 | 49:09.19 | 2:47.70 | 221194 | 233788
16 | 51:57.14 | 3:33.66 | 233789 | 249829
17 | 55:31.05 | 3:05.58 | 249830 | 263762
18 | 58:36.63 | 3:39.16 | 263763 | 280203
19 | 62:16.04 | 3:44.68 | 280204 | 297071
20 | 66:00.72 | 2:55.22 | 297072 | 310218


Track 1

Filename A:\PsPBuRnOuT's MUSIC\ROCK\ROCK - ROAD TRIP - THE ULTIMATE COLLECTION\ROCK - ROAD TRIP - CD2\01.Rainbow - Since You Been Gone (Single Version).wav

Peak level 100.0 %
Extraction speed 5.0 X
Track quality 98.9 %
Copy CRC 65552960
Accurately ripped (confidence 1) [64C58010] (AR v2)
Copy OK

Track 2

Filename A:\PsPBuRnOuT's MUSIC\ROCK\ROCK - ROAD TRIP - THE ULTIMATE COLLECTION\ROCK - ROAD TRIP - CD2\02.Thin Lizzy - The Boys Are Back In Town.wav

Peak level 91.0 %
Extraction speed 20.2 X
Track quality 100.0 %
Copy CRC 000D8E4C
Accurately ripped (confidence 1) [7468CA0E] (AR v2)
Copy OK

Track 3

Filename A:\PsPBuRnOuT's MUSIC\ROCK\ROCK - ROAD TRIP - THE ULTIMATE COLLECTION\ROCK - ROAD TRIP - CD2\03.Blondie - One Way Or Another.wav

Peak level 97.8 %
Extraction speed 19.5 X
Track quality 100.0 %
Copy CRC D5750AA6
Accurately ripped (confidence 1) [750C2568] (AR v2)
Copy OK

Track 4

Filename A:\PsPBuRnOuT's MUSIC\ROCK\ROCK - ROAD TRIP - THE ULTIMATE COLLECTION\ROCK - ROAD TRIP - CD2\04.Kiss - I Was Made For Lovin' You (Single Version).wav

Peak level 99.4 %
Extraction speed 20.9 X
Track quality 100.0 %
Copy CRC D17726F5
Accurately ripped (confidence 1) [F578DC76] (AR v2)
Copy OK

Track 5

Filename A:\PsPBuRnOuT's MUSIC\ROCK\ROCK - ROAD TRIP - THE ULTIMATE COLLECTION\ROCK - ROAD TRIP - CD2\05.Billy Idol - White Wedding Pt. 1.wav

Peak level 100.0 %
Extraction speed 24.6 X
Track quality 100.0 %
Copy CRC 1E222716
Accurately ripped (confidence 1) [5D4847EB] (AR v2)
Copy OK

Track 6

Filename A:\PsPBuRnOuT's MUSIC\ROCK\ROCK - ROAD TRIP - THE ULTIMATE COLLECTION\ROCK - ROAD TRIP - CD2\06.Joe Jackson - Is She Really Going Out With Him (Album Version).wav

Peak level 99.3 %
Extraction speed 22.7 X
Track quality 100.0 %
Copy CRC A11FC9C2
Accurately ripped (confidence 1) [C0F5B2AD] (AR v2)
Copy OK

Track 7

Filename A:\PsPBuRnOuT's MUSIC\ROCK\ROCK - ROAD TRIP - THE ULTIMATE COLLECTION\ROCK - ROAD TRIP - CD2\07.Bonnie Tyler - It's A Heartache.wav

Peak level 93.7 %
Extraction speed 22.4 X
Track quality 99.8 %
Copy CRC AA70AF3F
Accurately ripped (confidence 1) [FB17A2CD] (AR v2)
Copy OK

Track 8

Filename A:\PsPBuRnOuT's MUSIC\ROCK\ROCK - ROAD TRIP - THE ULTIMATE COLLECTION\ROCK - ROAD TRIP - CD2\08.Emerson, Lake & Palmer - Fanfare For The Common Man.wav

Peak level 80.7 %
Extraction speed 23.4 X
Track quality 100.0 %
Copy CRC 97F4007E
Accurately ripped (confidence 1) [10983B37] (AR v2)
Copy OK

Track 9

Filename A:\PsPBuRnOuT's MUSIC\ROCK\ROCK - ROAD TRIP - THE ULTIMATE COLLECTION\ROCK - ROAD TRIP - CD2\09.Girlschool - Race With The Devil.wav

Peak level 96.5 %
Extraction speed 24.6 X
Track quality 100.0 %
Copy CRC 59FA5F41
Accurately ripped (confidence 1) [5E9AD824] (AR v2)
Copy OK

Track 10

Filename A:\PsPBuRnOuT's MUSIC\ROCK\ROCK - ROAD TRIP - THE ULTIMATE COLLECTION\ROCK - ROAD TRIP - CD2\10.Motorhead - Overkill.wav

Peak level 99.7 %
Extraction speed 29.7 X
Track quality 100.0 %
Copy CRC 3F09584C
Accurately ripped (confidence 1) [F13A5BD2] (AR v2)
Copy OK

Track 11

Filename A:\PsPBuRnOuT's MUSIC\ROCK\ROCK - ROAD TRIP - THE ULTIMATE COLLECTION\ROCK - ROAD TRIP - CD2\11.The Runaways - Cherry Bomb.wav

Peak level 100.0 %
Extraction speed 25.7 X
Track quality 100.0 %
Copy CRC 96F3905B
Accurately ripped (confidence 1) [194469E9] (AR v2)
Copy OK

Track 12

Filename A:\PsPBuRnOuT's MUSIC\ROCK\ROCK - ROAD TRIP - THE ULTIMATE COLLECTION\ROCK - ROAD TRIP - CD2\12.Rose Tattoo - Rock 'N' Roll Outlaw.wav

Peak level 100.0 %
Extraction speed 25.6 X
Track quality 99.8 %
Copy CRC 5F173C00
Accurately ripped (confidence 1) [FDC50B8E] (AR v2)
Copy OK

Track 13

Filename A:\PsPBuRnOuT's MUSIC\ROCK\ROCK - ROAD TRIP - THE ULTIMATE COLLECTION\ROCK - ROAD TRIP - CD2\13.Hanoi Rocks - I Want You.wav

Peak level 99.7 %
Extraction speed 27.7 X
Track quality 100.0 %
Copy CRC 1BA58651
Accurately ripped (confidence 1) [9F8BA613] (AR v2)
Copy OK

Track 14

Filename A:\PsPBuRnOuT's MUSIC\ROCK\ROCK - ROAD TRIP - THE ULTIMATE COLLECTION\ROCK - ROAD TRIP - CD2\14.Angel Witch - Angel Witch.wav

Peak level 87.1 %
Extraction speed 28.4 X
Track quality 100.0 %
Copy CRC 6F89436B
Accurately ripped (confidence 1) [D32E7871] (AR v2)
Copy OK

Track 15

Filename A:\PsPBuRnOuT's MUSIC\ROCK\ROCK - ROAD TRIP - THE ULTIMATE COLLECTION\ROCK - ROAD TRIP - CD2\15.Girlschool & Motorhead - Please Don't Touch.wav

Peak level 100.0 %
Extraction speed 26.2 X
Track quality 99.8 %
Copy CRC 77456389
Accurately ripped (confidence 1) [01F9ADE8] (AR v2)
Copy OK

Track 16

Filename A:\PsPBuRnOuT's MUSIC\ROCK\ROCK - ROAD TRIP - THE ULTIMATE COLLECTION\ROCK - ROAD TRIP - CD2\16.Plasmatics - Butcher Baby.wav

Peak level 100.0 %
Extraction speed 33.6 X
Track quality 100.0 %
Copy CRC 2422CE8E
Accurately ripped (confidence 1) [80AF2F37] (AR v2)
Copy OK

Track 17

Filename A:\PsPBuRnOuT's MUSIC\ROCK\ROCK - ROAD TRIP - THE ULTIMATE COLLECTION\ROCK - ROAD TRIP - CD2\17.Raven - Hard Ride.wav

Peak level 92.2 %
Extraction speed 26.8 X
Track quality 99.8 %
Copy CRC 97CC2C00
Accurately ripped (confidence 1) [9C665BD3] (AR v2)
Copy OK

Track 18

Filename A:\PsPBuRnOuT's MUSIC\ROCK\ROCK - ROAD TRIP - THE ULTIMATE COLLECTION\ROCK - ROAD TRIP - CD2\18.Samson - Riding With The Angels.wav

Peak level 98.2 %
Extraction speed 29.0 X
Track quality 99.9 %
Copy CRC CD47AFFE
Accurately ripped (confidence 1) [33EE18D2] (AR v2)
Copy OK

Track 19

Filename A:\PsPBuRnOuT's MUSIC\ROCK\ROCK - ROAD TRIP - THE ULTIMATE COLLECTION\ROCK - ROAD TRIP - CD2\19.Johnny Guitar Watson - Gangster Of Love.wav

Peak level 98.8 %
Extraction speed 31.6 X
Track quality 100.0 %
Copy CRC BC2AEEB9
Accurately ripped (confidence 1) [42E84906] (AR v2)
Copy OK

Track 20

Filename A:\PsPBuRnOuT's MUSIC\ROCK\ROCK - ROAD TRIP - THE ULTIMATE COLLECTION\ROCK - ROAD TRIP - CD2\20.Tenpole Tudor - Swords Of A Thousand Men.wav

Peak level 100.0 %
Extraction speed 36.5 X
Track quality 99.8 %
Copy CRC 42F17276
Accurately ripped (confidence 1) [11B01B14] (AR v2)
Copy OK


All tracks accurately ripped

No errors occurred

End of status report

–– CUETools DB Plugin V2.1.6

[CTDB TOCID: EhHH_pHF4lW0IMdpEX1pAtjCErs-] found
Submit result: EhHH_pHF4lW0IMdpEX1pAtjCErs- has been confirmed
Track | CTDB Status
1 | (2/2) Accurately ripped
2 | (2/2) Accurately ripped
3 | (2/2) Accurately ripped
4 | (2/2) Accurately ripped
5 | (2/2) Accurately ripped
6 | (2/2) Accurately ripped
7 | (2/2) Accurately ripped
8 | (2/2) Accurately ripped
9 | (2/2) Accurately ripped
10 | (2/2) Accurately ripped
11 | (2/2) Accurately ripped
12 | (2/2) Accurately ripped
13 | (2/2) Accurately ripped
14 | (2/2) Accurately ripped
15 | (2/2) Accurately ripped
16 | (2/2) Accurately ripped
17 | (2/2) Accurately ripped
18 | (2/2) Accurately ripped
19 | (2/2) Accurately ripped
20 | (2/2) Accurately ripped

Exact Audio Copy V1.3 from 2. September 2016

EAC extraction logfile from 25. July 2018, 15:50

Various / Rock - Road Trip - The Ultimate Collection - CD3

Used drive : HL-DT-STDVDRAM GSA-E40N Adapter: 1 ID: 1

Read mode : Secure
Utilize accurate stream : Yes
Defeat audio cache : No
Make use of C2 pointers : Yes

Read offset correction : 667
Overread into Lead-In and Lead-Out : No
Fill up missing offset samples with silence : Yes
Delete leading and trailing silent blocks : No
Null samples used in CRC calculations : Yes
Used interface : Native Win32 interface for Win NT & 2000
Gap handling : Not detected, thus appended to previous track

Used output format : User Defined Encoder
Selected bitrate : 896 kBit/s
Quality : High
Add ID3 tag : No
Command line compressor : C:\Program Files (x86)\Exact Audio Copy\FLAC\FLAC.EXE
Additional command line options : -6 -V -T "ARTIST=%artist%" -T "TITLE=%title%" -T "ALBUM=%albumtitle%" -T "DATE=%year%" -T "TRACKNUMBER=%tracknr%" -T "GENRE=%genre%" -T "COMMENT=%comment%" -T "BAND=%albuminterpret%" -T "ALBUMARTIST=%albuminterpret%" -T "COMPOSER=%composer%" %haslyrics%–tag-from-file=LYRICS="%lyricsfile%"%haslyrics% -T "DISCNUMBER=%cdnumber%" -T "TOTALDISCS=%totalcds%" -T "TOTALTRACKS=%numtracks%" %hascover%–picture="%coverfile%"%hascover% %source% -o %dest%


TOC of the extracted CD

Track | Start | Length | Start sector | End sector
––––––––––––––––––––––––––––-
1 | 0:00.00 | 3:34.14 | 0 | 16063
2 | 3:34.14 | 4:25.45 | 16064 | 35983
3 | 7:59.59 | 3:40.33 | 35984 | 52516
4 | 11:40.17 | 4:20.57 | 52517 | 72073
5 | 16:00.74 | 4:59.28 | 72074 | 94526
6 | 21:00.27 | 3:54.48 | 94527 | 112124
7 | 24:55.00 | 4:03.26 | 112125 | 130375
8 | 28:58.26 | 5:21.23 | 130376 | 154473
9 | 34:19.49 | 3:47.06 | 154474 | 171504
10 | 38:06.55 | 3:49.55 | 171505 | 188734
11 | 41:56.35 | 3:22.16 | 188735 | 203900
12 | 45:18.51 | 4:22.46 | 203901 | 223596
13 | 49:41.22 | 4:17.17 | 223597 | 242888
14 | 53:58.39 | 4:06.59 | 242889 | 261397
15 | 58:05.23 | 4:10.43 | 261398 | 280190
16 | 62:15.66 | 3:00.18 | 280191 | 293708
17 | 65:16.09 | 3:49.16 | 293709 | 310899
18 | 69:05.25 | 3:43.00 | 310900 | 327624
19 | 72:48.25 | 4:00.50 | 327625 | 345674
20 | 76:49.00 | 2:59.21 | 345675 | 359120


Track 1

Filename A:\PsPBuRnOuT's MUSIC\ROCK\ROCK - ROAD TRIP - THE ULTIMATE COLLECTION\ROCK - ROAD TRIP - CD3\01.Iggy Pop - Real Wild Child (Wild One).wav

Peak level 99.5 %
Extraction speed 4.7 X
Track quality 98.9 %
Copy CRC CBC8E892
Accurately ripped (confidence 1) [D3E09FD5] (AR v2)
Copy OK

Track 2

Filename A:\PsPBuRnOuT's MUSIC\ROCK\ROCK - ROAD TRIP - THE ULTIMATE COLLECTION\ROCK - ROAD TRIP - CD3\02.The Cure - Never Enough (Single Version).wav

Peak level 94.0 %
Extraction speed 13.0 X
Track quality 99.7 %
Copy CRC 9506B9FD
Accurately ripped (confidence 1) [362D49DB] (AR v2)
Copy OK

Track 3

Filename A:\PsPBuRnOuT's MUSIC\ROCK\ROCK - ROAD TRIP - THE ULTIMATE COLLECTION\ROCK - ROAD TRIP - CD3\03.Scorpions - Wind Of Change.wav

Peak level 99.9 %
Extraction speed 19.0 X
Track quality 100.0 %
Copy CRC 54962A5F
Accurately ripped (confidence 1) [B4DD3001] (AR v2)
Copy OK

Track 4

Filename A:\PsPBuRnOuT's MUSIC\ROCK\ROCK - ROAD TRIP - THE ULTIMATE COLLECTION\ROCK - ROAD TRIP - CD3\04.Little Angels - Too Much Too Young.wav

Peak level 93.7 %
Extraction speed 22.8 X
Track quality 100.0 %
Copy CRC C778D50B
Accurately ripped (confidence 1) [CFA12CFF] (AR v2)
Copy OK

Track 5

Filename A:\PsPBuRnOuT's MUSIC\ROCK\ROCK - ROAD TRIP - THE ULTIMATE COLLECTION\ROCK - ROAD TRIP - CD3\05.Magnum - On A Storyteller's Night.wav

Peak level 100.0 %
Extraction speed 23.2 X
Track quality 100.0 %
Copy CRC A3C0481C
Accurately ripped (confidence 1) [45928AC8] (AR v2)
Copy OK

Track 6

Filename A:\PsPBuRnOuT's MUSIC\ROCK\ROCK - ROAD TRIP - THE ULTIMATE COLLECTION\ROCK - ROAD TRIP - CD3\06.Nazareth - Bad Bad Boy.wav

Peak level 92.2 %
Extraction speed 25.8 X
Track quality 100.0 %
Copy CRC 24C7A15A
Accurately ripped (confidence 1) [5372A38D] (AR v2)
Copy OK

Track 7

Filename A:\PsPBuRnOuT's MUSIC\ROCK\ROCK - ROAD TRIP - THE ULTIMATE COLLECTION\ROCK - ROAD TRIP - CD3\07.Cher - Just Like Jesse James.wav

Peak level 96.1 %
Extraction speed 23.9 X
Track quality 100.0 %
Copy CRC 7343E156
Accurately ripped (confidence 1) [764AB5BD] (AR v2)
Copy OK

Track 8

Filename A:\PsPBuRnOuT's MUSIC\ROCK\ROCK - ROAD TRIP - THE ULTIMATE COLLECTION\ROCK - ROAD TRIP - CD3\08.Motorhead - I Got Mine.wav

Peak level 94.3 %
Extraction speed 26.9 X
Track quality 100.0 %
Copy CRC EC9C1429
Accurately ripped (confidence 1) [9D4D2B1A] (AR v2)
Copy OK

Track 9

Filename A:\PsPBuRnOuT's MUSIC\ROCK\ROCK - ROAD TRIP - THE ULTIMATE COLLECTION\ROCK - ROAD TRIP - CD3\09.Gary Moore - Really Gonna Rock Tonight.wav

Peak level 100.0 %
Extraction speed 25.7 X
Track quality 100.0 %
Copy CRC BA8CCF55
Accurately ripped (confidence 1) [7E0C6D18] (AR v2)
Copy OK

Track 10

Filename A:\PsPBuRnOuT's MUSIC\ROCK\ROCK - ROAD TRIP - THE ULTIMATE COLLECTION\ROCK - ROAD TRIP - CD3\10.Big Country - In A Big Country (Radio Edit).wav

Peak level 100.0 %
Extraction speed 26.3 X
Track quality 100.0 %
Copy CRC 367E3809
Accurately ripped (confidence 1) [AD77A804] (AR v2)
Copy OK

Track 11

Filename A:\PsPBuRnOuT's MUSIC\ROCK\ROCK - ROAD TRIP - THE ULTIMATE COLLECTION\ROCK - ROAD TRIP - CD3\11.Frankie Goes To Hollywood - Two Tribes.wav

Peak level 93.2 %
Extraction speed 27.2 X
Track quality 100.0 %
Copy CRC B97EAF1F
Accurately ripped (confidence 1) [9F7DEDE7] (AR v2)
Copy OK

Track 12

Filename A:\PsPBuRnOuT's MUSIC\ROCK\ROCK - ROAD TRIP - THE ULTIMATE COLLECTION\ROCK - ROAD TRIP - CD3\12.Cutting Crew - (I Just) Died In Your Arms Tonight.wav

Peak level 89.3 %
Extraction speed 30.9 X
Track quality 100.0 %
Copy CRC 588D049E
Accurately ripped (confidence 1) [58E66880] (AR v2)
Copy OK

Track 13

Filename A:\PsPBuRnOuT's MUSIC\ROCK\ROCK - ROAD TRIP - THE ULTIMATE COLLECTION\ROCK - ROAD TRIP - CD3\13.Magnum - The Spirit.wav

Peak level 100.0 %
Extraction speed 30.4 X
Track quality 100.0 %
Copy CRC 391DD6BA
Accurately ripped (confidence 1) [E9E5A510] (AR v2)
Copy OK

Track 14

Filename A:\PsPBuRnOuT's MUSIC\ROCK\ROCK - ROAD TRIP - THE ULTIMATE COLLECTION\ROCK - ROAD TRIP - CD3\14.The Damned - Life Goes On.wav

Peak level 100.0 %
Extraction speed 34.0 X
Track quality 100.0 %
Copy CRC 238D5EE3
Accurately ripped (confidence 1) [8473A5FB] (AR v2)
Copy OK

Track 15

Filename A:\PsPBuRnOuT's MUSIC\ROCK\ROCK - ROAD TRIP - THE ULTIMATE COLLECTION\ROCK - ROAD TRIP - CD3\15.L.A. Guns - Rip And Tear.wav

Peak level 99.7 %
Extraction speed 32.8 X
Track quality 100.0 %
Copy CRC B0E31AD4
Accurately ripped (confidence 1) [AC661832] (AR v2)
Copy OK

Track 16

Filename A:\PsPBuRnOuT's MUSIC\ROCK\ROCK - ROAD TRIP - THE ULTIMATE COLLECTION\ROCK - ROAD TRIP - CD3\16.Venom - To Hell And Back.wav

Peak level 100.0 %
Extraction speed 30.3 X
Track quality 100.0 %
Copy CRC 91A55025
Accurately ripped (confidence 1) [5DD19287] (AR v2)
Copy OK

Track 17

Filename A:\PsPBuRnOuT's MUSIC\ROCK\ROCK - ROAD TRIP - THE ULTIMATE COLLECTION\ROCK - ROAD TRIP - CD3\17.Cinderella - Gypsy Road (Album Version).wav

Peak level 81.9 %
Extraction speed 33.6 X
Track quality 100.0 %
Copy CRC B279AD25
Accurately ripped (confidence 1) [648E62FA] (AR v2)
Copy OK

Track 18

Filename A:\PsPBuRnOuT's MUSIC\ROCK\ROCK - ROAD TRIP - THE ULTIMATE COLLECTION\ROCK - ROAD TRIP - CD3\18.Poison - Nothin' But A Good Time.wav

Peak level 89.1 %
Extraction speed 30.5 X
Track quality 100.0 %
Copy CRC 1E0D030F
Accurately ripped (confidence 1) [5111C86C] (AR v2)
Copy OK

Track 19

Filename A:\PsPBuRnOuT's MUSIC\ROCK\ROCK - ROAD TRIP - THE ULTIMATE COLLECTION\ROCK - ROAD TRIP - CD3\19.The Silencers - Painted Moon.wav

Peak level 100.0 %
Extraction speed 35.5 X
Track quality 100.0 %
Copy CRC BBBDBC29
Accurately ripped (confidence 1) [DE466152] (AR v2)
Copy OK

Track 20

Filename A:\PsPBuRnOuT's MUSIC\ROCK\ROCK - ROAD TRIP - THE ULTIMATE COLLECTION\ROCK - ROAD TRIP - CD3\20.Fleetwood Mac - Man Of The World (1998 Remaster).wav

Peak level 87.4 %
Extraction speed 30.4 X
Track quality 100.0 %
Copy CRC A8A754CE
Accurately ripped (confidence 1) [FCF54504] (AR v2)
Copy OK


All tracks accurately ripped

No errors occurred

End of status report

–– CUETools DB Plugin V2.1.6

[CTDB TOCID: HikjgaNsBdlQjg26MLZT8tXIocE-] found
Submit result: HikjgaNsBdlQjg26MLZT8tXIocE- has been confirmed
Track | CTDB Status
1 | (2/2) Accurately ripped
2 | (2/2) Accurately ripped
3 | (2/2) Accurately ripped
4 | (2/2) Accurately ripped
5 | (2/2) Accurately ripped
6 | (2/2) Accurately ripped
7 | (2/2) Accurately ripped
8 | (2/2) Accurately ripped
9 | (2/2) Accurately ripped
10 | (2/2) Accurately ripped
11 | (2/2) Accurately ripped
12 | (2/2) Accurately ripped
13 | (2/2) Accurately ripped
14 | (2/2) Accurately ripped
15 | (2/2) Accurately ripped
16 | (2/2) Accurately ripped
17 | (2/2) Accurately ripped
18 | (2/2) Accurately ripped
19 | (2/2) Accurately ripped
20 | (2/2) Accurately ripped

Exact Audio Copy V1.3 from 2. September 2016

EAC extraction logfile from 25. July 2018, 16:43

Various / Rock - Road Trip - The Ultimate Collection - CD4

Used drive : HL-DT-STDVDRAM GSA-E40N Adapter: 1 ID: 1

Read mode : Secure
Utilize accurate stream : Yes
Defeat audio cache : No
Make use of C2 pointers : Yes

Read offset correction : 667
Overread into Lead-In and Lead-Out : No
Fill up missing offset samples with silence : Yes
Delete leading and trailing silent blocks : No
Null samples used in CRC calculations : Yes
Used interface : Native Win32 interface for Win NT & 2000
Gap handling : Not detected, thus appended to previous track

Used output format : User Defined Encoder
Selected bitrate : 896 kBit/s
Quality : High
Add ID3 tag : No
Command line compressor : C:\Program Files (x86)\Exact Audio Copy\FLAC\FLAC.EXE
Additional command line options : -6 -V -T "ARTIST=%artist%" -T "TITLE=%title%" -T "ALBUM=%albumtitle%" -T "DATE=%year%" -T "TRACKNUMBER=%tracknr%" -T "GENRE=%genre%" -T "COMMENT=%comment%" -T "BAND=%albuminterpret%" -T "ALBUMARTIST=%albuminterpret%" -T "COMPOSER=%composer%" %haslyrics%–tag-from-file=LYRICS="%lyricsfile%"%haslyrics% -T "DISCNUMBER=%cdnumber%" -T "TOTALDISCS=%totalcds%" -T "TOTALTRACKS=%numtracks%" %hascover%–picture="%coverfile%"%hascover% %source% -o %dest%


TOC of the extracted CD

Track | Start | Length | Start sector | End sector
––––––––––––––––––––––––––––-
1 | 0:00.00 | 3:31.42 | 0 | 15866
2 | 3:31.42 | 3:29.22 | 15867 | 31563
3 | 7:00.64 | 4:33.38 | 31564 | 52076
4 | 11:34.27 | 4:02.65 | 52077 | 70291
5 | 15:37.17 | 2:41.10 | 70292 | 82376
6 | 18:18.27 | 3:37.51 | 82377 | 98702
7 | 21:56.03 | 2:42.63 | 98703 | 110915
8 | 24:38.66 | 4:13.49 | 110916 | 129939
9 | 28:52.40 | 3:40.67 | 129940 | 146506
10 | 32:33.32 | 4:57.25 | 146507 | 168806
11 | 37:30.57 | 2:53.19 | 168807 | 181800
12 | 40:24.01 | 5:08.02 | 181801 | 204902
13 | 45:32.03 | 3:40.58 | 204903 | 221460
14 | 49:12.61 | 5:02.47 | 221461 | 244157
15 | 54:15.33 | 4:13.26 | 244158 | 263158
16 | 58:28.59 | 4:55.54 | 263159 | 285337
17 | 63:24.38 | 3:55.25 | 285338 | 302987
18 | 67:19.63 | 2:42.66 | 302988 | 315203
19 | 70:02.54 | 3:53.12 | 315204 | 332690
20 | 73:55.66 | 5:22.61 | 332691 | 356901


Track 1

Filename A:\PsPBuRnOuT's MUSIC\ROCK\ROCK - ROAD TRIP - THE ULTIMATE COLLECTION\ROCK - ROAD TRIP - CD4\01.Lenny Kravitz - Are You Gonna Go My Way.wav

Peak level 88.1 %
Extraction speed 4.4 X
Track quality 98.8 %
Copy CRC 2D95749C
Accurately ripped (confidence 1) [77BE07C5] (AR v2)
Copy OK

Track 2

Filename A:\PsPBuRnOuT's MUSIC\ROCK\ROCK - ROAD TRIP - THE ULTIMATE COLLECTION\ROCK - ROAD TRIP - CD4\02.The Dandy Warhols - Bohemian Like You.wav

Peak level 91.1 %
Extraction speed 9.5 X
Track quality 99.5 %
Copy CRC 72537E6C
Accurately ripped (confidence 1) [D79A72F9] (AR v2)
Copy OK

Track 3

Filename A:\PsPBuRnOuT's MUSIC\ROCK\ROCK - ROAD TRIP - THE ULTIMATE COLLECTION\ROCK - ROAD TRIP - CD4\03.Sheryl Crow - All I Wanna Do.wav

Peak level 92.2 %
Extraction speed 16.3 X
Track quality 99.8 %
Copy CRC B009A5C4
Accurately ripped (confidence 1) [9EDE7836] (AR v2)
Copy OK

Track 4

Filename A:\PsPBuRnOuT's MUSIC\ROCK\ROCK - ROAD TRIP - THE ULTIMATE COLLECTION\ROCK - ROAD TRIP - CD4\04.Ugly Kid Joe - Cats In The Cradle.wav

Peak level 100.0 %
Extraction speed 21.9 X
Track quality 100.0 %
Copy CRC 7F47EC43
Accurately ripped (confidence 1) [12CEFC43] (AR v2)
Copy OK

Track 5

Filename A:\PsPBuRnOuT's MUSIC\ROCK\ROCK - ROAD TRIP - THE ULTIMATE COLLECTION\ROCK - ROAD TRIP - CD4\05.Therapy - Screamager.wav

Peak level 87.9 %
Extraction speed 20.3 X
Track quality 100.0 %
Copy CRC 5F7AFC5B
Accurately ripped (confidence 1) [5D1A5927] (AR v2)
Copy OK

Track 6

Filename A:\PsPBuRnOuT's MUSIC\ROCK\ROCK - ROAD TRIP - THE ULTIMATE COLLECTION\ROCK - ROAD TRIP - CD4\06.The Cardigans - My Favourite Game.wav

Peak level 87.8 %
Extraction speed 24.5 X
Track quality 100.0 %
Copy CRC EC056AA5
Accurately ripped (confidence 1) [2A30A17E] (AR v2)
Copy OK

Track 7

Filename A:\PsPBuRnOuT's MUSIC\ROCK\ROCK - ROAD TRIP - THE ULTIMATE COLLECTION\ROCK - ROAD TRIP - CD4\07.Hole - Celebrity Skin.wav

Peak level 89.0 %
Extraction speed 20.6 X
Track quality 99.8 %
Copy CRC 5149C7F9
Accurately ripped (confidence 1) [554B7E9A] (AR v2)
Copy OK

Track 8

Filename A:\PsPBuRnOuT's MUSIC\ROCK\ROCK - ROAD TRIP - THE ULTIMATE COLLECTION\ROCK - ROAD TRIP - CD4\08.4 Non Blondes - What's Up.wav

Peak level 100.0 %
Extraction speed 22.9 X
Track quality 99.9 %
Copy CRC ABE62F82
Accurately ripped (confidence 1) [D4FCAFAE] (AR v2)
Copy OK

Track 9

Filename A:\PsPBuRnOuT's MUSIC\ROCK\ROCK - ROAD TRIP - THE ULTIMATE COLLECTION\ROCK - ROAD TRIP - CD4\09.James - She's A Star (Album Version).wav

Peak level 93.3 %
Extraction speed 27.5 X
Track quality 100.0 %
Copy CRC B6802D40
Accurately ripped (confidence 1) [BA7BFF26] (AR v2)
Copy OK

Track 10

Filename A:\PsPBuRnOuT's MUSIC\ROCK\ROCK - ROAD TRIP - THE ULTIMATE COLLECTION\ROCK - ROAD TRIP - CD4\10.Ocean Colour Scene - The Riverboat Song (Album Version).wav

Peak level 94.4 %
Extraction speed 24.3 X
Track quality 99.9 %
Copy CRC 71338E8E
Accurately ripped (confidence 1) [D1376DDD] (AR v2)
Copy OK

Track 11

Filename A:\PsPBuRnOuT's MUSIC\ROCK\ROCK - ROAD TRIP - THE ULTIMATE COLLECTION\ROCK - ROAD TRIP - CD4\11.The Jam - Town Called Malice.wav

Peak level 100.0 %
Extraction speed 24.4 X
Track quality 100.0 %
Copy CRC 9EFC68C0
Accurately ripped (confidence 1) [029F865E] (AR v2)
Copy OK

Track 12

Filename A:\PsPBuRnOuT's MUSIC\ROCK\ROCK - ROAD TRIP - THE ULTIMATE COLLECTION\ROCK - ROAD TRIP - CD4\12.The Cranberries - Zombie (Edit).wav

Peak level 90.2 %
Extraction speed 27.3 X
Track quality 100.0 %
Copy CRC 3F312C4E
Accurately ripped (confidence 1) [A8CA8A79] (AR v2)
Copy OK

Track 13

Filename A:\PsPBuRnOuT's MUSIC\ROCK\ROCK - ROAD TRIP - THE ULTIMATE COLLECTION\ROCK - ROAD TRIP - CD4\13.Extreme - More Than Words (Radio Edit).wav

Peak level 100.0 %
Extraction speed 27.0 X
Track quality 100.0 %
Copy CRC 3195F0E7
Accurately ripped (confidence 1) [24F3907A] (AR v2)
Copy OK

Track 14

Filename A:\PsPBuRnOuT's MUSIC\ROCK\ROCK - ROAD TRIP - THE ULTIMATE COLLECTION\ROCK - ROAD TRIP - CD4\14.Caravan - Memory Lain, Hugh (Live).wav

Peak level 97.7 %
Extraction speed 28.1 X
Track quality 100.0 %
Copy CRC 68246FEA
Accurately ripped (confidence 1) [A2B495C0] (AR v2)
Copy OK

Track 15

Filename A:\PsPBuRnOuT's MUSIC\ROCK\ROCK - ROAD TRIP - THE ULTIMATE COLLECTION\ROCK - ROAD TRIP - CD4\15.1927 - That's When I Think Of You.wav

Peak level 83.9 %
Extraction speed 28.5 X
Track quality 99.9 %
Copy CRC 3F50FEBA
Accurately ripped (confidence 1) [85B156A7] (AR v2)
Copy OK

Track 16

Filename A:\PsPBuRnOuT's MUSIC\ROCK\ROCK - ROAD TRIP - THE ULTIMATE COLLECTION\ROCK - ROAD TRIP - CD4\16.Corrosion Of Conformity - Stare Too Long.wav

Peak level 88.1 %
Extraction speed 28.4 X
Track quality 99.9 %
Copy CRC F13CF0F2
Accurately ripped (confidence 1) [21C6AC7F] (AR v2)
Copy OK

Track 17

Filename A:\PsPBuRnOuT's MUSIC\ROCK\ROCK - ROAD TRIP - THE ULTIMATE COLLECTION\ROCK - ROAD TRIP - CD4\17.Joey Ramone - Don't Worry About Me.wav

Peak level 84.0 %
Extraction speed 30.6 X
Track quality 100.0 %
Copy CRC 4B6EC34D
Accurately ripped (confidence 1) [C3D6E20D] (AR v2)
Copy OK

Track 18

Filename A:\PsPBuRnOuT's MUSIC\ROCK\ROCK - ROAD TRIP - THE ULTIMATE COLLECTION\ROCK - ROAD TRIP - CD4\18.The Damned - New Rose.wav

Peak level 100.0 %
Extraction speed 34.7 X
Track quality 100.0 %
Copy CRC C5029752
Accurately ripped (confidence 1) [637A5811] (AR v2)
Copy OK

Track 19

Filename A:\PsPBuRnOuT's MUSIC\ROCK\ROCK - ROAD TRIP - THE ULTIMATE COLLECTION\ROCK - ROAD TRIP - CD4\19.Billy Idol - Scream (Radio Edit).wav

Peak level 74.1 %
Extraction speed 31.8 X
Track quality 100.0 %
Copy CRC EF6D1D54
Accurately ripped (confidence 1) [217C6D64] (AR v2)
Copy OK

Track 20

Filename A:\PsPBuRnOuT's MUSIC\ROCK\ROCK - ROAD TRIP - THE ULTIMATE COLLECTION\ROCK - ROAD TRIP - CD4\20.Raspberries - Overnight Sensation (Digitally Remastered).wav

Peak level 100.0 %
Extraction speed 36.1 X
Track quality 99.9 %
Copy CRC 83ED705C
Accurately ripped (confidence 1) [4D726062] (AR v2)
Copy OK


All tracks accurately ripped

No errors occurred

End of status report

–– CUETools DB Plugin V2.1.6

[CTDB TOCID: PIDCgGKjuDB74fOQsqDpXpyUAwY-] found
Submit result: PIDCgGKjuDB74fOQsqDpXpyUAwY- has been confirmed
Track | CTDB Status
1 | (2/2) Accurately ripped
2 | (2/2) Accurately ripped
3 | (2/2) Accurately ripped
4 | (2/2) Accurately ripped
5 | (2/2) Accurately ripped
6 | (2/2) Accurately ripped
7 | (2/2) Accurately ripped
8 | (2/2) Accurately ripped
9 | (2/2) Accurately ripped
10 | (2/2) Accurately ripped
11 | (2/2) Accurately ripped
12 | (2/2) Accurately ripped
13 | (2/2) Accurately ripped
14 | (2/2) Accurately ripped
15 | (2/2) Accurately ripped
16 | (2/2) Accurately ripped
17 | (2/2) Accurately ripped
18 | (2/2) Accurately ripped
19 | (2/2) Accurately ripped
20 | (2/2) Accurately ripped

Exact Audio Copy V1.3 from 2. September 2016

EAC extraction logfile from 25. July 2018, 18:14

Various / Rock - Road Trip - The Ultimate Collection - CD5

Used drive : HL-DT-STDVDRAM GSA-E40N Adapter: 1 ID: 1

Read mode : Secure
Utilize accurate stream : Yes
Defeat audio cache : No
Make use of C2 pointers : Yes

Read offset correction : 667
Overread into Lead-In and Lead-Out : No
Fill up missing offset samples with silence : Yes
Delete leading and trailing silent blocks : No
Null samples used in CRC calculations : Yes
Used interface : Native Win32 interface for Win NT & 2000
Gap handling : Not detected, thus appended to previous track

Used output format : User Defined Encoder
Selected bitrate : 896 kBit/s
Quality : High
Add ID3 tag : No
Command line compressor : C:\Program Files (x86)\Exact Audio Copy\FLAC\FLAC.EXE
Additional command line options : -6 -V -T "ARTIST=%artist%" -T "TITLE=%title%" -T "ALBUM=%albumtitle%" -T "DATE=%year%" -T "TRACKNUMBER=%tracknr%" -T "GENRE=%genre%" -T "COMMENT=%comment%" -T "BAND=%albuminterpret%" -T "ALBUMARTIST=%albuminterpret%" -T "COMPOSER=%composer%" %haslyrics%–tag-from-file=LYRICS="%lyricsfile%"%haslyrics% -T "DISCNUMBER=%cdnumber%" -T "TOTALDISCS=%totalcds%" -T "TOTALTRACKS=%numtracks%" %hascover%–picture="%coverfile%"%hascover% %source% -o %dest%


TOC of the extracted CD

Track | Start | Length | Start sector | End sector
––––––––––––––––––––––––––––-
1 | 0:00.00 | 2:23.48 | 0 | 10772
2 | 2:23.48 | 3:25.11 | 10773 | 26158
3 | 5:48.59 | 3:34.01 | 26159 | 42209
4 | 9:22.60 | 5:29.02 | 42210 | 66886
5 | 14:51.62 | 4:09.45 | 66887 | 85606
6 | 19:01.32 | 3:20.62 | 85607 | 100668
7 | 22:22.19 | 4:19.02 | 100669 | 120095
8 | 26:41.21 | 3:08.20 | 120096 | 134215
9 | 29:49.41 | 3:55.53 | 134216 | 151893
10 | 33:45.19 | 3:28.16 | 151894 | 167509
11 | 37:13.35 | 2:28.28 | 167510 | 178637
12 | 39:41.63 | 2:59.71 | 178638 | 192133
13 | 42:41.59 | 3:19.26 | 192134 | 207084
14 | 46:01.10 | 2:39.53 | 207085 | 219062
15 | 48:40.63 | 3:53.11 | 219063 | 236548
16 | 52:33.74 | 3:52.49 | 236549 | 253997
17 | 56:26.48 | 2:24.15 | 253998 | 264812
18 | 58:50.63 | 3:45.48 | 264813 | 281735
19 | 62:36.36 | 3:19.38 | 281736 | 296698
20 | 65:55.74 | 2:35.71 | 296699 | 308394


Track 1

Filename A:\PsPBuRnOuT's MUSIC\ROCK\ROCK - ROAD TRIP - THE ULTIMATE COLLECTION\ROCK - ROAD TRIP - CD5\01.Jake Bugg - Lightning Bolt.wav

Peak level 87.4 %
Extraction speed 5.0 X
Track quality 99.5 %
Copy CRC 6E931873
Accurately ripped (confidence 1) [8C65BFEA] (AR v2)
Copy OK

Track 2

Filename A:\PsPBuRnOuT's MUSIC\ROCK\ROCK - ROAD TRIP - THE ULTIMATE COLLECTION\ROCK - ROAD TRIP - CD5\02.The Stereophonics - Have A Nice Day.wav

Peak level 98.8 %
Extraction speed 4.5 X
Track quality 100.0 %
Copy CRC 2B1BCF95
Accurately ripped (confidence 1) [C8116485] (AR v2)
Copy OK

Track 3

Filename A:\PsPBuRnOuT's MUSIC\ROCK\ROCK - ROAD TRIP - THE ULTIMATE COLLECTION\ROCK - ROAD TRIP - CD5\03.Bastille - Pompeii.wav

Peak level 100.0 %
Extraction speed 4.9 X
Track quality 100.0 %
Copy CRC 1D719CCD
Accurately ripped (confidence 1) [61E07F34] (AR v2)
Copy OK

Track 4

Filename A:\PsPBuRnOuT's MUSIC\ROCK\ROCK - ROAD TRIP - THE ULTIMATE COLLECTION\ROCK - ROAD TRIP - CD5\04.Frankie Goes To Hollywood - The Power Of Love.wav

Peak level 100.0 %
Extraction speed 5.5 X
Track quality 100.0 %
Copy CRC 12A3DCF1
Accurately ripped (confidence 1) [D85ED4D4] (AR v2)
Copy OK

Track 5

Filename A:\PsPBuRnOuT's MUSIC\ROCK\ROCK - ROAD TRIP - THE ULTIMATE COLLECTION\ROCK - ROAD TRIP - CD5\05.Razorlight - America.wav

Peak level 88.1 %
Extraction speed 6.3 X
Track quality 100.0 %
Copy CRC ED9061DC
Accurately ripped (confidence 1) [482B25BC] (AR v2)
Copy OK

Track 6

Filename A:\PsPBuRnOuT's MUSIC\ROCK\ROCK - ROAD TRIP - THE ULTIMATE COLLECTION\ROCK - ROAD TRIP - CD5\06.Papa Roach - Last Resort (Album Version).wav

Peak level 97.7 %
Extraction speed 6.6 X
Track quality 100.0 %
Copy CRC D2E6E94C
Accurately ripped (confidence 1) [D6FBADF7] (AR v2)
Copy OK

Track 7

Filename A:\PsPBuRnOuT's MUSIC\ROCK\ROCK - ROAD TRIP - THE ULTIMATE COLLECTION\ROCK - ROAD TRIP - CD5\07.Puddle Of Mudd - Blurry (Radio Edit).wav

Peak level 99.6 %
Extraction speed 6.4 X
Track quality 100.0 %
Copy CRC ECC96A37
Accurately ripped (confidence 1) [13846C27] (AR v2)
Copy OK

Track 8

Filename A:\PsPBuRnOuT's MUSIC\ROCK\ROCK - ROAD TRIP - THE ULTIMATE COLLECTION\ROCK - ROAD TRIP - CD5\08.Fall Out Boy - My Songs Know What You Did In The Dark (Light Em Up).wav

Peak level 100.0 %
Extraction speed 6.6 X
Track quality 100.0 %
Copy CRC 4DA358D7
Accurately ripped (confidence 1) [2A2C537C] (AR v2)
Copy OK

Track 9

Filename A:\PsPBuRnOuT's MUSIC\ROCK\ROCK - ROAD TRIP - THE ULTIMATE COLLECTION\ROCK - ROAD TRIP - CD5\09.3 Doors Down - Kryptonite (2009 Remaster).wav

Peak level 96.6 %
Extraction speed 6.9 X
Track quality 100.0 %
Copy CRC 9B2957B3
Accurately ripped (confidence 1) [816E3DCC] (AR v2)
Copy OK

Track 10

Filename A:\PsPBuRnOuT's MUSIC\ROCK\ROCK - ROAD TRIP - THE ULTIMATE COLLECTION\ROCK - ROAD TRIP - CD5\10.Alien Ant Farm - Smooth Criminal.wav

Peak level 98.8 %
Extraction speed 7.8 X
Track quality 100.0 %
Copy CRC 3350F36B
Accurately ripped (confidence 1) [A1754D9F] (AR v2)
Copy OK

Track 11

Filename A:\PsPBuRnOuT's MUSIC\ROCK\ROCK - ROAD TRIP - THE ULTIMATE COLLECTION\ROCK - ROAD TRIP - CD5\11.Blink-182 - What's My Age Again.wav

Peak level 99.9 %
Extraction speed 7.0 X
Track quality 100.0 %
Copy CRC C2ADF927
Accurately ripped (confidence 1) [B5BC6423] (AR v2)
Copy OK

Track 12

Filename A:\PsPBuRnOuT's MUSIC\ROCK\ROCK - ROAD TRIP - THE ULTIMATE COLLECTION\ROCK - ROAD TRIP - CD5\12.Sum 41 - Fat Lip (Album Version).wav

Peak level 91.9 %
Extraction speed 7.3 X
Track quality 100.0 %
Copy CRC BF895A08
Accurately ripped (confidence 1) [246C8FEB] (AR v2)
Copy OK

Track 13

Filename A:\PsPBuRnOuT's MUSIC\ROCK\ROCK - ROAD TRIP - THE ULTIMATE COLLECTION\ROCK - ROAD TRIP - CD5\13.Smash Mouth - All Star.wav

Peak level 93.6 %
Extraction speed 7.6 X
Track quality 100.0 %
Copy CRC 5809C4E5
Accurately ripped (confidence 1) [B426F506] (AR v2)
Copy OK

Track 14

Filename A:\PsPBuRnOuT's MUSIC\ROCK\ROCK - ROAD TRIP - THE ULTIMATE COLLECTION\ROCK - ROAD TRIP - CD5\14.Weezer - Buddy Holly.wav

Peak level 100.0 %
Extraction speed 8.6 X
Track quality 100.0 %
Copy CRC D8BB489F
Accurately ripped (confidence 1) [33539A6B] (AR v2)
Copy OK

Track 15

Filename A:\PsPBuRnOuT's MUSIC\ROCK\ROCK - ROAD TRIP - THE ULTIMATE COLLECTION\ROCK - ROAD TRIP - CD5\15.Raging Speedhorn - The Gush.wav

Peak level 93.0 %
Extraction speed 8.2 X
Track quality 100.0 %
Copy CRC D445CAFB
Accurately ripped (confidence 1) [5372D307] (AR v2)
Copy OK

Track 16

Filename A:\PsPBuRnOuT's MUSIC\ROCK\ROCK - ROAD TRIP - THE ULTIMATE COLLECTION\ROCK - ROAD TRIP - CD5\16.Hoobastank - The Reason (UK Radio Mix).wav

Peak level 89.1 %
Extraction speed 9.1 X
Track quality 100.0 %
Copy CRC C451EFD9
Accurately ripped (confidence 1) [EBC36582] (AR v2)
Copy OK

Track 17

Filename A:\PsPBuRnOuT's MUSIC\ROCK\ROCK - ROAD TRIP - THE ULTIMATE COLLECTION\ROCK - ROAD TRIP - CD5\17.You Me At Six - Underdog.wav

Peak level 93.2 %
Extraction speed 8.2 X
Track quality 100.0 %
Copy CRC C3603978
Accurately ripped (confidence 1) [6D6864EE] (AR v2)
Copy OK

Track 18

Filename A:\PsPBuRnOuT's MUSIC\ROCK\ROCK - ROAD TRIP - THE ULTIMATE COLLECTION\ROCK - ROAD TRIP - CD5\18.Thirty Seconds To Mars - The Kill (Bury Me) (Edit).wav

Peak level 93.3 %
Extraction speed 9.5 X
Track quality 100.0 %
Copy CRC 59331BC6
Accurately ripped (confidence 1) [38B4686C] (AR v2)
Copy OK

Track 19

Filename A:\PsPBuRnOuT's MUSIC\ROCK\ROCK - ROAD TRIP - THE ULTIMATE COLLECTION\ROCK - ROAD TRIP - CD5\19.The Cooper Temple Clause - Promises, Promises.wav

Peak level 98.5 %
Extraction speed 9.7 X
Track quality 100.0 %
Copy CRC 6F73E5A0
Accurately ripped (confidence 1) [699588FA] (AR v2)
Copy OK

Track 20

Filename A:\PsPBuRnOuT's MUSIC\ROCK\ROCK - ROAD TRIP - THE ULTIMATE COLLECTION\ROCK - ROAD TRIP - CD5\20.Black Rebel Motorcycle Club - Ain't No Easy Way.wav

Peak level 92.5 %
Extraction speed 9.9 X
Track quality 100.0 %
Copy CRC DA2A40F6
Accurately ripped (confidence 1) [8C68CC3C] (AR v2)
Copy OK


All tracks accurately ripped

No errors occurred

End of status report

–– CUETools DB Plugin V2.1.6

[CTDB TOCID: K53YxniX9YSEJInrlN4oaggTr6M-] found
Submit result: K53YxniX9YSEJInrlN4oaggTr6M- has been confirmed
Track | CTDB Status
1 | (4/4) Accurately ripped
2 | (4/4) Accurately ripped
3 | (4/4) Accurately ripped
4 | (4/4) Accurately ripped
5 | (3/4) Accurately ripped
6 | (4/4) Accurately ripped
7 | (4/4) Accurately ripped
8 | (4/4) Accurately ripped
9 | (4/4) Accurately ripped
10 | (3/4) Accurately ripped
11 | (3/4) Accurately ripped
12 | (3/4) Accurately ripped
13 | (3/4) Accurately ripped
14 | (3/4) Accurately ripped
15 | (3/4) Accurately ripped
16 | (3/4) Accurately ripped
17 | (3/4) Accurately ripped
18 | (3/4) Accurately ripped
19 | (3/4) Accurately ripped
20 | (3/4) Accurately ripped