Subcategories

VA - Rockin' The Blues (Jazz & Tzaz 74) (1999)

Posted By: Designol
VA - Rockin' The Blues (Jazz & Tzaz 74) (1999)

VA - Rockin' The Blues (Jazz & Tzaz 74) (1999)
EAC | FLAC | Tracks (Cue&Log) ~ 446 Mb (incl 5%) | Mp3 (CBR320) ~ 177 Mb (incl 5%) | Scans included
Genre: Blues | Label: Jazz & Tzaz/Blind Pig | # 0001-2 | Time: 00:59:04

Fine Greek-only premium compilation, released with the music magazine 'Jazz & Tzaz' (Issue 74). From the catalogue of the Blind Pig Records. Includes: Studebaker Jonh, Deborah Coleman, Johnny Shines, Eddy Clearwater, Snooky Pryor, Carey Bell, Debbie Davis, Tommy Castro, Joanna Connor, Jimmy Thackery & The Drivers, Charlie Musselwhite, Frankie Lee, Preacher Boy And The Natural Blues, Eddie C. Campbell, Magic Slim & The Teardrops.

VA - Rockin' The Blues (Jazz & Tzaz 74) (1999)


Tracklist:

01. Studebaker Jonh & The Hawks - Two Time Boogie (03:59)
02. Deborah Coleman - My Heart Bleeds Blue (04:28)
03. Johnny Shines - Blues Come To Texas (03:22)
04. Eddy Clearwater - That's My Baby (02:38)
05. Snooky Pryor - Crazy 'Bout My Baby (03:33)
06. Carey Bell - That Spot Right There (03:35)
07. Debbie Davis - Hownlin' At The Moon (04:23)
08. Tommy Castro - Had Enough (04:55)
09. Joanna Connor - Big Girl Blues (03:47)
10. Jimmy Thackery & The Drivers - Trouble Man (04:29)
11. Charlie Musselwhite - Pistol In Your Face (04:07)
12. Frankie Lee - What's The Matter Baby (04:01)
13. Preacher Boy And The Natural Blues - Dead Boy (03:38)
14. Eddie C. Campbell - That's When I Know (04:17)
15. Magic Slim & The Teardrops - I Need Lovin' (03:45)


Exact Audio Copy V1.0 beta 4 from 7. December 2014

EAC extraction logfile from 21. May 2016, 23:56

Various Artists / Rockin' The Blues (Jazz & Tzaz 74)

Used drive : TSSTcorpCDDVDW SH-224DB Adapter: 1 ID: 0

Read mode : Secure
Utilize accurate stream : Yes
Defeat audio cache : Yes
Make use of C2 pointers : No

Read offset correction : 6
Overread into Lead-In and Lead-Out : No
Fill up missing offset samples with silence : Yes
Delete leading and trailing silent blocks : No
Null samples used in CRC calculations : Yes
Used interface : Native Win32 interface for Win NT & 2000
Gap handling : Appended to previous track

Used output format : User Defined Encoder
Selected bitrate : 896 kBit/s
Quality : High
Add ID3 tag : No
Command line compressor : C:\Program Files\Exact Audio Copy\Flac\flac.exe
Additional command line options : -6 -V -T "ARTIST=%artist%" -T "TITLE=%title%" -T "ALBUM=%albumtitle%" -T "DATE=%year%" -T "TRACKNUMBER=%tracknr%" -T "GENRE=%genre%" -T "COMMENT=%comment%" %source% -o %dest%


TOC of the extracted CD

Track | Start | Length | Start sector | End sector
––––––––––––––––––––––––––––-
1 | 0:00.00 | 3:59.45 | 0 | 17969
2 | 3:59.45 | 4:28.05 | 17970 | 38074
3 | 8:27.50 | 3:22.67 | 38075 | 53291
4 | 11:50.42 | 2:38.58 | 53292 | 65199
5 | 14:29.25 | 3:33.35 | 65200 | 81209
6 | 18:02.60 | 3:35.55 | 81210 | 97389
7 | 21:38.40 | 4:23.10 | 97390 | 117124
8 | 26:01.50 | 4:55.42 | 117125 | 139291
9 | 30:57.17 | 3:47.60 | 139292 | 156376
10 | 34:45.02 | 4:29.60 | 156377 | 176611
11 | 39:14.62 | 4:07.70 | 176612 | 195206
12 | 43:22.57 | 4:01.05 | 195207 | 213286
13 | 47:23.62 | 3:38.03 | 213287 | 229639
14 | 51:01.65 | 4:17.72 | 229640 | 248986
15 | 55:19.62 | 3:45.10 | 248987 | 265871


Track 1

Filename C:\New Folder\01 - Studebaker Jonh & The Hawks - Two Time Boogie.wav

Pre-gap length 0:00:02.00

Peak level 99.9 %
Extraction speed 1.7 X
Track quality 100.0 %
Test CRC 6FD47A82
Copy CRC 6FD47A82
Accurately ripped (confidence 1) [3E29A862] (AR v2)
Copy OK

Track 2

Filename C:\New Folder\02 - Deborah Coleman - My Heart Bleeds Blue.wav

Pre-gap length 0:00:01.40

Peak level 99.9 %
Extraction speed 1.9 X
Track quality 100.0 %
Test CRC B3133B71
Copy CRC B3133B71
Accurately ripped (confidence 1) [30557672] (AR v2)
Copy OK

Track 3

Filename C:\New Folder\03 - Johnny Shines - Blues Come To Texas.wav

Pre-gap length 0:00:01.40

Peak level 99.9 %
Extraction speed 2.0 X
Track quality 100.0 %
Test CRC 82D33A94
Copy CRC 82D33A94
Accurately ripped (confidence 1) [5105E38C] (AR v2)
Copy OK

Track 4

Filename C:\New Folder\04 - Eddy Clearwater - That's My Baby.wav

Pre-gap length 0:00:01.40

Peak level 99.9 %
Extraction speed 2.0 X
Track quality 100.0 %
Test CRC 8BDC432B
Copy CRC 8BDC432B
Accurately ripped (confidence 1) [BD99C72A] (AR v2)
Copy OK

Track 5

Filename C:\New Folder\05 - Snooky Pryor - Crazy 'Bout My Baby.wav

Pre-gap length 0:00:01.40

Peak level 100.0 %
Extraction speed 2.0 X
Track quality 99.9 %
Test CRC 6B103606
Copy CRC 6B103606
Accurately ripped (confidence 1) [8B80B2C3] (AR v2)
Copy OK

Track 6

Filename C:\New Folder\06 - Carey Bell - That Spot Right There.wav

Pre-gap length 0:00:01.40

Peak level 99.9 %
Extraction speed 2.4 X
Track quality 100.0 %
Test CRC E097B0AE
Copy CRC E097B0AE
Accurately ripped (confidence 1) [D2A66A99] (AR v2)
Copy OK

Track 7

Filename C:\New Folder\07 - Debbie Davis - Hownlin' At The Moon.wav

Pre-gap length 0:00:01.40

Peak level 99.9 %
Extraction speed 2.6 X
Track quality 100.0 %
Test CRC 540269AE
Copy CRC 540269AE
Accurately ripped (confidence 1) [F8831F05] (AR v2)
Copy OK

Track 8

Filename C:\New Folder\08 - Tommy Castro - Had Enough.wav

Pre-gap length 0:00:01.43

Peak level 99.9 %
Extraction speed 2.8 X
Track quality 100.0 %
Test CRC 00B7D805
Copy CRC 00B7D805
Accurately ripped (confidence 1) [1A258417] (AR v2)
Copy OK

Track 9

Filename C:\New Folder\09 - Joanna Connor - Big Girl Blues.wav

Pre-gap length 0:00:01.40

Peak level 99.9 %
Extraction speed 2.8 X
Track quality 100.0 %
Test CRC DC107400
Copy CRC DC107400
Accurately ripped (confidence 1) [A4B90B1A] (AR v2)
Copy OK

Track 10

Filename C:\New Folder\10 - Jimmy Thackery & The Drivers - Trouble Man.wav

Pre-gap length 0:00:01.42

Peak level 99.9 %
Extraction speed 3.0 X
Track quality 100.0 %
Test CRC F46745E1
Copy CRC F46745E1
Accurately ripped (confidence 1) [4A855736] (AR v2)
Copy OK

Track 11

Filename C:\New Folder\11 - Charlie Musselwhite - Pistol In Your Face.wav

Pre-gap length 0:00:01.42

Peak level 99.9 %
Extraction speed 3.1 X
Track quality 100.0 %
Test CRC D8157481
Copy CRC D8157481
Accurately ripped (confidence 1) [0A3277A8] (AR v2)
Copy OK

Track 12

Filename C:\New Folder\12 - Frankie Lee - What's The Matter Baby.wav

Pre-gap length 0:00:01.42

Peak level 99.9 %
Extraction speed 3.2 X
Track quality 100.0 %
Test CRC 284AC494
Copy CRC 284AC494
Accurately ripped (confidence 1) [08B83312] (AR v2)
Copy OK

Track 13

Filename C:\New Folder\13 - Preacher Boy And The Natural Blues - Dead Boy.wav

Pre-gap length 0:00:01.40

Peak level 99.9 %
Extraction speed 3.2 X
Track quality 100.0 %
Test CRC C62B163B
Copy CRC C62B163B
Accurately ripped (confidence 1) [D9E19F5B] (AR v2)
Copy OK

Track 14

Filename C:\New Folder\14 - Eddie C. Campbell - That's When I Know.wav

Pre-gap length 0:00:01.40

Peak level 99.9 %
Extraction speed 3.0 X
Track quality 99.9 %
Test CRC 07F53539
Copy CRC 07F53539
Accurately ripped (confidence 1) [B3E14A5A] (AR v2)
Copy OK

Track 15

Filename C:\New Folder\15 - Magic Slim & The Teardrops - I Need Lovin'.wav

Pre-gap length 0:00:01.42

Peak level 100.0 %
Extraction speed 3.0 X
Track quality 99.9 %
Test CRC 00BE7392
Copy CRC 00BE7392
Accurately ripped (confidence 1) [48EEE5DC] (AR v2)
Copy OK


All tracks accurately ripped

No errors occurred

End of status report

–– CUETools DB Plugin V2.1.4

[CTDB TOCID: paRpx2ixQIgzrwtzzNX.B.Lp52w-] disk not present in database
Submit result: paRpx2ixQIgzrwtzzNX.B.Lp52w- has been uploaded


==== Log checksum 438CA60C392305B4704B074EB557061A16C34C533C7E416B374CAC4529F44E9C ====

foobar2000 1.2 / Dynamic Range Meter 1.1.1
log date: 2016-07-16 13:18:40

––––––––––––––––––––––––––––––––––––––––
Analyzed: Carey Bell / Rockin' The Blues (Jazz & Tzaz 74) (1)
Charlie Musselwhite / Rockin' The Blues (Jazz & Tzaz 74) (2)
Debbie Davis / Rockin' The Blues (Jazz & Tzaz 74) (3)
Deborah Coleman / Rockin' The Blues (Jazz & Tzaz 74) (4)
Eddie C. Campbell / Rockin' The Blues (Jazz & Tzaz 74) (5)
Eddy Clearwater / Rockin' The Blues (Jazz & Tzaz 74) (6)
Frankie Lee / Rockin' The Blues (Jazz & Tzaz 74) (7)
Jimmy Thackery & The Drivers / Rockin' The Blues (Jazz & Tzaz 74) (8)
Joanna Connor / Rockin' The Blues (Jazz & Tzaz 74) (9)
Johnny Shines / Rockin' The Blues (Jazz & Tzaz 74) (10)
Magic Slim & The Teardrops / Rockin' The Blues (Jazz & Tzaz 74) (11)
Preacher Boy And The Natural Blues / Rockin' The Blues (Jazz & Tzaz 74) (12)
Snooky Pryor / Rockin' The Blues (Jazz & Tzaz 74) (13)
Studebaker Jonh & The Hawks / Rockin' The Blues (Jazz & Tzaz 74) (14)
Tommy Castro / Rockin' The Blues (Jazz & Tzaz 74) (15)
––––––––––––––––––––––––––––––––––––––––

DR Peak RMS Duration Track
––––––––––––––––––––––––––––––––––––––––
DR11 0.00 dB -13.52 dB 3:36 06-That Spot Right There
DR11 0.00 dB -12.10 dB 4:08 11-Pistol In Your Face
DR9 0.00 dB -10.53 dB 4:23 07-Hownlin' At The Moon
DR7 0.00 dB -8.14 dB 4:28 02-My Heart Bleeds Blue
DR11 0.00 dB -12.20 dB 4:18 14-That's When I Know
DR11 0.00 dB -12.72 dB 2:39 04-That's My Baby
DR11 0.00 dB -12.72 dB 4:01 12-What's The Matter Baby
DR9 0.00 dB -9.93 dB 4:30 10-Trouble Man
DR8 0.00 dB -9.25 dB 3:48 09-Big Girl Blues
DR11 0.00 dB -14.96 dB 3:23 03-Blues Come To Texas
DR8 0.00 dB -9.46 dB 3:45 15-I Need Lovin'
DR8 0.00 dB -9.58 dB 3:38 13-Dead Boy
DR12 0.00 dB -12.89 dB 3:33 05-Crazy 'Bout My Baby
DR9 0.00 dB -9.64 dB 4:00 01-Two Time Boogie
DR9 0.00 dB -10.61 dB 4:56 08-Had Enough
––––––––––––––––––––––––––––––––––––––––

Number of tracks: 15
Official DR value: DR10

Samplerate: 44100 Hz
Channels: 2
Bits per sample: 16
Bitrate: 942 kbps
Codec: FLAC
================================================================================

VA - Rockin' The Blues (Jazz & Tzaz 74) (1999)

VA - Rockin' The Blues (Jazz & Tzaz 74) (1999)

All thanks to original releaser - alekow

More interesting music in My Blog