Subcategories

VA - Songs from the 'Cool World': Music From And Inspired By The Motion Picture (1992) [Re-Up]

Posted By: Efgrapha
VA - Songs from the 'Cool World': Music From And Inspired By The Motion Picture (1992) [Re-Up]

VA - Songs from the 'Cool World': Music From And Inspired By The Motion Picture (1992)
EAC | FLAC (Tracks) + cue.+log ~ 487 Mb | Mp3, CBR320 kbps ~ 158 Mb | Scans ~ 41 Mb
Soundtrack, Electronic, Rock | Label: Warner Bros. | # 9362-45009-2 | 01:09:24

An above-average soundtrack to a mediocre film, this dance-oriented album hits more than it misses. The title track by David Bowie is fluff by his standards, but as it's produced by Nile Rodgers (a year before their collaboration on Black Tie White Noise), it's danceable fluff. Further in, the album samples the beginnings of the '90s techno revolution, with excellent tracks from Future Sound of London ("Papua New Guinea"), Moby ("Next Is the E"), Ministry's Bush-era primal scream "N.W.O.," and Mindless's "Mindless." Brian Eno's exclusive track "Under" is one of his best from the '90s.

Ted Mills, All Music Guide

~ Film at IMDB
~ Film at Wiki

Tracklist:

01. David Bowie - Real Cool World [5:25]
02. Thompson Twins - Play With Me [4:06]
03. Electronic - Disappointed [4:22]
04. The Future Sound Of London - Papua New Guinea (7'' Original) [3:49]
05. Ministry - N.W.O. [5:30]
06. The Cult - The Witch [7:03]
07. My Life With The Thrill Kill Kult - Sex On Wheelz (Glamour Dyke Mix) [4:00]
08. Moby - Ah-Ah (Mix 1) [3:30]
09. Mindless - Mindless [4:03]
10. Moby - Next Is The E (Long Arms Mix) [4:40]
11. Da Juice - Do That Thang (Polite Mix) [5:22]
12. My Life With The Thrill Kill Kult - Her Sassy Kiss [3:51]
13. Pure - Greedy [4:46]
14. Brian Eno - Under [5:19]
15. Tom Bailey - Industry And Seduction [3:31]


Exact Audio Copy V1.0 beta 4 from 7. December 2014

EAC extraction logfile from 4. March 2017, 11:47

Various Artists / Songs From The Cool World (Music From And Inspired By The Motion Picture)

Used drive : TSSTcorpCDDVDW SH-224DB Adapter: 1 ID: 0

Read mode : Secure
Utilize accurate stream : Yes
Defeat audio cache : Yes
Make use of C2 pointers : No

Read offset correction : 6
Overread into Lead-In and Lead-Out : No
Fill up missing offset samples with silence : Yes
Delete leading and trailing silent blocks : No
Null samples used in CRC calculations : Yes
Used interface : Native Win32 interface for Win NT & 2000
Gap handling : Appended to previous track

Used output format : User Defined Encoder
Selected bitrate : 896 kBit/s
Quality : High
Add ID3 tag : No
Command line compressor : C:\Program Files\Exact Audio Copy\Flac\flac.exe
Additional command line options : -6 -V -T "ARTIST=%artist%" -T "TITLE=%title%" -T "ALBUM=%albumtitle%" -T "DATE=%year%" -T "TRACKNUMBER=%tracknr%" -T "GENRE=%genre%" -T "COMMENT=%comment%" %source% -o %dest%


TOC of the extracted CD

Track | Start | Length | Start sector | End sector
––––––––––––––––––––––––––––-
1 | 0:00.00 | 5:25.30 | 0 | 24404
2 | 5:25.30 | 4:06.12 | 24405 | 42866
3 | 9:31.42 | 4:22.28 | 42867 | 62544
4 | 13:53.70 | 3:49.60 | 62545 | 79779
5 | 17:43.55 | 5:30.65 | 79780 | 104594
6 | 23:14.45 | 7:03.40 | 104595 | 136359
7 | 30:18.10 | 4:00.10 | 136360 | 154369
8 | 34:18.20 | 3:30.12 | 154370 | 170131
9 | 37:48.32 | 4:03.48 | 170132 | 188404
10 | 41:52.05 | 4:40.67 | 188405 | 209471
11 | 46:32.72 | 5:22.10 | 209472 | 233631
12 | 51:55.07 | 3:51.08 | 233632 | 250964
13 | 55:46.15 | 4:46.57 | 250965 | 272471
14 | 60:32.72 | 5:19.48 | 272472 | 296444
15 | 65:52.45 | 3:31.70 | 296445 | 312339


Track 1

Filename C:\New Folder\01 - David Bowie - Real Cool World.wav

Pre-gap length 0:00:02.00

Peak level 97.2 %
Extraction speed 2.0 X
Track quality 100.0 %
Test CRC A77A65D6
Copy CRC A77A65D6
Accurately ripped (confidence 5) [87C17AAE] (AR v2)
Copy OK

Track 2

Filename C:\New Folder\02 - Thompson Twins - Play With Me.wav

Peak level 94.6 %
Extraction speed 2.2 X
Track quality 100.0 %
Test CRC 8BF2AA9E
Copy CRC 8BF2AA9E
Accurately ripped (confidence 5) [68D6818B] (AR v2)
Copy OK

Track 3

Filename C:\New Folder\03 - Electronic - Disappointed.wav

Pre-gap length 0:00:00.50

Peak level 100.0 %
Extraction speed 2.4 X
Track quality 100.0 %
Test CRC F27FD52C
Copy CRC F27FD52C
Accurately ripped (confidence 5) [E000DF41] (AR v2)
Copy OK

Track 4

Filename C:\New Folder\04 - The Future Sound Of London - Papua New Guinea (7'' Original).wav

Pre-gap length 0:00:00.40

Peak level 94.6 %
Extraction speed 2.5 X
Track quality 100.0 %
Test CRC A2B189AB
Copy CRC A2B189AB
Accurately ripped (confidence 5) [031C6AA8] (AR v2)
Copy OK

Track 5

Filename C:\New Folder\05 - Ministry - N.W.O..wav

Pre-gap length 0:00:01.05

Peak level 97.2 %
Extraction speed 2.8 X
Track quality 100.0 %
Test CRC 40A80C79
Copy CRC 40A80C79
Accurately ripped (confidence 5) [78231CAD] (AR v2)
Copy OK

Track 6

Filename C:\New Folder\06 - The Cult - The Witch.wav

Pre-gap length 0:00:00.60

Peak level 96.0 %
Extraction speed 3.1 X
Track quality 100.0 %
Test CRC 634AC0F2
Copy CRC 634AC0F2
Accurately ripped (confidence 5) [39EAE67D] (AR v2)
Copy OK

Track 7

Filename C:\New Folder\07 - My Life With The Thrill Kill Kult - Sex On Wheelz (Glamour Dyke Mix).wav

Pre-gap length 0:00:00.70

Peak level 97.2 %
Extraction speed 3.0 X
Track quality 100.0 %
Test CRC AE58798A
Copy CRC AE58798A
Accurately ripped (confidence 5) [BEED99A0] (AR v2)
Copy OK

Track 8

Filename C:\New Folder\08 - Moby - Ah-Ah (Mix 1).wav

Peak level 94.6 %
Extraction speed 2.4 X
Track quality 99.9 %
Test CRC C7BDB984
Copy CRC C7BDB984
Accurately ripped (confidence 5) [6A946A68] (AR v2)
Copy OK

Track 9

Filename C:\New Folder\09 - Mindless - Mindless.wav

Peak level 96.9 %
Extraction speed 3.3 X
Track quality 100.0 %
Test CRC 08AC3C6D
Copy CRC 08AC3C6D
Accurately ripped (confidence 5) [396370EB] (AR v2)
Copy OK

Track 10

Filename C:\New Folder\10 - Moby - Next Is The E (Long Arms Mix).wav

Peak level 93.4 %
Extraction speed 3.4 X
Track quality 100.0 %
Test CRC 6DB7518A
Copy CRC 6DB7518A
Accurately ripped (confidence 5) [80C81F54] (AR v2)
Copy OK

Track 11

Filename C:\New Folder\11 - Da Juice - Do That Thang (Polite Mix).wav

Peak level 92.5 %
Extraction speed 3.6 X
Track quality 100.0 %
Test CRC BC4BF42E
Copy CRC BC4BF42E
Accurately ripped (confidence 4) [98F2807D] (AR v2)
Copy OK

Track 12

Filename C:\New Folder\12 - My Life With The Thrill Kill Kult - Her Sassy Kiss.wav

Peak level 97.2 %
Extraction speed 3.6 X
Track quality 100.0 %
Test CRC 6D418DF4
Copy CRC 6D418DF4
Accurately ripped (confidence 4) [8B14217E] (AR v2)
Copy OK

Track 13

Filename C:\New Folder\13 - Pure - Greedy.wav

Peak level 96.5 %
Extraction speed 3.8 X
Track quality 100.0 %
Test CRC 079760AD
Copy CRC 079760AD
Accurately ripped (confidence 4) [D038F44F] (AR v2)
Copy OK

Track 14

Filename C:\New Folder\14 - Brian Eno - Under.wav

Pre-gap length 0:00:02.10

Peak level 97.2 %
Extraction speed 4.0 X
Track quality 100.0 %
Test CRC 2E3EED94
Copy CRC 2E3EED94
Accurately ripped (confidence 4) [E51797EC] (AR v2)
Copy OK

Track 15

Filename C:\New Folder\15 - Tom Bailey - Industry And Seduction.wav

Pre-gap length 0:00:01.45

Peak level 100.0 %
Extraction speed 3.9 X
Track quality 100.0 %
Test CRC 4A75CDFB
Copy CRC 4A75CDFB
Accurately ripped (confidence 4) [5F148CBA] (AR v2)
Copy OK


All tracks accurately ripped

No errors occurred

End of status report

–– CUETools DB Plugin V2.1.4

[CTDB TOCID: EkfHlU2meeG.sqiKTtoo8jTiLz0-] found
Submit result: EkfHlU2meeG.sqiKTtoo8jTiLz0- has been confirmed
Track | CTDB Status
1 | (3/3) Accurately ripped
2 | (3/3) Accurately ripped
3 | (3/3) Accurately ripped
4 | (3/3) Accurately ripped
5 | (3/3) Accurately ripped
6 | (3/3) Accurately ripped
7 | (3/3) Accurately ripped
8 | (3/3) Accurately ripped
9 | (3/3) Accurately ripped
10 | (3/3) Accurately ripped
11 | (3/3) Accurately ripped
12 | (3/3) Accurately ripped
13 | (3/3) Accurately ripped
14 | (3/3) Accurately ripped
15 | (3/3) Accurately ripped


==== Log checksum AB313CABD201E7F81CCA0BAA51634E5D4E56E3F9B063B94E95875797429C9232 ====

foobar2000 1.2 / Dynamic Range Meter 1.1.1
log date: 2017-05-14 15:57:22

––––––––––––––––––––––––––––––––––––––––
Analyzed: Brian Eno / Songs From The Cool World (Music From And Inspired By The Motion Picture) (1)
Da Juice / Songs From The Cool World (Music From And Inspired By The Motion Picture) (2)
David Bowie / Songs From The Cool World (Music From And Inspired By The Motion Picture) (3)
Electronic / Songs From The Cool World (Music From And Inspired By The Motion Picture) (4)
Mindless / Songs From The Cool World (Music From And Inspired By The Motion Picture) (5)
Ministry / Songs From The Cool World (Music From And Inspired By The Motion Picture) (6)
Moby / Songs From The Cool World (Music From And Inspired By The Motion Picture) (7-8)
My Life With The Thrill Kill Kult / Songs From The Cool World (Music From And Inspired By The Motion Picture) (9-10)
Pure / Songs From The Cool World (Music From And Inspired By The Motion Picture) (11)
The Cult / Songs From The Cool World (Music From And Inspired By The Motion Picture) (12)
The Future Sound Of London / Songs From The Cool World (Music From And Inspired By The Motion Picture) (13)
Thompson Twins / Songs From The Cool World (Music From And Inspired By The Motion Picture) (14)
Tom Bailey / Songs From The Cool World (Music From And Inspired By The Motion Picture) (15)
––––––––––––––––––––––––––––––––––––––––

DR Peak RMS Duration Track
––––––––––––––––––––––––––––––––––––––––
DR10 -0.24 dB -13.14 dB 5:20 14-Under
DR7 -0.67 dB -9.18 dB 5:22 11-Do That Thang (Polite Mix)
DR8 -0.24 dB -9.82 dB 5:25 01-Real Cool World
DR10 0.00 dB -11.63 dB 4:22 03-Disappointed
DR11 -0.27 dB -13.38 dB 4:04 09-Mindless
DR11 -0.24 dB -12.13 dB 5:31 05-N.W.O.
DR10 -0.48 dB -11.28 dB 3:30 08-Ah-Ah (Mix 1)
DR9 -0.59 dB -11.77 dB 4:41 10-Next Is The E (Long Arms Mix)
DR9 -0.24 dB -9.95 dB 4:00 07-Sex On Wheelz (Glamour Dyke Mix)
DR9 -0.24 dB -11.80 dB 3:51 12-Her Sassy Kiss
DR9 -0.30 dB -10.56 dB 4:47 13-Greedy
DR10 -0.35 dB -11.73 dB 7:04 06-The Witch
DR9 -0.48 dB -11.97 dB 3:50 04-Papua New Guinea (7'' Original)
DR10 -0.48 dB -12.36 dB 4:06 02-Play With Me
DR12 0.00 dB -13.83 dB 3:32 15-Industry And Seduction
––––––––––––––––––––––––––––––––––––––––

Number of tracks: 15
Official DR value: DR10

Samplerate: 44100 Hz
Channels: 2
Bits per sample: 16
Bitrate: 866 kbps
Codec: FLAC
================================================================================

VA - Songs from the 'Cool World': Music From And Inspired By The Motion Picture (1992) [Re-Up]

VA - Songs from the 'Cool World': Music From And Inspired By The Motion Picture (1992) [Re-Up]

All thanks to original uploader - alekow

More Movies & Soundtracks in Efgrapha Blog