Tags
Language
Tags

VA - Studio France 2019 (2CD, 2019)

Posted By: ciklon5
VA - Studio France 2019 (2CD, 2019)

VA - Studio France 2019 (2CD, 2019)
FLAC (tracks+cue,log) / MP3 320 kbps | 2:29:46 | 918 / 347 Mb
Genre: French Pop, Chanson / Label: Universal Music

2CD’s met de grootste en beste Franse klassiekers van de laatste 50 jaar! Met recente hits zoals Stromae, Angele en Christine & The Queens maar ook de onvervalste klassiekers en meezingers van Serge Gainsbourg, Joe Dassin, Charles Aznavour, Claude Francois, Adamo, Christophe, …

Track List:
CD1
1. Jacques Brel - Bruxelles
2. Serge Gainsbourg - Se Suis Venu Te Dire Que Je M'En Vais
3. Carla Bruni - Quelqu'un M'a Dit
4. Jacques Dutronc - es Playboys
5. France Gall - Poupée De Cire Poupée De Son
6. Plastic Bertrand - Ca Plane Pour Moi
7. Christophe - Les Marionnettes
8. Eddy Mitchell - Toujours un coin qui me rappelle
9. Adamo - J'Ai Tant De Reves Dans Mes Bagages
10. Philippe Cataldo - Les Divas Du Dancing
11. Alizée - Moi Lolita
12. Jean Gabin - Maintenant Je Sais
13. Nino Ferrer - Le Telefon
14. Leopold Nord Et Vous - C'est l'Amour
15. Patrick Juvet - Ou Sont Les Femmes
16. Marie Myriam - L'Oiseau Et L'Enfant
17. C. Jérôme - Kiss Me
18. Khaled - Aicha
19. Viktor Lazlo - Canoe Rose
20. Hervé Vilard - Capri C'Est Fini
21. Johnny Hallyday - Que Je T'Aime

CD2
1. Stromae - Formidable
2. Charles Aznavour - Emmenez Moi
3. Dalida - Gigi L'Amoroso
4. Indila - Derniere Danse
5. Joe Dassin - Si Tu T'appelles Mélancolie
6. Brigitte Bardot - Harley Davidson
7. Pierre Groscolas - Lady Lay
8. Angèle - Balance Ton Quoi
9. La Compagnie Créole - C'est Bon Pour Le Moral
10. Lou & The Hollywood Bananas - Kingston Kingston
11. Lio - Amoureux Solitaires
12. Vicky Leandros - Apres Toi
13. Nâdiya Featuring Smartzee - Et C'Est Parti
14. Guesch Patti - Etienne
15. Maître Gims - Est Ce Que Tu M'Aimes
16. Jean-Jacques Goldman Michael Jones - Je Te Donne
17. Michel Fugain - Le Printemps
18. Séverine - Un Banc Un Arbre Une Rue
19. Jean Vallée - L'Amour Ca Fait Chanter La Vie
20. Michel Delpech - Wight Is Wight
21. Claude François - Comme D'Habitude

Exact Audio Copy V1.3 from 2. September 2016

EAC extraction logfile from 28. August 2019, 17:41

Various Artists / Studio France 2019

Used drive : PLEXTOR PX-891SAF Adapter: 1 ID: 0

Read mode : Secure
Utilize accurate stream : Yes
Defeat audio cache : Yes
Make use of C2 pointers : No

Read offset correction : 6
Overread into Lead-In and Lead-Out : No
Fill up missing offset samples with silence : Yes
Delete leading and trailing silent blocks : No
Null samples used in CRC calculations : Yes
Used interface : Native Win32 interface for Win NT & 2000
Gap handling : Appended to previous track

Used output format : User Defined Encoder
Selected bitrate : 1024 kBit/s
Quality : High
Add ID3 tag : No
Command line compressor : C:\Program Files (x86)\Exact Audio Copy\Flac\flac.exe
Additional command line options : -8 -V -T "ARTIST=%artist%" -T "TITLE=%title%" -T "ALBUM=%albumtitle%" -T "DATE=%year%" -T "TRACKNUMBER=%tracknr%" -T "GENRE=%genre%" -T "PERFORMER=%albuminterpret%" -T "COMPOSER=%composer%" %haslyrics%–tag-from-file=LYRICS="%lyricsfile%"%haslyrics% -T "ALBUMARTIST=%albumartist%" -T "DISCNUMBER=%cdnumber%" -T "TOTALDISCS=%totalcds%" -T "TOTALTRACKS=%numtracks%" -T "COMMENT=%comment%" %source% -o %dest%


TOC of the extracted CD

Track | Start | Length | Start sector | End sector
––––––––––––––––––––––––––––-
1 | 0:00.00 | 2:59.11 | 0 | 13435
2 | 2:59.11 | 3:19.63 | 13436 | 28423
3 | 6:18.74 | 2:43.43 | 28424 | 40691
4 | 9:02.42 | 3:08.01 | 40692 | 54792
5 | 12:10.43 | 2:31.37 | 54793 | 66154
6 | 14:42.05 | 2:57.51 | 66155 | 79480
7 | 17:39.56 | 2:46.10 | 79481 | 91940
8 | 20:25.66 | 3:21.52 | 91941 | 107067
9 | 23:47.43 | 2:53.60 | 107068 | 120102
10 | 26:41.28 | 3:59.48 | 120103 | 138075
11 | 30:41.01 | 4:23.53 | 138076 | 157853
12 | 35:04.54 | 3:13.11 | 157854 | 172339
13 | 38:17.65 | 2:48.16 | 172340 | 184955
14 | 41:06.06 | 3:21.61 | 184956 | 200091
15 | 44:27.67 | 6:15.20 | 200092 | 228236
16 | 50:43.12 | 3:04.63 | 228237 | 242099
17 | 53:48.00 | 3:01.45 | 242100 | 255719
18 | 56:49.45 | 4:14.56 | 255720 | 274825
19 | 61:04.26 | 4:38.52 | 274826 | 295727
20 | 65:43.03 | 3:35.38 | 295728 | 311890
21 | 69:18.41 | 3:18.03 | 311891 | 326743


Track 1

Filename D:\#New Wav + flac\VA - Studio France 2019\cd 1\01. Jacques Brel - Bruxelles.wav

Pre-gap length 0:00:02.00

Peak level 53.7 %
Extraction speed 5.5 X
Track quality 100.0 %
Test CRC FA415CF0
Copy CRC FA415CF0
Track not present in AccurateRip database
Copy OK

Track 2

Filename D:\#New Wav + flac\VA - Studio France 2019\cd 1\02. Serge Gainsbourg - Je Suis Venu Te Dire Que Je M'en Vais.wav

Pre-gap length 0:00:02.00

Peak level 74.1 %
Extraction speed 4.8 X
Track quality 99.9 %
Test CRC 3568E7DD
Copy CRC 3568E7DD
Track not present in AccurateRip database
Copy OK

Track 3

Filename D:\#New Wav + flac\VA - Studio France 2019\cd 1\03. Carla Bruni - Quelqu'un M's Dit.wav

Pre-gap length 0:00:02.00

Peak level 73.5 %
Extraction speed 6.2 X
Track quality 100.0 %
Test CRC 3F364528
Copy CRC 3F364528
Track not present in AccurateRip database
Copy OK

Track 4

Filename D:\#New Wav + flac\VA - Studio France 2019\cd 1\04. Jacques Dutronc - Les Playboys.wav

Pre-gap length 0:00:02.00

Peak level 76.7 %
Extraction speed 6.6 X
Track quality 100.0 %
Test CRC 9A305BBA
Copy CRC 9A305BBA
Track not present in AccurateRip database
Copy OK

Track 5

Filename D:\#New Wav + flac\VA - Studio France 2019\cd 1\05. France Galle - Poupee De Dire , Poupee De Son.wav

Pre-gap length 0:00:02.00

Peak level 58.1 %
Extraction speed 6.6 X
Track quality 100.0 %
Test CRC 3035D87A
Copy CRC 3035D87A
Track not present in AccurateRip database
Copy OK

Track 6

Filename D:\#New Wav + flac\VA - Studio France 2019\cd 1\06. Plastic Bertrand - CA Plane Pour Moi.wav

Pre-gap length 0:00:02.00

Peak level 51.2 %
Extraction speed 7.2 X
Track quality 100.0 %
Test CRC 99A1E8A4
Copy CRC 99A1E8A4
Track not present in AccurateRip database
Copy OK

Track 7

Filename D:\#New Wav + flac\VA - Studio France 2019\cd 1\07. Christophe - Les Marionettes.wav

Pre-gap length 0:00:02.00

Peak level 63.8 %
Extraction speed 7.4 X
Track quality 100.0 %
Test CRC 24B45F4B
Copy CRC 24B45F4B
Track not present in AccurateRip database
Copy OK

Track 8

Filename D:\#New Wav + flac\VA - Studio France 2019\cd 1\08. Eddy Mitchell - Toujouirs Un Coin Qui Me Rappelle.wav

Pre-gap length 0:00:02.00

Peak level 100.0 %
Extraction speed 7.9 X
Track quality 100.0 %
Test CRC 25F5A438
Copy CRC 25F5A438
Track not present in AccurateRip database
Copy OK

Track 9

Filename D:\#New Wav + flac\VA - Studio France 2019\cd 1\09. Adamo - J'ai Tant De Rezves Dans Mes Bagages.wav

Pre-gap length 0:00:02.00

Peak level 77.6 %
Extraction speed 7.8 X
Track quality 100.0 %
Test CRC E0B5D9A3
Copy CRC E0B5D9A3
Track not present in AccurateRip database
Copy OK

Track 10

Filename D:\#New Wav + flac\VA - Studio France 2019\cd 1\10. Philippe Cataldo - Les Divas Du Dancing.wav

Pre-gap length 0:00:02.00

Peak level 70.9 %
Extraction speed 8.5 X
Track quality 100.0 %
Test CRC 4CC7235E
Copy CRC 4CC7235E
Track not present in AccurateRip database
Copy OK

Track 11

Filename D:\#New Wav + flac\VA - Studio France 2019\cd 1\11. Alizée - Moi Lolita.wav

Pre-gap length 0:00:02.00

Peak level 47.2 %
Extraction speed 8.9 X
Track quality 100.0 %
Test CRC E545FCB8
Copy CRC E545FCB8
Track not present in AccurateRip database
Copy OK

Track 12

Filename D:\#New Wav + flac\VA - Studio France 2019\cd 1\12. Jean Gabin - Maintenant Je Sais.wav

Pre-gap length 0:00:02.00

Peak level 80.2 %
Extraction speed 8.8 X
Track quality 100.0 %
Test CRC B6144D53
Copy CRC B6144D53
Track not present in AccurateRip database
Copy OK

Track 13

Filename D:\#New Wav + flac\VA - Studio France 2019\cd 1\13. Nino Ferrer - La Téléfon.wav

Pre-gap length 0:00:02.00

Peak level 72.4 %
Extraction speed 8.9 X
Track quality 100.0 %
Test CRC F6933E27
Copy CRC F6933E27
Track not present in AccurateRip database
Copy OK

Track 14

Filename D:\#New Wav + flac\VA - Studio France 2019\cd 1\14. Léopold Nord & Vous - C'est L'amour.wav

Pre-gap length 0:00:02.00

Peak level 50.1 %
Extraction speed 7.4 X
Track quality 99.9 %
Test CRC B7D92BF6
Copy CRC B7D92BF6
Track not present in AccurateRip database
Copy OK

Track 15

Filename D:\#New Wav + flac\VA - Studio France 2019\cd 1\15. Patrick Juvet - Ou Sont Les Femmes.wav

Pre-gap length 0:00:02.00

Peak level 69.1 %
Extraction speed 10.3 X
Track quality 100.0 %
Test CRC 2F140D51
Copy CRC 2F140D51
Track not present in AccurateRip database
Copy OK

Track 16

Filename D:\#New Wav + flac\VA - Studio France 2019\cd 1\16. Marie Myriam - L'oiseau Et L'enfant.wav

Pre-gap length 0:00:02.00

Peak level 70.7 %
Extraction speed 9.8 X
Track quality 100.0 %
Test CRC AE5C3B91
Copy CRC AE5C3B91
Track not present in AccurateRip database
Copy OK

Track 17

Filename D:\#New Wav + flac\VA - Studio France 2019\cd 1\17. C. Jérôme - Kiss Me.wav

Pre-gap length 0:00:02.00

Peak level 69.9 %
Extraction speed 7.7 X
Track quality 99.9 %
Test CRC 0101FE14
Copy CRC 0101FE14
Track not present in AccurateRip database
Copy OK

Track 18

Filename D:\#New Wav + flac\VA - Studio France 2019\cd 1\18. Khaled - Aicha.wav

Pre-gap length 0:00:02.00

Peak level 65.3 %
Extraction speed 10.7 X
Track quality 100.0 %
Test CRC EA707653
Copy CRC EA707653
Track not present in AccurateRip database
Copy OK

Track 19

Filename D:\#New Wav + flac\VA - Studio France 2019\cd 1\19. Viktor Lazlo - Canoe Rose.wav

Pre-gap length 0:00:02.00

Peak level 74.9 %
Extraction speed 11.2 X
Track quality 100.0 %
Test CRC 69AA1FDF
Copy CRC 69AA1FDF
Track not present in AccurateRip database
Copy OK

Track 20

Filename D:\#New Wav + flac\VA - Studio France 2019\cd 1\20. Hervé Vilard - Capri C'est Fini.wav

Pre-gap length 0:00:02.00

Peak level 68.3 %
Extraction speed 11.2 X
Track quality 100.0 %
Test CRC D9F9FA6D
Copy CRC D9F9FA6D
Track not present in AccurateRip database
Copy OK

Track 21

Filename D:\#New Wav + flac\VA - Studio France 2019\cd 1\21. Johnny Hallyday - Que Je T'aime.wav

Pre-gap length 0:00:02.00

Peak level 71.5 %
Extraction speed 11.3 X
Track quality 100.0 %
Test CRC BB178BAA
Copy CRC BB178BAA
Track not present in AccurateRip database
Copy OK


None of the tracks are present in the AccurateRip database

No errors occurred

End of status report

–– CUETools DB Plugin V2.1.6

[CTDB TOCID: XD5QDNHmpVJ3_iGSYEmLRR2XhRE-] found
Submit result: XD5QDNHmpVJ3_iGSYEmLRR2XhRE- has been confirmed
Track | CTDB Status
1 | (1/1) Accurately ripped
2 | (1/1) Accurately ripped
3 | (1/1) Accurately ripped
4 | (1/1) Accurately ripped
5 | (1/1) Accurately ripped
6 | (1/1) Accurately ripped
7 | (1/1) Accurately ripped
8 | (1/1) Accurately ripped
9 | (1/1) Accurately ripped
10 | (1/1) Accurately ripped
11 | (1/1) Accurately ripped
12 | (1/1) Accurately ripped
13 | (1/1) Accurately ripped
14 | (1/1) Accurately ripped
15 | (1/1) Accurately ripped
16 | (1/1) Accurately ripped
17 | (1/1) Accurately ripped
18 | (1/1) Accurately ripped
19 | (1/1) Accurately ripped
20 | (1/1) Accurately ripped
21 | (1/1) Accurately ripped


==== Log checksum 398EB7B63271414C923097F38454F6EF8D8BDCF3E9B49ACF9E2AF8D075CFC174 ====

––––––––––––––––––––––––––––––

Exact Audio Copy V1.3 from 2. September 2016

EAC extraction logfile from 28. August 2019, 17:41

Various Artists / Studio France 2019

Used drive : PLEXTOR PX-891SAF Adapter: 1 ID: 0

Read mode : Secure
Utilize accurate stream : Yes
Defeat audio cache : Yes
Make use of C2 pointers : No

Read offset correction : 6
Overread into Lead-In and Lead-Out : No
Fill up missing offset samples with silence : Yes
Delete leading and trailing silent blocks : No
Null samples used in CRC calculations : Yes
Used interface : Native Win32 interface for Win NT & 2000
Gap handling : Appended to previous track

Used output format : User Defined Encoder
Selected bitrate : 1024 kBit/s
Quality : High
Add ID3 tag : No
Command line compressor : C:\Program Files (x86)\Exact Audio Copy\Flac\flac.exe
Additional command line options : -8 -V -T "ARTIST=%artist%" -T "TITLE=%title%" -T "ALBUM=%albumtitle%" -T "DATE=%year%" -T "TRACKNUMBER=%tracknr%" -T "GENRE=%genre%" -T "PERFORMER=%albuminterpret%" -T "COMPOSER=%composer%" %haslyrics%–tag-from-file=LYRICS="%lyricsfile%"%haslyrics% -T "ALBUMARTIST=%albumartist%" -T "DISCNUMBER=%cdnumber%" -T "TOTALDISCS=%totalcds%" -T "TOTALTRACKS=%numtracks%" -T "COMMENT=%comment%" %source% -o %dest%


TOC of the extracted CD

Track | Start | Length | Start sector | End sector
––––––––––––––––––––––––––––-
1 | 0:00.00 | 2:59.11 | 0 | 13435
2 | 2:59.11 | 3:19.63 | 13436 | 28423
3 | 6:18.74 | 2:43.43 | 28424 | 40691
4 | 9:02.42 | 3:08.01 | 40692 | 54792
5 | 12:10.43 | 2:31.37 | 54793 | 66154
6 | 14:42.05 | 2:57.51 | 66155 | 79480
7 | 17:39.56 | 2:46.10 | 79481 | 91940
8 | 20:25.66 | 3:21.52 | 91941 | 107067
9 | 23:47.43 | 2:53.60 | 107068 | 120102
10 | 26:41.28 | 3:59.48 | 120103 | 138075
11 | 30:41.01 | 4:23.53 | 138076 | 157853
12 | 35:04.54 | 3:13.11 | 157854 | 172339
13 | 38:17.65 | 2:48.16 | 172340 | 184955
14 | 41:06.06 | 3:21.61 | 184956 | 200091
15 | 44:27.67 | 6:15.20 | 200092 | 228236
16 | 50:43.12 | 3:04.63 | 228237 | 242099
17 | 53:48.00 | 3:01.45 | 242100 | 255719
18 | 56:49.45 | 4:14.56 | 255720 | 274825
19 | 61:04.26 | 4:38.52 | 274826 | 295727
20 | 65:43.03 | 3:35.38 | 295728 | 311890
21 | 69:18.41 | 3:18.03 | 311891 | 326743


Track 1

Filename D:\#New Wav + flac\VA - Studio France 2019\cd 1\01. Jacques Brel - Bruxelles.wav

Pre-gap length 0:00:02.00

Peak level 53.7 %
Extraction speed 5.5 X
Track quality 100.0 %
Test CRC FA415CF0
Copy CRC FA415CF0
Track not present in AccurateRip database
Copy OK

Track 2

Filename D:\#New Wav + flac\VA - Studio France 2019\cd 1\02. Serge Gainsbourg - Je Suis Venu Te Dire Que Je M'en Vais.wav

Pre-gap length 0:00:02.00

Peak level 74.1 %
Extraction speed 4.8 X
Track quality 99.9 %
Test CRC 3568E7DD
Copy CRC 3568E7DD
Track not present in AccurateRip database
Copy OK

Track 3

Filename D:\#New Wav + flac\VA - Studio France 2019\cd 1\03. Carla Bruni - Quelqu'un M's Dit.wav

Pre-gap length 0:00:02.00

Peak level 73.5 %
Extraction speed 6.2 X
Track quality 100.0 %
Test CRC 3F364528
Copy CRC 3F364528
Track not present in AccurateRip database
Copy OK

Track 4

Filename D:\#New Wav + flac\VA - Studio France 2019\cd 1\04. Jacques Dutronc - Les Playboys.wav

Pre-gap length 0:00:02.00

Peak level 76.7 %
Extraction speed 6.6 X
Track quality 100.0 %
Test CRC 9A305BBA
Copy CRC 9A305BBA
Track not present in AccurateRip database
Copy OK

Track 5

Filename D:\#New Wav + flac\VA - Studio France 2019\cd 1\05. France Galle - Poupee De Dire , Poupee De Son.wav

Pre-gap length 0:00:02.00

Peak level 58.1 %
Extraction speed 6.6 X
Track quality 100.0 %
Test CRC 3035D87A
Copy CRC 3035D87A
Track not present in AccurateRip database
Copy OK

Track 6

Filename D:\#New Wav + flac\VA - Studio France 2019\cd 1\06. Plastic Bertrand - CA Plane Pour Moi.wav

Pre-gap length 0:00:02.00

Peak level 51.2 %
Extraction speed 7.2 X
Track quality 100.0 %
Test CRC 99A1E8A4
Copy CRC 99A1E8A4
Track not present in AccurateRip database
Copy OK

Track 7

Filename D:\#New Wav + flac\VA - Studio France 2019\cd 1\07. Christophe - Les Marionettes.wav

Pre-gap length 0:00:02.00

Peak level 63.8 %
Extraction speed 7.4 X
Track quality 100.0 %
Test CRC 24B45F4B
Copy CRC 24B45F4B
Track not present in AccurateRip database
Copy OK

Track 8

Filename D:\#New Wav + flac\VA - Studio France 2019\cd 1\08. Eddy Mitchell - Toujouirs Un Coin Qui Me Rappelle.wav

Pre-gap length 0:00:02.00

Peak level 100.0 %
Extraction speed 7.9 X
Track quality 100.0 %
Test CRC 25F5A438
Copy CRC 25F5A438
Track not present in AccurateRip database
Copy OK

Track 9

Filename D:\#New Wav + flac\VA - Studio France 2019\cd 1\09. Adamo - J'ai Tant De Rezves Dans Mes Bagages.wav

Pre-gap length 0:00:02.00

Peak level 77.6 %
Extraction speed 7.8 X
Track quality 100.0 %
Test CRC E0B5D9A3
Copy CRC E0B5D9A3
Track not present in AccurateRip database
Copy OK

Track 10

Filename D:\#New Wav + flac\VA - Studio France 2019\cd 1\10. Philippe Cataldo - Les Divas Du Dancing.wav

Pre-gap length 0:00:02.00

Peak level 70.9 %
Extraction speed 8.5 X
Track quality 100.0 %
Test CRC 4CC7235E
Copy CRC 4CC7235E
Track not present in AccurateRip database
Copy OK

Track 11

Filename D:\#New Wav + flac\VA - Studio France 2019\cd 1\11. Alizée - Moi Lolita.wav

Pre-gap length 0:00:02.00

Peak level 47.2 %
Extraction speed 8.9 X
Track quality 100.0 %
Test CRC E545FCB8
Copy CRC E545FCB8
Track not present in AccurateRip database
Copy OK

Track 12

Filename D:\#New Wav + flac\VA - Studio France 2019\cd 1\12. Jean Gabin - Maintenant Je Sais.wav

Pre-gap length 0:00:02.00

Peak level 80.2 %
Extraction speed 8.8 X
Track quality 100.0 %
Test CRC B6144D53
Copy CRC B6144D53
Track not present in AccurateRip database
Copy OK

Track 13

Filename D:\#New Wav + flac\VA - Studio France 2019\cd 1\13. Nino Ferrer - La Téléfon.wav

Pre-gap length 0:00:02.00

Peak level 72.4 %
Extraction speed 8.9 X
Track quality 100.0 %
Test CRC F6933E27
Copy CRC F6933E27
Track not present in AccurateRip database
Copy OK

Track 14

Filename D:\#New Wav + flac\VA - Studio France 2019\cd 1\14. Léopold Nord & Vous - C'est L'amour.wav

Pre-gap length 0:00:02.00

Peak level 50.1 %
Extraction speed 7.4 X
Track quality 99.9 %
Test CRC B7D92BF6
Copy CRC B7D92BF6
Track not present in AccurateRip database
Copy OK

Track 15

Filename D:\#New Wav + flac\VA - Studio France 2019\cd 1\15. Patrick Juvet - Ou Sont Les Femmes.wav

Pre-gap length 0:00:02.00

Peak level 69.1 %
Extraction speed 10.3 X
Track quality 100.0 %
Test CRC 2F140D51
Copy CRC 2F140D51
Track not present in AccurateRip database
Copy OK

Track 16

Filename D:\#New Wav + flac\VA - Studio France 2019\cd 1\16. Marie Myriam - L'oiseau Et L'enfant.wav

Pre-gap length 0:00:02.00

Peak level 70.7 %
Extraction speed 9.8 X
Track quality 100.0 %
Test CRC AE5C3B91
Copy CRC AE5C3B91
Track not present in AccurateRip database
Copy OK

Track 17

Filename D:\#New Wav + flac\VA - Studio France 2019\cd 1\17. C. Jérôme - Kiss Me.wav

Pre-gap length 0:00:02.00

Peak level 69.9 %
Extraction speed 7.7 X
Track quality 99.9 %
Test CRC 0101FE14
Copy CRC 0101FE14
Track not present in AccurateRip database
Copy OK

Track 18

Filename D:\#New Wav + flac\VA - Studio France 2019\cd 1\18. Khaled - Aicha.wav

Pre-gap length 0:00:02.00

Peak level 65.3 %
Extraction speed 10.7 X
Track quality 100.0 %
Test CRC EA707653
Copy CRC EA707653
Track not present in AccurateRip database
Copy OK

Track 19

Filename D:\#New Wav + flac\VA - Studio France 2019\cd 1\19. Viktor Lazlo - Canoe Rose.wav

Pre-gap length 0:00:02.00

Peak level 74.9 %
Extraction speed 11.2 X
Track quality 100.0 %
Test CRC 69AA1FDF
Copy CRC 69AA1FDF
Track not present in AccurateRip database
Copy OK

Track 20

Filename D:\#New Wav + flac\VA - Studio France 2019\cd 1\20. Hervé Vilard - Capri C'est Fini.wav

Pre-gap length 0:00:02.00

Peak level 68.3 %
Extraction speed 11.2 X
Track quality 100.0 %
Test CRC D9F9FA6D
Copy CRC D9F9FA6D
Track not present in AccurateRip database
Copy OK

Track 21

Filename D:\#New Wav + flac\VA - Studio France 2019\cd 1\21. Johnny Hallyday - Que Je T'aime.wav

Pre-gap length 0:00:02.00

Peak level 71.5 %
Extraction speed 11.3 X
Track quality 100.0 %
Test CRC BB178BAA
Copy CRC BB178BAA
Track not present in AccurateRip database
Copy OK


None of the tracks are present in the AccurateRip database

No errors occurred

End of status report

–– CUETools DB Plugin V2.1.6

[CTDB TOCID: XD5QDNHmpVJ3_iGSYEmLRR2XhRE-] found
Submit result: XD5QDNHmpVJ3_iGSYEmLRR2XhRE- has been confirmed
Track | CTDB Status
1 | (1/1) Accurately ripped
2 | (1/1) Accurately ripped
3 | (1/1) Accurately ripped
4 | (1/1) Accurately ripped
5 | (1/1) Accurately ripped
6 | (1/1) Accurately ripped
7 | (1/1) Accurately ripped
8 | (1/1) Accurately ripped
9 | (1/1) Accurately ripped
10 | (1/1) Accurately ripped
11 | (1/1) Accurately ripped
12 | (1/1) Accurately ripped
13 | (1/1) Accurately ripped
14 | (1/1) Accurately ripped
15 | (1/1) Accurately ripped
16 | (1/1) Accurately ripped
17 | (1/1) Accurately ripped
18 | (1/1) Accurately ripped
19 | (1/1) Accurately ripped
20 | (1/1) Accurately ripped
21 | (1/1) Accurately ripped


==== Log checksum 398EB7B63271414C923097F38454F6EF8D8BDCF3E9B49ACF9E2AF8D075CFC174 ====

Exact Audio Copy V1.3 from 2. September 2016

EAC extraction logfile from 28. August 2019, 18:14

Various Artists / Studio France 2019

Used drive : PLEXTOR PX-891SAF Adapter: 1 ID: 0

Read mode : Secure
Utilize accurate stream : Yes
Defeat audio cache : Yes
Make use of C2 pointers : No

Read offset correction : 6
Overread into Lead-In and Lead-Out : No
Fill up missing offset samples with silence : Yes
Delete leading and trailing silent blocks : No
Null samples used in CRC calculations : Yes
Used interface : Native Win32 interface for Win NT & 2000
Gap handling : Appended to previous track

Used output format : User Defined Encoder
Selected bitrate : 1024 kBit/s
Quality : High
Add ID3 tag : No
Command line compressor : C:\Program Files (x86)\Exact Audio Copy\Flac\flac.exe
Additional command line options : -8 -V -T "ARTIST=%artist%" -T "TITLE=%title%" -T "ALBUM=%albumtitle%" -T "DATE=%year%" -T "TRACKNUMBER=%tracknr%" -T "GENRE=%genre%" -T "PERFORMER=%albuminterpret%" -T "COMPOSER=%composer%" %haslyrics%–tag-from-file=LYRICS="%lyricsfile%"%haslyrics% -T "ALBUMARTIST=%albumartist%" -T "DISCNUMBER=%cdnumber%" -T "TOTALDISCS=%totalcds%" -T "TOTALTRACKS=%numtracks%" -T "COMMENT=%comment%" %source% -o %dest%


TOC of the extracted CD

Track | Start | Length | Start sector | End sector
––––––––––––––––––––––––––––-
1 | 0:00.00 | 3:34.49 | 0 | 16098
2 | 3:34.49 | 3:31.66 | 16099 | 31989
3 | 7:06.40 | 7:17.33 | 31990 | 64797
4 | 14:23.73 | 3:35.11 | 64798 | 80933
5 | 17:59.09 | 3:13.55 | 80934 | 95463
6 | 21:12.64 | 2:30.73 | 95464 | 106786
7 | 23:43.62 | 3:00.41 | 106787 | 120327
8 | 26:44.28 | 3:08.43 | 120328 | 134470
9 | 29:52.71 | 4:16.33 | 134471 | 153703
10 | 34:09.29 | 3:04.73 | 153704 | 167576
11 | 37:14.27 | 3:34.45 | 167577 | 183671
12 | 40:48.72 | 3:31.50 | 183672 | 199546
13 | 44:20.47 | 3:54.10 | 199547 | 217106
14 | 48:14.57 | 4:07.43 | 217107 | 235674
15 | 52:22.25 | 3:56.10 | 235675 | 253384
16 | 56:18.35 | 4:21.13 | 253385 | 272972
17 | 60:39.48 | 2:25.57 | 272973 | 283904
18 | 63:05.30 | 3:01.02 | 283905 | 297481
19 | 66:06.32 | 3:00.61 | 297482 | 311042
20 | 69:07.18 | 3:50.13 | 311043 | 328305
21 | 72:57.31 | 4:08.31 | 328306 | 346936


Track 1

Filename D:\#New Wav + flac\VA - Studio France 2019\cd 2\01. Stromae - Formidable.wav

Pre-gap length 0:00:02.00

Peak level 70.7 %
Extraction speed 5.6 X
Track quality 100.0 %
Test CRC 4637136F
Copy CRC 4637136F
Track not present in AccurateRip database
Copy OK

Track 2

Filename D:\#New Wav + flac\VA - Studio France 2019\cd 2\02. Charles Aznavour - Emmenez Moi.wav

Pre-gap length 0:00:02.00

Peak level 75.8 %
Extraction speed 6.1 X
Track quality 100.0 %
Test CRC 06A9920B
Copy CRC 06A9920B
Track not present in AccurateRip database
Copy OK

Track 3

Filename D:\#New Wav + flac\VA - Studio France 2019\cd 2\03. Dalida - Gigi L'Amoroso.wav

Pre-gap length 0:00:02.00

Peak level 71.6 %
Extraction speed 7.2 X
Track quality 100.0 %
Test CRC 9946646E
Copy CRC 9946646E
Track not present in AccurateRip database
Copy OK

Track 4

Filename D:\#New Wav + flac\VA - Studio France 2019\cd 2\04. Indila - Derniere Danse.wav

Pre-gap length 0:00:02.00

Peak level 60.2 %
Extraction speed 5.8 X
Track quality 99.9 %
Test CRC CAAC8C78
Copy CRC CAAC8C78
Track not present in AccurateRip database
Copy OK

Track 5

Filename D:\#New Wav + flac\VA - Studio France 2019\cd 2\05. Joe Dassin - Si Tu T'Appeles Melancholie.wav

Pre-gap length 0:00:02.00

Peak level 77.6 %
Extraction speed 7.4 X
Track quality 100.0 %
Test CRC 2F360D0D
Copy CRC 2F360D0D
Track not present in AccurateRip database
Copy OK

Track 6

Filename D:\#New Wav + flac\VA - Studio France 2019\cd 2\06. Brigitte Bardot - Harley Davidson.wav

Pre-gap length 0:00:02.00

Peak level 62.3 %
Extraction speed 7.4 X
Track quality 100.0 %
Test CRC 478D9020
Copy CRC 478D9020
Track not present in AccurateRip database
Copy OK

Track 7

Filename D:\#New Wav + flac\VA - Studio France 2019\cd 2\07. Pierre Groscolas - Lady Lay.wav

Pre-gap length 0:00:02.00

Peak level 58.8 %
Extraction speed 7.7 X
Track quality 100.0 %
Test CRC 45F425F1
Copy CRC 45F425F1
Track not present in AccurateRip database
Copy OK

Track 8

Filename D:\#New Wav + flac\VA - Studio France 2019\cd 2\08. Angèle - Balance Ton Quoi.wav

Pre-gap length 0:00:02.00

Peak level 56.2 %
Extraction speed 6.4 X
Track quality 99.9 %
Test CRC D581C13F
Copy CRC D581C13F
Track not present in AccurateRip database
Copy OK

Track 9

Filename D:\#New Wav + flac\VA - Studio France 2019\cd 2\09. La Compagnie Créole - C'est Bon Pour Le Moral.wav

Pre-gap length 0:00:02.00

Peak level 41.2 %
Extraction speed 8.8 X
Track quality 100.0 %
Test CRC B77D872C
Copy CRC B77D872C
Track not present in AccurateRip database
Copy OK

Track 10

Filename D:\#New Wav + flac\VA - Studio France 2019\cd 2\10. Lou & the Hollywood Bananas - Kingston Kingston.wav

Pre-gap length 0:00:02.00

Peak level 50.1 %
Extraction speed 8.7 X
Track quality 100.0 %
Test CRC 12B0E6BB
Copy CRC 12B0E6BB
Track not present in AccurateRip database
Copy OK

Track 11

Filename D:\#New Wav + flac\VA - Studio France 2019\cd 2\11. Lio - Amoureux Solitaires.wav

Pre-gap length 0:00:02.00

Peak level 62.3 %
Extraction speed 9.0 X
Track quality 100.0 %
Test CRC 0D46AEAC
Copy CRC 0D46AEAC
Track not present in AccurateRip database
Copy OK

Track 12

Filename D:\#New Wav + flac\VA - Studio France 2019\cd 2\12. Vicky Leandros - Après Toi.wav

Pre-gap length 0:00:02.00

Peak level 55.5 %
Extraction speed 9.4 X
Track quality 100.0 %
Test CRC D82B0881
Copy CRC D82B0881
Track not present in AccurateRip database
Copy OK

Track 13

Filename D:\#New Wav + flac\VA - Studio France 2019\cd 2\13. Nadya Feat . Smartzee - Et C'est Parti.wav

Pre-gap length 0:00:02.00

Peak level 30.5 %
Extraction speed 9.7 X
Track quality 100.0 %
Test CRC 5232E645
Copy CRC 5232E645
Track not present in AccurateRip database
Copy OK

Track 14

Filename D:\#New Wav + flac\VA - Studio France 2019\cd 2\14. Guesch Patti - Etienne.wav

Pre-gap length 0:00:02.00

Peak level 60.9 %
Extraction speed 10.0 X
Track quality 100.0 %
Test CRC 7A15B28E
Copy CRC 7A15B28E
Track not present in AccurateRip database
Copy OK

Track 15

Filename D:\#New Wav + flac\VA - Studio France 2019\cd 2\15. Maître Gims - Est-Ce Que Tu M'aimes.wav

Pre-gap length 0:00:02.00

Peak level 47.3 %
Extraction speed 10.3 X
Track quality 100.0 %
Test CRC DF8CF9EB
Copy CRC DF8CF9EB
Track not present in AccurateRip database
Copy OK

Track 16

Filename D:\#New Wav + flac\VA - Studio France 2019\cd 2\16. Jean-Jacques Goldman & Michael Jones - Je Te Donne.wav

Pre-gap length 0:00:02.00

Peak level 59.5 %
Extraction speed 10.5 X
Track quality 100.0 %
Test CRC D3E4786B
Copy CRC D3E4786B
Track not present in AccurateRip database
Copy OK

Track 17

Filename D:\#New Wav + flac\VA - Studio France 2019\cd 2\17. Michel Fugain - Le Printemps.wav

Pre-gap length 0:00:02.00

Peak level 52.4 %
Extraction speed 7.3 X
Track quality 99.9 %
Test CRC DADF4205
Copy CRC DADF4205
Track not present in AccurateRip database
Copy OK

Track 18

Filename D:\#New Wav + flac\VA - Studio France 2019\cd 2\18. Séverine - Un Banc, Un Abre, Une Rue.wav

Pre-gap length 0:00:02.00

Peak level 66.2 %
Extraction speed 10.3 X
Track quality 100.0 %
Test CRC 4232BB5B
Copy CRC 4232BB5B
Track not present in AccurateRip database
Copy OK

Track 19

Filename D:\#New Wav + flac\VA - Studio France 2019\cd 2\19. Jean Vallée - L'amour CA Fair Chanter La Vie.wav

Pre-gap length 0:00:02.00

Peak level 69.1 %
Extraction speed 10.7 X
Track quality 100.0 %
Test CRC 353CE3DC
Copy CRC 353CE3DC
Track not present in AccurateRip database
Copy OK

Track 20

Filename D:\#New Wav + flac\VA - Studio France 2019\cd 2\20. Michel Delpech - Wight Is Wight.wav

Pre-gap length 0:00:02.00

Peak level 61.6 %
Extraction speed 11.1 X
Track quality 100.0 %
Test CRC 078FA2E2
Copy CRC 078FA2E2
Track not present in AccurateRip database
Copy OK

Track 21

Filename D:\#New Wav + flac\VA - Studio France 2019\cd 2\21. Claude François - Comme D'habitude.wav

Pre-gap length 0:00:02.00

Peak level 56.2 %
Extraction speed 11.4 X
Track quality 100.0 %
Test CRC 54E3BB43
Copy CRC 54E3BB43
Track not present in AccurateRip database
Copy OK


None of the tracks are present in the AccurateRip database

No errors occurred

End of status report

–– CUETools DB Plugin V2.1.6

[CTDB TOCID: ejS4FrFZYCWcj2n_45leRwXnvEc-] found
Submit result: ejS4FrFZYCWcj2n_45leRwXnvEc- has been confirmed
Track | CTDB Status
1 | (1/1) Accurately ripped
2 | (1/1) Accurately ripped
3 | (1/1) Accurately ripped
4 | (1/1) Accurately ripped
5 | (1/1) Accurately ripped
6 | (1/1) Accurately ripped
7 | (1/1) Accurately ripped
8 | (1/1) Accurately ripped
9 | (1/1) Accurately ripped
10 | (1/1) Accurately ripped
11 | (1/1) Accurately ripped
12 | (1/1) Accurately ripped
13 | (1/1) Accurately ripped
14 | (1/1) Accurately ripped
15 | (1/1) Accurately ripped
16 | (1/1) Accurately ripped
17 | (1/1) Accurately ripped
18 | (1/1) Accurately ripped
19 | (1/1) Accurately ripped
20 | (1/1) Accurately ripped
21 | (1/1) Accurately ripped


==== Log checksum 83E1701ADE5E9E7FA83CB79FC04AAC2A0DD5DFED4551B34604F173A5E6EB77DD ====

––––––––––––––––––––––––––––––

Exact Audio Copy V1.3 from 2. September 2016

EAC extraction logfile from 28. August 2019, 18:14

Various Artists / Studio France 2019

Used drive : PLEXTOR PX-891SAF Adapter: 1 ID: 0

Read mode : Secure
Utilize accurate stream : Yes
Defeat audio cache : Yes
Make use of C2 pointers : No

Read offset correction : 6
Overread into Lead-In and Lead-Out : No
Fill up missing offset samples with silence : Yes
Delete leading and trailing silent blocks : No
Null samples used in CRC calculations : Yes
Used interface : Native Win32 interface for Win NT & 2000
Gap handling : Appended to previous track

Used output format : User Defined Encoder
Selected bitrate : 1024 kBit/s
Quality : High
Add ID3 tag : No
Command line compressor : C:\Program Files (x86)\Exact Audio Copy\Flac\flac.exe
Additional command line options : -8 -V -T "ARTIST=%artist%" -T "TITLE=%title%" -T "ALBUM=%albumtitle%" -T "DATE=%year%" -T "TRACKNUMBER=%tracknr%" -T "GENRE=%genre%" -T "PERFORMER=%albuminterpret%" -T "COMPOSER=%composer%" %haslyrics%–tag-from-file=LYRICS="%lyricsfile%"%haslyrics% -T "ALBUMARTIST=%albumartist%" -T "DISCNUMBER=%cdnumber%" -T "TOTALDISCS=%totalcds%" -T "TOTALTRACKS=%numtracks%" -T "COMMENT=%comment%" %source% -o %dest%


TOC of the extracted CD

Track | Start | Length | Start sector | End sector
––––––––––––––––––––––––––––-
1 | 0:00.00 | 3:34.49 | 0 | 16098
2 | 3:34.49 | 3:31.66 | 16099 | 31989
3 | 7:06.40 | 7:17.33 | 31990 | 64797
4 | 14:23.73 | 3:35.11 | 64798 | 80933
5 | 17:59.09 | 3:13.55 | 80934 | 95463
6 | 21:12.64 | 2:30.73 | 95464 | 106786
7 | 23:43.62 | 3:00.41 | 106787 | 120327
8 | 26:44.28 | 3:08.43 | 120328 | 134470
9 | 29:52.71 | 4:16.33 | 134471 | 153703
10 | 34:09.29 | 3:04.73 | 153704 | 167576
11 | 37:14.27 | 3:34.45 | 167577 | 183671
12 | 40:48.72 | 3:31.50 | 183672 | 199546
13 | 44:20.47 | 3:54.10 | 199547 | 217106
14 | 48:14.57 | 4:07.43 | 217107 | 235674
15 | 52:22.25 | 3:56.10 | 235675 | 253384
16 | 56:18.35 | 4:21.13 | 253385 | 272972
17 | 60:39.48 | 2:25.57 | 272973 | 283904
18 | 63:05.30 | 3:01.02 | 283905 | 297481
19 | 66:06.32 | 3:00.61 | 297482 | 311042
20 | 69:07.18 | 3:50.13 | 311043 | 328305
21 | 72:57.31 | 4:08.31 | 328306 | 346936


Track 1

Filename D:\#New Wav + flac\VA - Studio France 2019\cd 2\01. Stromae - Formidable.wav

Pre-gap length 0:00:02.00

Peak level 70.7 %
Extraction speed 5.6 X
Track quality 100.0 %
Test CRC 4637136F
Copy CRC 4637136F
Track not present in AccurateRip database
Copy OK

Track 2

Filename D:\#New Wav + flac\VA - Studio France 2019\cd 2\02. Charles Aznavour - Emmenez Moi.wav

Pre-gap length 0:00:02.00

Peak level 75.8 %
Extraction speed 6.1 X
Track quality 100.0 %
Test CRC 06A9920B
Copy CRC 06A9920B
Track not present in AccurateRip database
Copy OK

Track 3

Filename D:\#New Wav + flac\VA - Studio France 2019\cd 2\03. Dalida - Gigi L'Amoroso.wav

Pre-gap length 0:00:02.00

Peak level 71.6 %
Extraction speed 7.2 X
Track quality 100.0 %
Test CRC 9946646E
Copy CRC 9946646E
Track not present in AccurateRip database
Copy OK

Track 4

Filename D:\#New Wav + flac\VA - Studio France 2019\cd 2\04. Indila - Derniere Danse.wav

Pre-gap length 0:00:02.00

Peak level 60.2 %
Extraction speed 5.8 X
Track quality 99.9 %
Test CRC CAAC8C78
Copy CRC CAAC8C78
Track not present in AccurateRip database
Copy OK

Track 5

Filename D:\#New Wav + flac\VA - Studio France 2019\cd 2\05. Joe Dassin - Si Tu T'Appeles Melancholie.wav

Pre-gap length 0:00:02.00

Peak level 77.6 %
Extraction speed 7.4 X
Track quality 100.0 %
Test CRC 2F360D0D
Copy CRC 2F360D0D
Track not present in AccurateRip database
Copy OK

Track 6

Filename D:\#New Wav + flac\VA - Studio France 2019\cd 2\06. Brigitte Bardot - Harley Davidson.wav

Pre-gap length 0:00:02.00

Peak level 62.3 %
Extraction speed 7.4 X
Track quality 100.0 %
Test CRC 478D9020
Copy CRC 478D9020
Track not present in AccurateRip database
Copy OK

Track 7

Filename D:\#New Wav + flac\VA - Studio France 2019\cd 2\07. Pierre Groscolas - Lady Lay.wav

Pre-gap length 0:00:02.00

Peak level 58.8 %
Extraction speed 7.7 X
Track quality 100.0 %
Test CRC 45F425F1
Copy CRC 45F425F1
Track not present in AccurateRip database
Copy OK

Track 8

Filename D:\#New Wav + flac\VA - Studio France 2019\cd 2\08. Angèle - Balance Ton Quoi.wav

Pre-gap length 0:00:02.00

Peak level 56.2 %
Extraction speed 6.4 X
Track quality 99.9 %
Test CRC D581C13F
Copy CRC D581C13F
Track not present in AccurateRip database
Copy OK

Track 9

Filename D:\#New Wav + flac\VA - Studio France 2019\cd 2\09. La Compagnie Créole - C'est Bon Pour Le Moral.wav

Pre-gap length 0:00:02.00

Peak level 41.2 %
Extraction speed 8.8 X
Track quality 100.0 %
Test CRC B77D872C
Copy CRC B77D872C
Track not present in AccurateRip database
Copy OK

Track 10

Filename D:\#New Wav + flac\VA - Studio France 2019\cd 2\10. Lou & the Hollywood Bananas - Kingston Kingston.wav

Pre-gap length 0:00:02.00

Peak level 50.1 %
Extraction speed 8.7 X
Track quality 100.0 %
Test CRC 12B0E6BB
Copy CRC 12B0E6BB
Track not present in AccurateRip database
Copy OK

Track 11

Filename D:\#New Wav + flac\VA - Studio France 2019\cd 2\11. Lio - Amoureux Solitaires.wav

Pre-gap length 0:00:02.00

Peak level 62.3 %
Extraction speed 9.0 X
Track quality 100.0 %
Test CRC 0D46AEAC
Copy CRC 0D46AEAC
Track not present in AccurateRip database
Copy OK

Track 12

Filename D:\#New Wav + flac\VA - Studio France 2019\cd 2\12. Vicky Leandros - Après Toi.wav

Pre-gap length 0:00:02.00

Peak level 55.5 %
Extraction speed 9.4 X
Track quality 100.0 %
Test CRC D82B0881
Copy CRC D82B0881
Track not present in AccurateRip database
Copy OK

Track 13

Filename D:\#New Wav + flac\VA - Studio France 2019\cd 2\13. Nadya Feat . Smartzee - Et C'est Parti.wav

Pre-gap length 0:00:02.00

Peak level 30.5 %
Extraction speed 9.7 X
Track quality 100.0 %
Test CRC 5232E645
Copy CRC 5232E645
Track not present in AccurateRip database
Copy OK

Track 14

Filename D:\#New Wav + flac\VA - Studio France 2019\cd 2\14. Guesch Patti - Etienne.wav

Pre-gap length 0:00:02.00

Peak level 60.9 %
Extraction speed 10.0 X
Track quality 100.0 %
Test CRC 7A15B28E
Copy CRC 7A15B28E
Track not present in AccurateRip database
Copy OK

Track 15

Filename D:\#New Wav + flac\VA - Studio France 2019\cd 2\15. Maître Gims - Est-Ce Que Tu M'aimes.wav

Pre-gap length 0:00:02.00

Peak level 47.3 %
Extraction speed 10.3 X
Track quality 100.0 %
Test CRC DF8CF9EB
Copy CRC DF8CF9EB
Track not present in AccurateRip database
Copy OK

Track 16

Filename D:\#New Wav + flac\VA - Studio France 2019\cd 2\16. Jean-Jacques Goldman & Michael Jones - Je Te Donne.wav

Pre-gap length 0:00:02.00

Peak level 59.5 %
Extraction speed 10.5 X
Track quality 100.0 %
Test CRC D3E4786B
Copy CRC D3E4786B
Track not present in AccurateRip database
Copy OK

Track 17

Filename D:\#New Wav + flac\VA - Studio France 2019\cd 2\17. Michel Fugain - Le Printemps.wav

Pre-gap length 0:00:02.00

Peak level 52.4 %
Extraction speed 7.3 X
Track quality 99.9 %
Test CRC DADF4205
Copy CRC DADF4205
Track not present in AccurateRip database
Copy OK

Track 18

Filename D:\#New Wav + flac\VA - Studio France 2019\cd 2\18. Séverine - Un Banc, Un Abre, Une Rue.wav

Pre-gap length 0:00:02.00

Peak level 66.2 %
Extraction speed 10.3 X
Track quality 100.0 %
Test CRC 4232BB5B
Copy CRC 4232BB5B
Track not present in AccurateRip database
Copy OK

Track 19

Filename D:\#New Wav + flac\VA - Studio France 2019\cd 2\19. Jean Vallée - L'amour CA Fair Chanter La Vie.wav

Pre-gap length 0:00:02.00

Peak level 69.1 %
Extraction speed 10.7 X
Track quality 100.0 %
Test CRC 353CE3DC
Copy CRC 353CE3DC
Track not present in AccurateRip database
Copy OK

Track 20

Filename D:\#New Wav + flac\VA - Studio France 2019\cd 2\20. Michel Delpech - Wight Is Wight.wav

Pre-gap length 0:00:02.00

Peak level 61.6 %
Extraction speed 11.1 X
Track quality 100.0 %
Test CRC 078FA2E2
Copy CRC 078FA2E2
Track not present in AccurateRip database
Copy OK

Track 21

Filename D:\#New Wav + flac\VA - Studio France 2019\cd 2\21. Claude François - Comme D'habitude.wav

Pre-gap length 0:00:02.00

Peak level 56.2 %
Extraction speed 11.4 X
Track quality 100.0 %
Test CRC 54E3BB43
Copy CRC 54E3BB43
Track not present in AccurateRip database
Copy OK


None of the tracks are present in the AccurateRip database

No errors occurred

End of status report

–– CUETools DB Plugin V2.1.6

[CTDB TOCID: ejS4FrFZYCWcj2n_45leRwXnvEc-] found
Submit result: ejS4FrFZYCWcj2n_45leRwXnvEc- has been confirmed
Track | CTDB Status
1 | (1/1) Accurately ripped
2 | (1/1) Accurately ripped
3 | (1/1) Accurately ripped
4 | (1/1) Accurately ripped
5 | (1/1) Accurately ripped
6 | (1/1) Accurately ripped
7 | (1/1) Accurately ripped
8 | (1/1) Accurately ripped
9 | (1/1) Accurately ripped
10 | (1/1) Accurately ripped
11 | (1/1) Accurately ripped
12 | (1/1) Accurately ripped
13 | (1/1) Accurately ripped
14 | (1/1) Accurately ripped
15 | (1/1) Accurately ripped
16 | (1/1) Accurately ripped
17 | (1/1) Accurately ripped
18 | (1/1) Accurately ripped
19 | (1/1) Accurately ripped
20 | (1/1) Accurately ripped
21 | (1/1) Accurately ripped


==== Log checksum 83E1701ADE5E9E7FA83CB79FC04AAC2A0DD5DFED4551B34604F173A5E6EB77DD ====