Tags
Language
Tags

VA - Super Eurobeat Vol.248 - Non-Stop Mega Mix [Japan] (2018)

Posted By: ciklon5
VA - Super Eurobeat Vol.248 - Non-Stop Mega Mix [Japan] (2018)

VA - Super Eurobeat Vol.248 - Non-Stop Mega Mix [Japan] (2018)
Flac (tracks+.cue+scans) / MP3 CBR 320 kbps | 02:25:38 | 364 Mb / 1,2 Gb
Genre: Pop, Dance / Label: Avex Trax

Super Eurobeat (Abbreviation: SEB) is a CD compilation series of Eurobeat music in Japan. The series itself is one of the longest running in the entire world. The series began as a Beat Freak release, which lasted for 8 albums, after that the series was changed over to Avex Trax.

Track List:
CD1 - History Of SEB Selected By Hiroshi "Maniax" Kamiya - Non-Stop Mixed By I.S.D

01. Niko - Speedway (3:17)
02. Mako - Dancer (2:26)
03. Franz Tornado and The Mad Cow Girls - Bandolero Comanchero (2:33)
04. Ken Martin - Sexy Sexy Sexy (2:41)
05. Dusty - Crazy for Love (2:38)
06. Tri-Star - Ike Ike (1:51)
07. Niko - Made of Fire (2:19)
08. Priscilla - Hello Goodbye (2:19)
09. Virginelle - Jealousy (1:52)
10. Dave Rodgers - Ale' Japan (1:59)
11. Lolita - Dreamin' of You (2:46)
12. Domino - Para Para Paradise (1:37)
13. Dave Rodgers - Stay the Night (2:21)
14. Nuage - Don't Wanna Lose You Baby (2:25)
15. Nuage - Sunday (2:41)
16. Lolita - Wanna be Your Emotion (2:10)
17. Dave Rodgers - The Final Countdown (2:01)
18. Frank Torpedo - Made for Loving You (1:38)
19. Kevin Johnson - Looking for Love (2:41)
20. Pizza Girl - Bang (1:11)
21. Kiki & Kika - Easy Busy (2:40)
22. Ace - Play the Music (2:26)
23. Dave Simon - Killer (2:41)
24. Go Go Girls - Hot Vampire (2:09)
25. Ace - Take My Breath Away (2:43)
26. Matt Land - Fever the Night (2:05)
27. Powerful T. - Over the Rainbow (2:24)
28. Bazooka Girl - Velfarre 2000 (3:09)
29. Franz Mad Cow Tornado & The Yamanba-Gals - Ganguro (2:53)
30. Franz V.I.P. Tornado & Bazooka T.C.V. Girl - Super Euro Flash (3:06)

CD2 - History Of SEB Selected By Toshiro "Gon-S" Takano - Non-Stop Mixed By Midi Wave

01. Fastway - 777 (2:33)
02. Mark Foster - Like a Fire (3:14)
03. Scream Team - Horror Fantasy (2:52)
04. Go Go Girls - Go Go's and the Monkeys (1:58)
05. Oda - Face to Face (2:14)
06. Morris - Bad Tonight (2:00)
07. Valery Scott - Now and Forever (3:06)
08. Nuage - I Really Wanna be Your Magic (2:25)
09. Lolita - My Heart Burns Like a Fire (2:30)
10. Dave & Domino - Sunshine in Your Eyes (2:18)
11. Melissa White & Ace - Rainin' in My Heart (2:20)
12. Christine - Me, Myself & I (1:39)
13. Stephy Martini - Emotions (2:03)
14. Leslie Parrish - Victim (2:48)
15. Madison - Without You (3:17)
16. Nuage - Still Love (2:50)
17. Phil - Crazy & Ready (2:17)
18. Ace - Moon Child (1:48)
19. Lolita - I Wanna Take You Up (2:30)
20. A Beat Boys - We'll Stop the Time (2:15)
21. Kevin Johnson - Never Give Up (In the Name of Love) (2:06)
22. Stylophones - Hold On to Love (2:28)
23. Dave & Nuage - Car of Your Dreams (2:00)
24. Go 2 - Super Striker (2:23)
25. Jimmy Bravo - Queen of Fire (2:09)
26. The Factory Team - Little Don (3:24)
27. Mark Foster - Queen (2:44)
28. Boogaboo - Bugabuga Chew Chew (2:21)
29. Kevin & Cherry - Chemical Love (3:07)
30. Go 2 - Not for Sale (2:13)

Exact Audio Copy V1.3 from 2. September 2016

EAC extraction logfile from 24. July 2018, 5:41

Various Artists / Super Eurobeat Vol. 248 - Non-Stop Mega Mix

Used drive : HL-DT-STBD-RE UH10LS20 Adapter: 1 ID: 0

Read mode : Secure
Utilize accurate stream : Yes
Defeat audio cache : Yes
Make use of C2 pointers : No

Read offset correction : 667
Overread into Lead-In and Lead-Out : No
Fill up missing offset samples with silence : Yes
Delete leading and trailing silent blocks : No
Null samples used in CRC calculations : Yes
Used interface : Native Win32 interface for Win NT & 2000
Gap handling : Appended to previous track

Used output format : User Defined Encoder
Selected bitrate : 1024 kBit/s
Quality : High
Add ID3 tag : No
Command line compressor : C:\Program Files (x86)\Exact Audio Copy\Flac\flac.exe
Additional command line options : -8 -V -T "ARTIST=%artist%" -T "TITLE=%title%" -T "ALBUM=%albumtitle%" -T "DATE=%year%" -T "TRACKNUMBER=%tracknr%" -T "GENRE=%genre%" -T "PERFORMER=%albuminterpret%" -T "COMPOSER=%composer%" %haslyrics%–tag-from-file=LYRICS="%lyricsfile%"%haslyrics% -T "ALBUMARTIST=%albumartist%" -T "DISCNUMBER=%cdnumber%" -T "TOTALDISCS=%totalcds%" -T "TOTALTRACKS=%numtracks%" -T "COMMENT=%comment%" %source% -o %dest%


TOC of the extracted CD

Track | Start | Length | Start sector | End sector
––––––––––––––––––––––––––––-
1 | 0:00.00 | 3:17.09 | 0 | 14783
2 | 3:17.09 | 2:25.38 | 14784 | 25696
3 | 5:42.47 | 2:33.14 | 25697 | 37185
4 | 8:15.61 | 2:40.68 | 37186 | 49253
5 | 10:56.54 | 2:38.05 | 49254 | 61108
6 | 13:34.59 | 1:51.34 | 61109 | 69467
7 | 15:26.18 | 2:19.24 | 69468 | 79916
8 | 17:45.42 | 2:19.28 | 79917 | 90369
9 | 20:04.70 | 1:52.27 | 90370 | 98796
10 | 21:57.22 | 1:59.16 | 98797 | 107737
11 | 23:56.38 | 2:45.46 | 107738 | 120158
12 | 26:42.09 | 1:37.01 | 120159 | 127434
13 | 28:19.10 | 2:20.54 | 127435 | 137988
14 | 30:39.64 | 2:25.16 | 137989 | 148879
15 | 33:05.05 | 2:41.06 | 148880 | 160960
16 | 35:46.11 | 2:09.45 | 160961 | 170680
17 | 37:55.56 | 2:01.33 | 170681 | 179788
18 | 39:57.14 | 1:37.63 | 179789 | 187126
19 | 41:35.02 | 2:41.00 | 187127 | 199201
20 | 44:16.02 | 1:11.18 | 199202 | 204544
21 | 45:27.20 | 2:40.17 | 204545 | 216561
22 | 48:07.37 | 2:26.25 | 216562 | 227536
23 | 50:33.62 | 2:41.02 | 227537 | 239613
24 | 53:14.64 | 2:09.18 | 239614 | 249306
25 | 55:24.07 | 2:43.25 | 249307 | 261556
26 | 58:07.32 | 2:05.34 | 261557 | 270965
27 | 60:12.66 | 2:23.74 | 270966 | 281764
28 | 62:36.65 | 3:08.69 | 281765 | 295933
29 | 65:45.59 | 2:53.30 | 295934 | 308938
30 | 68:39.14 | 3:05.64 | 308939 | 322877


Track 1

Filename G:\Temp\New rips\Various Artists - Super Eurobeat Vol. 248 - Non-Stop Mega Mix (2018) [CD] [FLAC]\Disc 1\01 - Niko - Speedway.wav

Pre-gap length 0:00:02.00

Peak level 98.8 %
Extraction speed 4.5 X
Track quality 100.0 %
Test CRC 1090AFC3
Copy CRC 1090AFC3
Accurately ripped (confidence 1) [F0C528D5] (AR v2)
Copy OK

Track 2

Filename G:\Temp\New rips\Various Artists - Super Eurobeat Vol. 248 - Non-Stop Mega Mix (2018) [CD] [FLAC]\Disc 1\02 - Mako - Dancer.wav

Peak level 98.8 %
Extraction speed 4.5 X
Track quality 100.0 %
Test CRC 32392349
Copy CRC 32392349
Accurately ripped (confidence 1) [AB658B47] (AR v2)
Copy OK

Track 3

Filename G:\Temp\New rips\Various Artists - Super Eurobeat Vol. 248 - Non-Stop Mega Mix (2018) [CD] [FLAC]\Disc 1\03 - Franz Tornado And the 'Mad Cow' Girls - Bandolero Comanchero.wav

Peak level 98.8 %
Extraction speed 4.8 X
Track quality 100.0 %
Test CRC 9C32067C
Copy CRC 9C32067C
Accurately ripped (confidence 1) [1C404F7A] (AR v2)
Copy OK

Track 4

Filename G:\Temp\New rips\Various Artists - Super Eurobeat Vol. 248 - Non-Stop Mega Mix (2018) [CD] [FLAC]\Disc 1\04 - Ken Martin - Sexy Sexy Sexy.wav

Peak level 98.8 %
Extraction speed 5.1 X
Track quality 100.0 %
Test CRC 8FBAF07A
Copy CRC 8FBAF07A
Accurately ripped (confidence 1) [8E6756AE] (AR v2)
Copy OK

Track 5

Filename G:\Temp\New rips\Various Artists - Super Eurobeat Vol. 248 - Non-Stop Mega Mix (2018) [CD] [FLAC]\Disc 1\05 - Dusty - Crazy For Love.wav

Peak level 98.8 %
Extraction speed 5.3 X
Track quality 100.0 %
Test CRC A16FCF14
Copy CRC A16FCF14
Accurately ripped (confidence 1) [66B397BD] (AR v2)
Copy OK

Track 6

Filename G:\Temp\New rips\Various Artists - Super Eurobeat Vol. 248 - Non-Stop Mega Mix (2018) [CD] [FLAC]\Disc 1\06 - Tri-Star - Ike Ike.wav

Peak level 98.8 %
Extraction speed 5.1 X
Track quality 100.0 %
Test CRC 6C97AA8F
Copy CRC 6C97AA8F
Accurately ripped (confidence 1) [AB843186] (AR v2)
Copy OK

Track 7

Filename G:\Temp\New rips\Various Artists - Super Eurobeat Vol. 248 - Non-Stop Mega Mix (2018) [CD] [FLAC]\Disc 1\07 - Niko - Made Of Fire.wav

Peak level 98.8 %
Extraction speed 5.5 X
Track quality 100.0 %
Test CRC 4EDD60EB
Copy CRC 4EDD60EB
Accurately ripped (confidence 1) [F0FD9F61] (AR v2)
Copy OK

Track 8

Filename G:\Temp\New rips\Various Artists - Super Eurobeat Vol. 248 - Non-Stop Mega Mix (2018) [CD] [FLAC]\Disc 1\08 - Priscilla - Hello Goodbye.wav

Peak level 98.8 %
Extraction speed 5.7 X
Track quality 100.0 %
Test CRC 117E5495
Copy CRC 117E5495
Accurately ripped (confidence 1) [2D6DBF93] (AR v2)
Copy OK

Track 9

Filename G:\Temp\New rips\Various Artists - Super Eurobeat Vol. 248 - Non-Stop Mega Mix (2018) [CD] [FLAC]\Disc 1\09 - Virginelle - Jealousy.wav

Peak level 98.8 %
Extraction speed 5.5 X
Track quality 100.0 %
Test CRC 95164657
Copy CRC 95164657
Accurately ripped (confidence 1) [3DA42EA8] (AR v2)
Copy OK

Track 10

Filename G:\Temp\New rips\Various Artists - Super Eurobeat Vol. 248 - Non-Stop Mega Mix (2018) [CD] [FLAC]\Disc 1\10 - Dave Rodgers - Ale' Japan.wav

Peak level 98.8 %
Extraction speed 4.3 X
Track quality 99.9 %
Test CRC 6E595B87
Copy CRC 6E595B87
Accurately ripped (confidence 1) [4D0BDC7B] (AR v2)
Copy OK

Track 11

Filename G:\Temp\New rips\Various Artists - Super Eurobeat Vol. 248 - Non-Stop Mega Mix (2018) [CD] [FLAC]\Disc 1\11 - Lolita - Dreamin' Of You.wav

Peak level 98.8 %
Extraction speed 6.3 X
Track quality 100.0 %
Test CRC B5E51376
Copy CRC B5E51376
Accurately ripped (confidence 1) [1E70B29B] (AR v2)
Copy OK

Track 12

Filename G:\Temp\New rips\Various Artists - Super Eurobeat Vol. 248 - Non-Stop Mega Mix (2018) [CD] [FLAC]\Disc 1\12 - Domino - Para Para Paradise.wav

Peak level 98.8 %
Extraction speed 5.7 X
Track quality 100.0 %
Test CRC 76FF3C67
Copy CRC 76FF3C67
Accurately ripped (confidence 1) [23813B52] (AR v2)
Copy OK

Track 13

Filename G:\Temp\New rips\Various Artists - Super Eurobeat Vol. 248 - Non-Stop Mega Mix (2018) [CD] [FLAC]\Disc 1\13 - Dave Rodgers - Stay The Night.wav

Peak level 98.8 %
Extraction speed 4.9 X
Track quality 99.9 %
Test CRC 4C4DB40F
Copy CRC 4C4DB40F
Accurately ripped (confidence 1) [56655E23] (AR v2)
Copy OK

Track 14

Filename G:\Temp\New rips\Various Artists - Super Eurobeat Vol. 248 - Non-Stop Mega Mix (2018) [CD] [FLAC]\Disc 1\14 - Nuage - Don't Wanna Lose You Baby.wav

Peak level 98.8 %
Extraction speed 6.6 X
Track quality 100.0 %
Test CRC 8E327BAC
Copy CRC 8E327BAC
Accurately ripped (confidence 1) [A1052599] (AR v2)
Copy OK

Track 15

Filename G:\Temp\New rips\Various Artists - Super Eurobeat Vol. 248 - Non-Stop Mega Mix (2018) [CD] [FLAC]\Disc 1\15 - Nuage - Sunday.wav

Peak level 98.8 %
Extraction speed 6.8 X
Track quality 100.0 %
Test CRC B77DD45F
Copy CRC B77DD45F
Accurately ripped (confidence 1) [66177D44] (AR v2)
Copy OK

Track 16

Filename G:\Temp\New rips\Various Artists - Super Eurobeat Vol. 248 - Non-Stop Mega Mix (2018) [CD] [FLAC]\Disc 1\16 - Lolita - Wanna Be Your Emotion.wav

Peak level 98.8 %
Extraction speed 6.6 X
Track quality 100.0 %
Test CRC F163BB61
Copy CRC F163BB61
Accurately ripped (confidence 1) [80B9F53F] (AR v2)
Copy OK

Track 17

Filename G:\Temp\New rips\Various Artists - Super Eurobeat Vol. 248 - Non-Stop Mega Mix (2018) [CD] [FLAC]\Disc 1\17 - Dave Rodgers - The Final Countdown.wav

Peak level 98.8 %
Extraction speed 6.8 X
Track quality 100.0 %
Test CRC E3387498
Copy CRC E3387498
Accurately ripped (confidence 1) [3385CEC5] (AR v2)
Copy OK

Track 18

Filename G:\Temp\New rips\Various Artists - Super Eurobeat Vol. 248 - Non-Stop Mega Mix (2018) [CD] [FLAC]\Disc 1\18 - Frank Torpedo - Made For Loving You.wav

Peak level 98.8 %
Extraction speed 6.4 X
Track quality 100.0 %
Test CRC 375E5546
Copy CRC 375E5546
Accurately ripped (confidence 1) [B88E2F7D] (AR v2)
Copy OK

Track 19

Filename G:\Temp\New rips\Various Artists - Super Eurobeat Vol. 248 - Non-Stop Mega Mix (2018) [CD] [FLAC]\Disc 1\19 - Kevin Johnson - Looking For Love.wav

Peak level 98.8 %
Extraction speed 5.7 X
Track quality 99.9 %
Test CRC 0B5A4E2D
Copy CRC 0B5A4E2D
Accurately ripped (confidence 1) [0C1BBABC] (AR v2)
Copy OK

Track 20

Filename G:\Temp\New rips\Various Artists - Super Eurobeat Vol. 248 - Non-Stop Mega Mix (2018) [CD] [FLAC]\Disc 1\20 - Pizza Girl - Bang.wav

Peak level 98.8 %
Extraction speed 6.0 X
Track quality 100.0 %
Test CRC D94DCD00
Copy CRC D94DCD00
Accurately ripped (confidence 1) [A35978D2] (AR v2)
Copy OK

Track 21

Filename G:\Temp\New rips\Various Artists - Super Eurobeat Vol. 248 - Non-Stop Mega Mix (2018) [CD] [FLAC]\Disc 1\21 - Kiki & Kika - Easy Busy.wav

Peak level 98.8 %
Extraction speed 7.5 X
Track quality 100.0 %
Test CRC 68BB14EE
Copy CRC 68BB14EE
Accurately ripped (confidence 1) [578209B9] (AR v2)
Copy OK

Track 22

Filename G:\Temp\New rips\Various Artists - Super Eurobeat Vol. 248 - Non-Stop Mega Mix (2018) [CD] [FLAC]\Disc 1\22 - Ace - Play The Music.wav

Peak level 98.8 %
Extraction speed 7.6 X
Track quality 100.0 %
Test CRC 31191E28
Copy CRC 31191E28
Accurately ripped (confidence 1) [52D95F1B] (AR v2)
Copy OK

Track 23

Filename G:\Temp\New rips\Various Artists - Super Eurobeat Vol. 248 - Non-Stop Mega Mix (2018) [CD] [FLAC]\Disc 1\23 - Dave Simon - Killer.wav

Peak level 98.8 %
Extraction speed 6.0 X
Track quality 99.9 %
Test CRC F3E48441
Copy CRC F3E48441
Accurately ripped (confidence 1) [C0CF44B0] (AR v2)
Copy OK

Track 24

Filename G:\Temp\New rips\Various Artists - Super Eurobeat Vol. 248 - Non-Stop Mega Mix (2018) [CD] [FLAC]\Disc 1\24 - Go Go Girls - Hot Vampire.wav

Peak level 98.8 %
Extraction speed 7.6 X
Track quality 100.0 %
Test CRC 767730A3
Copy CRC 767730A3
Accurately ripped (confidence 1) [435AF385] (AR v2)
Copy OK

Track 25

Filename G:\Temp\New rips\Various Artists - Super Eurobeat Vol. 248 - Non-Stop Mega Mix (2018) [CD] [FLAC]\Disc 1\25 - Ace - Take My Breath Away.wav

Peak level 98.8 %
Extraction speed 6.3 X
Track quality 99.9 %
Test CRC 1290A773
Copy CRC 1290A773
Accurately ripped (confidence 1) [6A3E9AB0] (AR v2)
Copy OK

Track 26

Filename G:\Temp\New rips\Various Artists - Super Eurobeat Vol. 248 - Non-Stop Mega Mix (2018) [CD] [FLAC]\Disc 1\26 - Matt land - Fever The Night.wav

Peak level 98.8 %
Extraction speed 7.7 X
Track quality 100.0 %
Test CRC 0A527B56
Copy CRC 0A527B56
Accurately ripped (confidence 1) [C31C103C] (AR v2)
Copy OK

Track 27

Filename G:\Temp\New rips\Various Artists - Super Eurobeat Vol. 248 - Non-Stop Mega Mix (2018) [CD] [FLAC]\Disc 1\27 - Powerful T. - Over The Rainbow.wav

Peak level 98.8 %
Extraction speed 8.0 X
Track quality 100.0 %
Test CRC 11DE4DB0
Copy CRC 11DE4DB0
Accurately ripped (confidence 1) [A6D2025F] (AR v2)
Copy OK

Track 28

Filename G:\Temp\New rips\Various Artists - Super Eurobeat Vol. 248 - Non-Stop Mega Mix (2018) [CD] [FLAC]\Disc 1\28 - Bazooka Girl - Velfarre 2000.wav

Peak level 98.8 %
Extraction speed 6.9 X
Track quality 99.9 %
Test CRC BB51AD4D
Copy CRC BB51AD4D
Accurately ripped (confidence 1) [B901C8E4] (AR v2)
Copy OK

Track 29

Filename G:\Temp\New rips\Various Artists - Super Eurobeat Vol. 248 - Non-Stop Mega Mix (2018) [CD] [FLAC]\Disc 1\29 - Franz 'Mad Cow' Tonado & The Yamanba-Gals - Ganguro.wav

Peak level 98.8 %
Extraction speed 8.6 X
Track quality 100.0 %
Test CRC 627FB045
Copy CRC 627FB045
Accurately ripped (confidence 1) [00034C2C] (AR v2)
Copy OK

Track 30

Filename G:\Temp\New rips\Various Artists - Super Eurobeat Vol. 248 - Non-Stop Mega Mix (2018) [CD] [FLAC]\Disc 1\30 - Franz 'V.I.P.' Tornado & Bazooka 'T.C.V.' Girl - Super Euro Flash.wav

Peak level 98.8 %
Extraction speed 8.9 X
Track quality 100.0 %
Test CRC 5636F8A1
Copy CRC 5636F8A1
Accurately ripped (confidence 1) [BE6D8044] (AR v2)
Copy OK


All tracks accurately ripped

No errors occurred

End of status report

–– CUETools DB Plugin V2.1.6

[CTDB TOCID: bvpcEz6EIZCoXBs0xyuQmuPYY90-] found
Submit result: bvpcEz6EIZCoXBs0xyuQmuPYY90- has been confirmed
Track | CTDB Status
1 | (7/7) Accurately ripped
2 | (7/7) Accurately ripped
3 | (7/7) Accurately ripped
4 | (7/7) Accurately ripped
5 | (7/7) Accurately ripped
6 | (7/7) Accurately ripped
7 | (7/7) Accurately ripped
8 | (7/7) Accurately ripped
9 | (7/7) Accurately ripped
10 | (7/7) Accurately ripped
11 | (7/7) Accurately ripped
12 | (7/7) Accurately ripped
13 | (7/7) Accurately ripped
14 | (7/7) Accurately ripped
15 | (7/7) Accurately ripped
16 | (7/7) Accurately ripped
17 | (7/7) Accurately ripped
18 | (7/7) Accurately ripped
19 | (7/7) Accurately ripped
20 | (7/7) Accurately ripped
21 | (7/7) Accurately ripped
22 | (7/7) Accurately ripped
23 | (7/7) Accurately ripped
24 | (7/7) Accurately ripped
25 | (7/7) Accurately ripped
26 | (7/7) Accurately ripped
27 | (7/7) Accurately ripped
28 | (7/7) Accurately ripped
29 | (7/7) Accurately ripped
30 | (7/7) Accurately ripped


==== Log checksum 1E5262D94E0A4DC35B612A94873F7A855A17F89FB01EDD0330F74C8479C2287E ====

Exact Audio Copy V1.3 from 2. September 2016

EAC extraction logfile from 24. July 2018, 6:35

Various Artists / Super Eurobeat Vol. 248 - Non-Stop Mega Mix

Used drive : HL-DT-STBD-RE UH10LS20 Adapter: 1 ID: 0

Read mode : Secure
Utilize accurate stream : Yes
Defeat audio cache : Yes
Make use of C2 pointers : No

Read offset correction : 667
Overread into Lead-In and Lead-Out : No
Fill up missing offset samples with silence : Yes
Delete leading and trailing silent blocks : No
Null samples used in CRC calculations : Yes
Used interface : Native Win32 interface for Win NT & 2000
Gap handling : Appended to previous track

Used output format : User Defined Encoder
Selected bitrate : 1024 kBit/s
Quality : High
Add ID3 tag : No
Command line compressor : C:\Program Files (x86)\Exact Audio Copy\Flac\flac.exe
Additional command line options : -8 -V -T "ARTIST=%artist%" -T "TITLE=%title%" -T "ALBUM=%albumtitle%" -T "DATE=%year%" -T "TRACKNUMBER=%tracknr%" -T "GENRE=%genre%" -T "PERFORMER=%albuminterpret%" -T "COMPOSER=%composer%" %haslyrics%–tag-from-file=LYRICS="%lyricsfile%"%haslyrics% -T "ALBUMARTIST=%albumartist%" -T "DISCNUMBER=%cdnumber%" -T "TOTALDISCS=%totalcds%" -T "TOTALTRACKS=%numtracks%" -T "COMMENT=%comment%" %source% -o %dest%


TOC of the extracted CD

Track | Start | Length | Start sector | End sector
––––––––––––––––––––––––––––-
1 | 0:00.00 | 2:33.25 | 0 | 11499
2 | 2:33.25 | 3:13.66 | 11500 | 26040
3 | 5:47.16 | 2:51.69 | 26041 | 38934
4 | 8:39.10 | 1:58.30 | 38935 | 47814
5 | 10:37.40 | 2:14.24 | 47815 | 57888
6 | 12:51.64 | 1:59.73 | 57889 | 66886
7 | 14:51.62 | 3:06.21 | 66887 | 80857
8 | 17:58.08 | 2:24.60 | 80858 | 91717
9 | 20:22.68 | 2:29.51 | 91718 | 102943
10 | 22:52.44 | 2:17.44 | 102944 | 113262
11 | 25:10.13 | 2:20.34 | 113263 | 123796
12 | 27:30.47 | 1:39.34 | 123797 | 131255
13 | 29:10.06 | 2:03.35 | 131256 | 140515
14 | 31:13.41 | 2:47.41 | 140516 | 153081
15 | 34:01.07 | 3:17.00 | 153082 | 167856
16 | 37:18.07 | 2:50.11 | 167857 | 180617
17 | 40:08.18 | 2:16.67 | 180618 | 190884
18 | 42:25.10 | 1:47.39 | 190885 | 198948
19 | 44:12.49 | 2:29.59 | 198949 | 210182
20 | 46:42.33 | 2:15.30 | 210183 | 220337
21 | 48:57.63 | 2:06.28 | 220338 | 229815
22 | 51:04.16 | 2:27.47 | 229816 | 240887
23 | 53:31.63 | 2:00.07 | 240888 | 249894
24 | 55:31.70 | 2:22.55 | 249895 | 260599
25 | 57:54.50 | 2:09.00 | 260600 | 270274
26 | 60:03.50 | 3:23.71 | 270275 | 285570
27 | 63:27.46 | 2:44.18 | 285571 | 297888
28 | 66:11.64 | 2:20.52 | 297889 | 308440
29 | 68:32.41 | 3:06.54 | 308441 | 322444
30 | 71:39.20 | 2:13.35 | 322445 | 332454


Track 1

Filename G:\Temp\New rips\Various Artists - Super Eurobeat Vol. 248 - Non-Stop Mega Mix (2018) [CD] [FLAC]\Disc 2\01 - Fastway - 777.wav

Pre-gap length 0:00:02.00

Peak level 98.8 %
Extraction speed 3.3 X
Track quality 99.9 %
Test CRC A121F922
Copy CRC A121F922
Accurately ripped (confidence 1) [103373C5] (AR v2)
Copy OK

Track 2

Filename G:\Temp\New rips\Various Artists - Super Eurobeat Vol. 248 - Non-Stop Mega Mix (2018) [CD] [FLAC]\Disc 2\02 - Mark Foster - Like A Fire.wav

Peak level 98.8 %
Extraction speed 3.8 X
Track quality 99.9 %
Test CRC BCD15A27
Copy CRC BCD15A27
Accurately ripped (confidence 1) [A9FE9223] (AR v2)
Copy OK

Track 3

Filename G:\Temp\New rips\Various Artists - Super Eurobeat Vol. 248 - Non-Stop Mega Mix (2018) [CD] [FLAC]\Disc 2\03 - Scream Team - Horror Fantasy.wav

Peak level 98.8 %
Extraction speed 5.0 X
Track quality 100.0 %
Test CRC 491F50ED
Copy CRC 491F50ED
Accurately ripped (confidence 1) [AD8882E0] (AR v2)
Copy OK

Track 4

Filename G:\Temp\New rips\Various Artists - Super Eurobeat Vol. 248 - Non-Stop Mega Mix (2018) [CD] [FLAC]\Disc 2\04 - Go Go Girls - Go Go's And The Monkeys.wav

Peak level 98.8 %
Extraction speed 4.8 X
Track quality 100.0 %
Test CRC 30C4F00D
Copy CRC 30C4F00D
Accurately ripped (confidence 1) [04C55793] (AR v2)
Copy OK

Track 5

Filename G:\Temp\New rips\Various Artists - Super Eurobeat Vol. 248 - Non-Stop Mega Mix (2018) [CD] [FLAC]\Disc 2\05 - Oda - Face To Face.wav

Peak level 98.8 %
Extraction speed 5.1 X
Track quality 100.0 %
Test CRC 8105A382
Copy CRC 8105A382
Accurately ripped (confidence 1) [555B44DF] (AR v2)
Copy OK

Track 6

Filename G:\Temp\New rips\Various Artists - Super Eurobeat Vol. 248 - Non-Stop Mega Mix (2018) [CD] [FLAC]\Disc 2\06 - Morris - Bad Tonight.wav

Peak level 98.8 %
Extraction speed 5.1 X
Track quality 100.0 %
Test CRC 029DBF67
Copy CRC 029DBF67
Accurately ripped (confidence 1) [BD92BB73] (AR v2)
Copy OK

Track 7

Filename G:\Temp\New rips\Various Artists - Super Eurobeat Vol. 248 - Non-Stop Mega Mix (2018) [CD] [FLAC]\Disc 2\07 - Valery Scott - Now And Forever.wav

Peak level 98.8 %
Extraction speed 4.7 X
Track quality 99.9 %
Test CRC 3BBED748
Copy CRC 3BBED748
Accurately ripped (confidence 1) [722745EB] (AR v2)
Copy OK

Track 8

Filename G:\Temp\New rips\Various Artists - Super Eurobeat Vol. 248 - Non-Stop Mega Mix (2018) [CD] [FLAC]\Disc 2\08 - Nuage - I Really Wanna Be Your Magic.wav

Peak level 98.8 %
Extraction speed 5.7 X
Track quality 100.0 %
Test CRC B267D183
Copy CRC B267D183
Accurately ripped (confidence 1) [6FAB9928] (AR v2)
Copy OK

Track 9

Filename G:\Temp\New rips\Various Artists - Super Eurobeat Vol. 248 - Non-Stop Mega Mix (2018) [CD] [FLAC]\Disc 2\09 - Lolita - My Heart Burns Like A Fire.wav

Peak level 98.8 %
Extraction speed 5.9 X
Track quality 100.0 %
Test CRC E51F3CC6
Copy CRC E51F3CC6
Accurately ripped (confidence 1) [480E86F9] (AR v2)
Copy OK

Track 10

Filename G:\Temp\New rips\Various Artists - Super Eurobeat Vol. 248 - Non-Stop Mega Mix (2018) [CD] [FLAC]\Disc 2\10 - Dave & Domino - Sunshine In Your Eyes.wav

Peak level 98.8 %
Extraction speed 6.0 X
Track quality 100.0 %
Test CRC AC575EF8
Copy CRC AC575EF8
Accurately ripped (confidence 1) [DAA9828C] (AR v2)
Copy OK

Track 11

Filename G:\Temp\New rips\Various Artists - Super Eurobeat Vol. 248 - Non-Stop Mega Mix (2018) [CD] [FLAC]\Disc 2\11 - Melissa White & Ace - Rainin' In My heart.wav

Peak level 98.8 %
Extraction speed 6.0 X
Track quality 100.0 %
Test CRC 84207AC7
Copy CRC 84207AC7
Accurately ripped (confidence 1) [838C3206] (AR v2)
Copy OK

Track 12

Filename G:\Temp\New rips\Various Artists - Super Eurobeat Vol. 248 - Non-Stop Mega Mix (2018) [CD] [FLAC]\Disc 2\12 - Christine - Me, Myself & I.wav

Peak level 98.8 %
Extraction speed 5.9 X
Track quality 100.0 %
Test CRC 5E53BDF4
Copy CRC 5E53BDF4
Accurately ripped (confidence 1) [0EEE33C5] (AR v2)
Copy OK

Track 13

Filename G:\Temp\New rips\Various Artists - Super Eurobeat Vol. 248 - Non-Stop Mega Mix (2018) [CD] [FLAC]\Disc 2\13 - Stephy Martini - Emotions.wav

Peak level 98.8 %
Extraction speed 4.7 X
Track quality 99.9 %
Test CRC 9AE2E1F7
Copy CRC 9AE2E1F7
Accurately ripped (confidence 1) [891E6A8A] (AR v2)
Copy OK

Track 14

Filename G:\Temp\New rips\Various Artists - Super Eurobeat Vol. 248 - Non-Stop Mega Mix (2018) [CD] [FLAC]\Disc 2\14 - Leslie Parrish - Victim.wav

Peak level 98.8 %
Extraction speed 6.7 X
Track quality 100.0 %
Test CRC 233ED983
Copy CRC 233ED983
Accurately ripped (confidence 1) [AB0252F9] (AR v2)
Copy OK

Track 15

Filename G:\Temp\New rips\Various Artists - Super Eurobeat Vol. 248 - Non-Stop Mega Mix (2018) [CD] [FLAC]\Disc 2\15 - Madison - Without You.wav

Peak level 96.6 %
Extraction speed 7.1 X
Track quality 100.0 %
Test CRC DAAA9C33
Copy CRC DAAA9C33
Accurately ripped (confidence 1) [229D174D] (AR v2)
Copy OK

Track 16

Filename G:\Temp\New rips\Various Artists - Super Eurobeat Vol. 248 - Non-Stop Mega Mix (2018) [CD] [FLAC]\Disc 2\16 - Nuage - Still Love.wav

Peak level 98.8 %
Extraction speed 7.1 X
Track quality 100.0 %
Test CRC 9BC84FA6
Copy CRC 9BC84FA6
Accurately ripped (confidence 1) [A5A51206] (AR v2)
Copy OK

Track 17

Filename G:\Temp\New rips\Various Artists - Super Eurobeat Vol. 248 - Non-Stop Mega Mix (2018) [CD] [FLAC]\Disc 2\17 - Phil - Crazy & Ready.wav

Peak level 98.8 %
Extraction speed 6.9 X
Track quality 100.0 %
Test CRC C67563B8
Copy CRC C67563B8
Accurately ripped (confidence 1) [1BFD969E] (AR v2)
Copy OK

Track 18

Filename G:\Temp\New rips\Various Artists - Super Eurobeat Vol. 248 - Non-Stop Mega Mix (2018) [CD] [FLAC]\Disc 2\18 - Ace - Moon Child.wav

Peak level 98.8 %
Extraction speed 4.8 X
Track quality 99.9 %
Test CRC 5258ABFA
Copy CRC 5258ABFA
Accurately ripped (confidence 1) [B5C45FE4] (AR v2)
Copy OK

Track 19

Filename G:\Temp\New rips\Various Artists - Super Eurobeat Vol. 248 - Non-Stop Mega Mix (2018) [CD] [FLAC]\Disc 2\19 - Lolita - I Wanna Take You Up.wav

Peak level 98.8 %
Extraction speed 7.3 X
Track quality 100.0 %
Test CRC 1F51B397
Copy CRC 1F51B397
Accurately ripped (confidence 1) [4B00CA89] (AR v2)
Copy OK

Track 20

Filename G:\Temp\New rips\Various Artists - Super Eurobeat Vol. 248 - Non-Stop Mega Mix (2018) [CD] [FLAC]\Disc 2\20 - A Beat Boys - We'll Stop The Time.wav

Peak level 98.8 %
Extraction speed 7.3 X
Track quality 100.0 %
Test CRC FB9D7E1E
Copy CRC FB9D7E1E
Accurately ripped (confidence 1) [8E037980] (AR v2)
Copy OK

Track 21

Filename G:\Temp\New rips\Various Artists - Super Eurobeat Vol. 248 - Non-Stop Mega Mix (2018) [CD] [FLAC]\Disc 2\21 - Kevin Johnson - Never Give Up (In The Name Of Love).wav

Peak level 98.8 %
Extraction speed 7.3 X
Track quality 100.0 %
Test CRC EC5C1916
Copy CRC EC5C1916
Accurately ripped (confidence 1) [437DDD31] (AR v2)
Copy OK

Track 22

Filename G:\Temp\New rips\Various Artists - Super Eurobeat Vol. 248 - Non-Stop Mega Mix (2018) [CD] [FLAC]\Disc 2\22 - Stylophones - Hold On To Love.wav

Peak level 98.8 %
Extraction speed 7.6 X
Track quality 100.0 %
Test CRC F8010BAB
Copy CRC F8010BAB
Accurately ripped (confidence 1) [D249F93A] (AR v2)
Copy OK

Track 23

Filename G:\Temp\New rips\Various Artists - Super Eurobeat Vol. 248 - Non-Stop Mega Mix (2018) [CD] [FLAC]\Disc 2\23 - Dave & Nuage - Car Of Your Dreams.wav

Peak level 98.8 %
Extraction speed 7.4 X
Track quality 100.0 %
Test CRC 1D848503
Copy CRC 1D848503
Accurately ripped (confidence 1) [AED03B73] (AR v2)
Copy OK

Track 24

Filename G:\Temp\New rips\Various Artists - Super Eurobeat Vol. 248 - Non-Stop Mega Mix (2018) [CD] [FLAC]\Disc 2\24 - Go 2 - Super Striker.wav

Peak level 98.8 %
Extraction speed 5.9 X
Track quality 99.9 %
Test CRC 0F74B46F
Copy CRC 0F74B46F
Accurately ripped (confidence 1) [6486FF56] (AR v2)
Copy OK

Track 25

Filename G:\Temp\New rips\Various Artists - Super Eurobeat Vol. 248 - Non-Stop Mega Mix (2018) [CD] [FLAC]\Disc 2\25 - Jimmy Bravo - Queen Of Fire.wav

Peak level 98.8 %
Extraction speed 7.8 X
Track quality 100.0 %
Test CRC 4828C275
Copy CRC 4828C275
Accurately ripped (confidence 1) [7CA54D81] (AR v2)
Copy OK

Track 26

Filename G:\Temp\New rips\Various Artists - Super Eurobeat Vol. 248 - Non-Stop Mega Mix (2018) [CD] [FLAC]\Disc 2\26 - The Factory Team - Little Don.wav

Peak level 98.8 %
Extraction speed 8.5 X
Track quality 100.0 %
Test CRC 4A3D8727
Copy CRC 4A3D8727
Accurately ripped (confidence 1) [A753EB2A] (AR v2)
Copy OK

Track 27

Filename G:\Temp\New rips\Various Artists - Super Eurobeat Vol. 248 - Non-Stop Mega Mix (2018) [CD] [FLAC]\Disc 2\27 - Mark Foster - Queen.wav

Peak level 98.8 %
Extraction speed 8.5 X
Track quality 100.0 %
Test CRC 65952AB5
Copy CRC 65952AB5
Accurately ripped (confidence 1) [621949A4] (AR v2)
Copy OK

Track 28

Filename G:\Temp\New rips\Various Artists - Super Eurobeat Vol. 248 - Non-Stop Mega Mix (2018) [CD] [FLAC]\Disc 2\28 - Boogaboo - Bugabuga Chew Chew.wav

Peak level 98.8 %
Extraction speed 8.2 X
Track quality 100.0 %
Test CRC 0BEA6228
Copy CRC 0BEA6228
Accurately ripped (confidence 1) [F999503E] (AR v2)
Copy OK

Track 29

Filename G:\Temp\New rips\Various Artists - Super Eurobeat Vol. 248 - Non-Stop Mega Mix (2018) [CD] [FLAC]\Disc 2\29 - Kevin & Cherry - Chemical Love.wav

Peak level 98.8 %
Extraction speed 8.8 X
Track quality 100.0 %
Test CRC 96082E2C
Copy CRC 96082E2C
Accurately ripped (confidence 1) [31BC4B8E] (AR v2)
Copy OK

Track 30

Filename G:\Temp\New rips\Various Artists - Super Eurobeat Vol. 248 - Non-Stop Mega Mix (2018) [CD] [FLAC]\Disc 2\30 - Go 2 - Not For Sale.wav

Peak level 98.8 %
Extraction speed 6.3 X
Track quality 99.9 %
Test CRC 0B1843FE
Copy CRC 0B1843FE
Accurately ripped (confidence 1) [BA56F012] (AR v2)
Copy OK


All tracks accurately ripped

No errors occurred

End of status report

–– CUETools DB Plugin V2.1.6

[CTDB TOCID: e.c93_N_vS57PO124CcolV2WC_g-] found
Submit result: e.c93_N_vS57PO124CcolV2WC_g- has been confirmed
Track | CTDB Status
1 | (6/6) Accurately ripped
2 | (6/6) Accurately ripped
3 | (6/6) Accurately ripped
4 | (6/6) Accurately ripped
5 | (6/6) Accurately ripped
6 | (6/6) Accurately ripped
7 | (6/6) Accurately ripped
8 | (6/6) Accurately ripped
9 | (6/6) Accurately ripped
10 | (6/6) Accurately ripped
11 | (6/6) Accurately ripped
12 | (6/6) Accurately ripped
13 | (6/6) Accurately ripped
14 | (6/6) Accurately ripped
15 | (6/6) Accurately ripped
16 | (6/6) Accurately ripped
17 | (6/6) Accurately ripped
18 | (6/6) Accurately ripped
19 | (6/6) Accurately ripped
20 | (6/6) Accurately ripped
21 | (6/6) Accurately ripped
22 | (6/6) Accurately ripped
23 | (6/6) Accurately ripped
24 | (6/6) Accurately ripped
25 | (6/6) Accurately ripped
26 | (6/6) Accurately ripped
27 | (6/6) Accurately ripped
28 | (6/6) Accurately ripped
29 | (6/6) Accurately ripped
30 | (6/6) Accurately ripped


==== Log checksum 6E7EB2818BCC034C72B4E96A8B52B5C3A692F337CDF81BBFDEF7128741B95E71 ====