Subcategories

VA - Take On Me 80s Anthems: The Ultimate Collection (5CD, 2019)

Posted By: ciklon5
VA - Take On Me 80s Anthems: The Ultimate Collection (5CD, 2019)

VA - Take On Me 80s Anthems: The Ultimate Collection (5CD, 2019)
FLAC tracks +cue+log+booklet | 06:18:13 | 2,9 Gb
Genre: Dance, Disco, Reggae, RnB, Pop, Blues, Rock / Label: Union Square Music

Union Square Music is one of the UKs leading reissue and compilations specialists, releasing good value, high quality CDs and digital products right across the musical and entertainment spectrum. Be transported back to the days when tracksuits were considered suitable evening wear and everyone had crispy hair and smiley faces. Good times! All our single and multi-artist titles are released on various label imprints including Metro, Greatest Ever, Simply, Latest & Greatest. Each label has a regular release schedule and operates at a specific price point. The 80s are often seen as the best ever decade for pop music and its not hard to see why when you look at the array of pop talent assembled on this box set.

Track List:
CD 1

01. A-Ha - Take On Me 3:40
02. Nena - 99 Red Balloons 3:49
03. Frankie Goes To Hollywood - Two Tribes 3:22
04. Madness - Our House 3:18
05. Duran Duran - Save A Prayer 5:23
06. Spandau Ballet - Gold (2003 Remaster) 3:49
07. Talk Talk - Life's What You Make It (Edit) 3:33
08. Hollywood Beyond - What's The Colour Of Money 3:21
09. Red Box - Lean On Me (Ah-Li-Ayo) 4:09
10. Propaganda - Duel 4:41
11. Art Of Noise - Close (To The Edit) 4:03
12. Thomas Dolby - Hyperactive! (2009 Remastered Version) 4:06
13. The Associates - Party Fears Two (2016 Remaster) 4:04
14. Blow Monkeys - It Doesn't Have To Be This Way 4:02
15. The Maisonettes - Heartache Avenue 2:52
16. Kirsty Maccoll - A New England 3:45
17. Pretenders - Don't Get Me Wrong 3:44
18. Tanita Tikaram - Good Tradition 2:49
19. Ph.D. - I Won't Let You Down 4:01
20. The Korgis - Everybody's Got To Learn Sometime 4:12

CD 2

21. Tina Turner - What's Love Got To Do With It 3:42
22. Foreigner - I Want To Know What Love Is 4:58
23. Simply Red - Holding Back The Years 4:21
24. Roxette - Listen To Your Heart 5:22
25. Climie Fisher - Love Changes (Everything) 4:21
26. Anita Baker - Sweet Love 4:18
27. Randy Crawford - You Might Need Somebody 4:08
28. Al Jarreau - Moonlighting (Theme) 3:01
29. Thompson Twins - Doctor! Doctor! 4:33
30. Alison Moyet - All Cried Out 3:35
31. Peter Cetera - Glory Of Love 4:18
32. Marillion - Kayleigh 4:04
33. Christopher Cross - Arthur's Theme (Best That You Can Do) 3:50
34. Robert Palmer - She Makes My Day 4:12
35. Adrian Gurvitz - Classic 3:38
36. Hot Chocolate - Girl Crazy 3:23
37. Japan - I Second That Emotion 3:38
38. The Stranglers - Strange Little Girl 2:41
39. Chris Rea - On The Beach 3:42

CD 3

40. Mel & Kim - Respectable 3:16
41. Kylie Minogue - I Should Be So Lucky 3:19
42. Jason Donovan - Too Many Broken Hearts 3:21
43. Brother Beyond - The Harder I Try 3:24
44. Hazell Dean - Who's Leaving Who 3:40
45. Laura Branigan - Gloria 4:47
46. Samantha Fox - Touch Me (I Want Your Body) 3:37
47. Coldcut Feat. Yazz & The Plastic Population - Doctorin' The House 3:44
48. The Reynolds Girls - I'd Rather Jack 3:28
49. Amii Stewart - Knock On Wood (1985 7'' Remix) 4:04
50. Sheila E. - The Belle Of St. Mark 5:02
51. London Boys - London Nights 3:55
52. Fuzzbox - Pink Sunshine 3:38
53. Sonia - You'll Never Stop Me Loving You 3:21
54. Debbie Gibson - Foolish Beat 4:22
55. Tracey Ullman - My Guy 2:50
56. Tracie - The House That Jack Built 3:21
57. Matt Bianco - Get Out Of Your Lazy Bed 3:19
58. Modern Romance - Best Years Of Our Lives 2:34
59. Bucks Fizz - Making You Mind Up 2:38
60. Kylie Minogue - Especially For You 3:53

CD 4

61. Chaka Khan - I Feel For You 4:00
62. Sister Sledge - Thinking Of You 4:22
63. Stacy Lattisaw - Jump To The Beat 3:21
64. Shalamar - There It Is 4:20
65. The Whispers - It's A Love Thing 3:42
66. Crown Heights Affair - You Gave Me Love 3:31
67. Candido - Jingo 3:21
68. Stock Aitken & Waterman - Roadblock 3:12
69. Steve Arrington - Feel So Real 4:07
70. Collage - Romeo Where's Juliet? 4:05
71. Princess - After The Love Has Gone 3:44
72. Midnight Star - Headlines 3:20
73. Keith Sweat - I Want Her 3:39
74. Levert - Casanova 4:13
75. The Gap Band - Big Fun 6:41
76. Narada Michael Walden - Divine Emotions 5:06
77. Ten City - That's The Way Love Is 4:07
78. Richie Havens - Going Back To My Roots 4:56
79. Grandmaster Flash & The Furious Five - The Message 3:10

CD 5

80. Madness - Baggy Trousers 2:41
81. Joy Division - Love Will Tear Us Apart 3:20
82. The Jesus & Mary Chain - April Skies 3:56
83. New Order - True Faith 4:04
84. Echo & The Bunnymen - The Cutter 3:50
85. Dexy's Midnight Runners - Geno 3:26
86. The Untouchables - Free Yourself 4:05
87. The Lambrettas - Poison Ivy 2:42
88. Los Lobos - La Bamba 2:47
89. Elvis Costello - Veronica 3:05
90. Aztec Camera - Oblivious 3:09
91. David Lee Roth - Just Like Paradise 4:04
92. Zz Top - Sharp Dressed Man 4:10
93. A Flock Of Seagulls - I Ran 3:39
94. Frankie Goes To Hollywood - Watching The Wildlife 4:16
95. Mobiles - Drowning In Berlin 3:25
96. The Fall - Totally Wired 3:24
97. New Model Army - Vagabonds 4:19
98. Stray Cats - Runaway Boys 2:59
99. Tenpole Tudor - Wunderbar 2:52
100. Toy Dolls - Nellie The Elephant 2:59

Exact Audio Copy V1.3 from 2. September 2016

EAC extraction logfile from 16. November 2019, 23:46

Various / Take On Me - 80s Anthems - The Ultimate Collection - CD1

Used drive : ATAPI iHAS124 Y Adapter: 1 ID: 0

Read mode : Secure
Utilize accurate stream : Yes
Defeat audio cache : No
Make use of C2 pointers : Yes

Read offset correction : 48
Overread into Lead-In and Lead-Out : No
Fill up missing offset samples with silence : Yes
Delete leading and trailing silent blocks : No
Null samples used in CRC calculations : Yes
Used interface : Native Win32 interface for Win NT & 2000
Gap handling : Not detected, thus appended to previous track

Used output format : User Defined Encoder
Selected bitrate : 768 kBit/s
Quality : High
Add ID3 tag : No
Command line compressor : C:\Program Files (x86)\Exact Audio Copy\FLAC\FLAC.EXE
Additional command line options : -6 -V -T "ARTIST=%artist%" -T "TITLE=%title%" -T "ALBUM=%albumtitle%" -T "DATE=%year%" -T "TRACKNUMBER=%tracknr%" -T "GENRE=%genre%" -T "COMMENT=%comment%" -T "BAND=%albuminterpret%" -T "ALBUMARTIST=%albuminterpret%" -T "COMPOSER=%composer%" %haslyrics%–tag-from-file=LYRICS="%lyricsfile%"%haslyrics% -T "DISCNUMBER=%cdnumber%" -T "TOTALDISCS=%totalcds%" -T "TOTALTRACKS=%numtracks%" %hascover%–picture="%coverfile%"%hascover% %source% -o %dest%


TOC of the extracted CD

Track | Start | Length | Start sector | End sector
––––––––––––––––––––––––––––-
1 | 0:00.00 | 3:40.29 | 0 | 16528
2 | 3:40.29 | 3:48.46 | 16529 | 33674
3 | 7:29.00 | 3:21.64 | 33675 | 48813
4 | 10:50.64 | 3:18.37 | 48814 | 63700
5 | 14:09.26 | 5:22.51 | 63701 | 87901
6 | 19:32.02 | 3:49.30 | 87902 | 105106
7 | 23:21.32 | 3:33.17 | 105107 | 121098
8 | 26:54.49 | 3:21.10 | 121099 | 136183
9 | 30:15.59 | 4:09.29 | 136184 | 154887
10 | 34:25.13 | 4:40.42 | 154888 | 175929
11 | 39:05.55 | 4:03.07 | 175930 | 194161
12 | 43:08.62 | 4:05.64 | 194162 | 212600
13 | 47:14.51 | 4:04.34 | 212601 | 230934
14 | 51:19.10 | 4:01.67 | 230935 | 249076
15 | 55:21.02 | 2:51.60 | 249077 | 261961
16 | 58:12.62 | 3:45.11 | 261962 | 278847
17 | 61:57.73 | 3:43.73 | 278848 | 295645
18 | 65:41.71 | 2:49.30 | 295646 | 308350
19 | 68:31.26 | 4:01.01 | 308351 | 326426
20 | 72:32.27 | 4:11.67 | 326427 | 345318


Track 1

Filename A:\PsPBuRnOuT's MUSIC\SORTED BY YEAR\1980s\Take On Me - 80s Anthems - The Ultimate Collection\Take On Me - 80s Anthems - The Ultimate Collection - CD1\01.A-Ha - Take On Me.wav

Peak level 100.0 %
Extraction speed 14.4 X
Track quality 100.0 %
Copy CRC BF403DDA
Track not present in AccurateRip database
Copy OK

Track 2

Filename A:\PsPBuRnOuT's MUSIC\SORTED BY YEAR\1980s\Take On Me - 80s Anthems - The Ultimate Collection\Take On Me - 80s Anthems - The Ultimate Collection - CD1\02.Nena - 99 Red Balloons.wav

Peak level 78.2 %
Extraction speed 21.1 X
Track quality 100.0 %
Copy CRC 788D88F0
Track not present in AccurateRip database
Copy OK

Track 3

Filename A:\PsPBuRnOuT's MUSIC\SORTED BY YEAR\1980s\Take On Me - 80s Anthems - The Ultimate Collection\Take On Me - 80s Anthems - The Ultimate Collection - CD1\03.Frankie Goes To Hollywood - Two Tribes.wav

Peak level 100.0 %
Extraction speed 22.8 X
Track quality 100.0 %
Copy CRC E02EF206
Track not present in AccurateRip database
Copy OK

Track 4

Filename A:\PsPBuRnOuT's MUSIC\SORTED BY YEAR\1980s\Take On Me - 80s Anthems - The Ultimate Collection\Take On Me - 80s Anthems - The Ultimate Collection - CD1\04.Madness - Our House.wav

Peak level 87.1 %
Extraction speed 19.7 X
Track quality 99.8 %
Copy CRC 62C158BD
Track not present in AccurateRip database
Copy OK

Track 5

Filename A:\PsPBuRnOuT's MUSIC\SORTED BY YEAR\1980s\Take On Me - 80s Anthems - The Ultimate Collection\Take On Me - 80s Anthems - The Ultimate Collection - CD1\05.Duran Duran - Save A Prayer.wav

Peak level 76.4 %
Extraction speed 20.7 X
Track quality 100.0 %
Copy CRC 5E9F2443
Track not present in AccurateRip database
Copy OK

Track 6

Filename A:\PsPBuRnOuT's MUSIC\SORTED BY YEAR\1980s\Take On Me - 80s Anthems - The Ultimate Collection\Take On Me - 80s Anthems - The Ultimate Collection - CD1\06.Spandau Ballet - Gold (2003 Remaster).wav

Peak level 82.2 %
Extraction speed 25.9 X
Track quality 100.0 %
Copy CRC A971D892
Track not present in AccurateRip database
Copy OK

Track 7

Filename A:\PsPBuRnOuT's MUSIC\SORTED BY YEAR\1980s\Take On Me - 80s Anthems - The Ultimate Collection\Take On Me - 80s Anthems - The Ultimate Collection - CD1\07.Talk Talk - Life's What You Make It (Edit).wav

Peak level 83.1 %
Extraction speed 28.7 X
Track quality 100.0 %
Copy CRC CB66B4D0
Track not present in AccurateRip database
Copy OK

Track 8

Filename A:\PsPBuRnOuT's MUSIC\SORTED BY YEAR\1980s\Take On Me - 80s Anthems - The Ultimate Collection\Take On Me - 80s Anthems - The Ultimate Collection - CD1\08.Hollywood Beyond - What's The Colour Of Money.wav

Peak level 99.7 %
Extraction speed 29.8 X
Track quality 100.0 %
Copy CRC 3877E516
Track not present in AccurateRip database
Copy OK

Track 9

Filename A:\PsPBuRnOuT's MUSIC\SORTED BY YEAR\1980s\Take On Me - 80s Anthems - The Ultimate Collection\Take On Me - 80s Anthems - The Ultimate Collection - CD1\09.Red Box - Lean On Me (Ah-Li-Ayo).wav

Peak level 100.0 %
Extraction speed 29.6 X
Track quality 100.0 %
Copy CRC C6D00DE7
Track not present in AccurateRip database
Copy OK

Track 10

Filename A:\PsPBuRnOuT's MUSIC\SORTED BY YEAR\1980s\Take On Me - 80s Anthems - The Ultimate Collection\Take On Me - 80s Anthems - The Ultimate Collection - CD1\10.Propaganda - Duel.wav

Peak level 87.1 %
Extraction speed 32.0 X
Track quality 100.0 %
Copy CRC 9D4BD3FA
Track not present in AccurateRip database
Copy OK

Track 11

Filename A:\PsPBuRnOuT's MUSIC\SORTED BY YEAR\1980s\Take On Me - 80s Anthems - The Ultimate Collection\Take On Me - 80s Anthems - The Ultimate Collection - CD1\11.Art Of Noise - Close (To The Edit).wav

Peak level 97.4 %
Extraction speed 31.7 X
Track quality 100.0 %
Copy CRC C2C889B8
Track not present in AccurateRip database
Copy OK

Track 12

Filename A:\PsPBuRnOuT's MUSIC\SORTED BY YEAR\1980s\Take On Me - 80s Anthems - The Ultimate Collection\Take On Me - 80s Anthems - The Ultimate Collection - CD1\12.Thomas Dolby - Hyperactive! (2009 Remastered Version).wav

Peak level 100.0 %
Extraction speed 33.1 X
Track quality 100.0 %
Copy CRC A79B174D
Track not present in AccurateRip database
Copy OK

Track 13

Filename A:\PsPBuRnOuT's MUSIC\SORTED BY YEAR\1980s\Take On Me - 80s Anthems - The Ultimate Collection\Take On Me - 80s Anthems - The Ultimate Collection - CD1\13.The Associates - Party Fears Two (2016 Remaster).wav

Peak level 87.1 %
Extraction speed 35.6 X
Track quality 100.0 %
Copy CRC 5F63003E
Track not present in AccurateRip database
Copy OK

Track 14

Filename A:\PsPBuRnOuT's MUSIC\SORTED BY YEAR\1980s\Take On Me - 80s Anthems - The Ultimate Collection\Take On Me - 80s Anthems - The Ultimate Collection - CD1\14.Blow Monkeys - It Doesn't Have To Be This Way.wav

Peak level 100.0 %
Extraction speed 29.3 X
Track quality 99.9 %
Copy CRC AF6DC7F6
Track not present in AccurateRip database
Copy OK

Track 15

Filename A:\PsPBuRnOuT's MUSIC\SORTED BY YEAR\1980s\Take On Me - 80s Anthems - The Ultimate Collection\Take On Me - 80s Anthems - The Ultimate Collection - CD1\15.The Maisonettes - Heartache Avenue.wav

Peak level 78.6 %
Extraction speed 6.9 X
Track quality 99.3 %
Copy CRC FD2B1650
Track not present in AccurateRip database
Copy OK

Track 16

Filename A:\PsPBuRnOuT's MUSIC\SORTED BY YEAR\1980s\Take On Me - 80s Anthems - The Ultimate Collection\Take On Me - 80s Anthems - The Ultimate Collection - CD1\16.Kirsty MacColl - A New England.wav

Peak level 83.0 %
Extraction speed 28.1 X
Track quality 100.0 %
Copy CRC AEEC1DFB
Track not present in AccurateRip database
Copy OK

Track 17

Filename A:\PsPBuRnOuT's MUSIC\SORTED BY YEAR\1980s\Take On Me - 80s Anthems - The Ultimate Collection\Take On Me - 80s Anthems - The Ultimate Collection - CD1\17.Pretenders - Don't Get Me Wrong.wav

Peak level 84.1 %
Extraction speed 36.6 X
Track quality 100.0 %
Copy CRC 998F034D
Track not present in AccurateRip database
Copy OK

Track 18

Filename A:\PsPBuRnOuT's MUSIC\SORTED BY YEAR\1980s\Take On Me - 80s Anthems - The Ultimate Collection\Take On Me - 80s Anthems - The Ultimate Collection - CD1\18.Tanita Tikaram - Good Tradition.wav

Peak level 77.7 %
Extraction speed 37.5 X
Track quality 100.0 %
Copy CRC 2B76C8D9
Track not present in AccurateRip database
Copy OK

Track 19

Filename A:\PsPBuRnOuT's MUSIC\SORTED BY YEAR\1980s\Take On Me - 80s Anthems - The Ultimate Collection\Take On Me - 80s Anthems - The Ultimate Collection - CD1\19.PH.D. - I Won't Let You Down.wav

Peak level 80.1 %
Extraction speed 40.7 X
Track quality 100.0 %
Copy CRC 7C97312D
Track not present in AccurateRip database
Copy OK

Track 20

Filename A:\PsPBuRnOuT's MUSIC\SORTED BY YEAR\1980s\Take On Me - 80s Anthems - The Ultimate Collection\Take On Me - 80s Anthems - The Ultimate Collection - CD1\20.The Korgis - Everybody's Got To Learn Sometime.wav

Peak level 100.0 %
Extraction speed 41.7 X
Track quality 100.0 %
Copy CRC 3BB40CC4
Track not present in AccurateRip database
Copy OK


None of the tracks are present in the AccurateRip database

No errors occurred

End of status report

–– CUETools DB Plugin V2.1.6

[CTDB TOCID: l0XKrb5mXcziAhTuAbpODJoAzbI-] found
Submit result: l0XKrb5mXcziAhTuAbpODJoAzbI- has been confirmed
Track | CTDB Status
1 | (1/1) Accurately ripped
2 | (1/1) Accurately ripped
3 | (1/1) Accurately ripped
4 | (1/1) Accurately ripped
5 | (1/1) Accurately ripped
6 | (1/1) Accurately ripped
7 | (1/1) Accurately ripped
8 | (1/1) Accurately ripped
9 | (1/1) Accurately ripped
10 | (1/1) Accurately ripped
11 | (1/1) Accurately ripped
12 | (1/1) Accurately ripped
13 | (1/1) Accurately ripped
14 | (1/1) Accurately ripped
15 | (1/1) Accurately ripped
16 | (1/1) Accurately ripped
17 | (1/1) Accurately ripped
18 | (1/1) Accurately ripped
19 | (1/1) Accurately ripped
20 | (1/1) Accurately ripped

Exact Audio Copy V1.3 from 2. September 2016

EAC extraction logfile from 17. November 2019, 0:31

Various / Take On Me - 80s Anthems - The Ultimate Collection - CD2

Used drive : ATAPI iHAS124 Y Adapter: 1 ID: 0

Read mode : Secure
Utilize accurate stream : Yes
Defeat audio cache : No
Make use of C2 pointers : Yes

Read offset correction : 48
Overread into Lead-In and Lead-Out : No
Fill up missing offset samples with silence : Yes
Delete leading and trailing silent blocks : No
Null samples used in CRC calculations : Yes
Used interface : Native Win32 interface for Win NT & 2000
Gap handling : Not detected, thus appended to previous track

Used output format : User Defined Encoder
Selected bitrate : 768 kBit/s
Quality : High
Add ID3 tag : No
Command line compressor : C:\Program Files (x86)\Exact Audio Copy\FLAC\FLAC.EXE
Additional command line options : -6 -V -T "ARTIST=%artist%" -T "TITLE=%title%" -T "ALBUM=%albumtitle%" -T "DATE=%year%" -T "TRACKNUMBER=%tracknr%" -T "GENRE=%genre%" -T "COMMENT=%comment%" -T "BAND=%albuminterpret%" -T "ALBUMARTIST=%albuminterpret%" -T "COMPOSER=%composer%" %haslyrics%–tag-from-file=LYRICS="%lyricsfile%"%haslyrics% -T "DISCNUMBER=%cdnumber%" -T "TOTALDISCS=%totalcds%" -T "TOTALTRACKS=%numtracks%" %hascover%–picture="%coverfile%"%hascover% %source% -o %dest%


TOC of the extracted CD

Track | Start | Length | Start sector | End sector
––––––––––––––––––––––––––––-
1 | 0:00.00 | 3:41.73 | 0 | 16647
2 | 3:41.73 | 4:57.62 | 16648 | 38984
3 | 8:39.60 | 4:20.69 | 38985 | 58553
4 | 13:00.54 | 5:21.58 | 58554 | 82686
5 | 18:22.37 | 4:21.23 | 82687 | 102284
6 | 22:43.60 | 4:17.68 | 102285 | 121627
7 | 27:01.53 | 4:08.26 | 121628 | 140253
8 | 31:10.04 | 3:01.31 | 140254 | 153859
9 | 34:11.35 | 4:32.46 | 153860 | 174305
10 | 38:44.06 | 3:34.62 | 174306 | 190417
11 | 42:18.68 | 4:18.22 | 190418 | 209789
12 | 46:37.15 | 4:04.16 | 209790 | 228105
13 | 50:41.31 | 3:49.53 | 228106 | 245333
14 | 54:31.09 | 4:12.16 | 245334 | 264249
15 | 58:43.25 | 3:38.25 | 264250 | 280624
16 | 62:21.50 | 3:22.71 | 280625 | 295845
17 | 65:44.46 | 3:38.35 | 295846 | 312230
18 | 69:23.06 | 2:40.51 | 312231 | 324281
19 | 72:03.57 | 3:42.03 | 324282 | 340934


Track 1

Filename A:\PsPBuRnOuT's MUSIC\SORTED BY YEAR\1980s\Take On Me - 80s Anthems - The Ultimate Collection\Take On Me - 80s Anthems - The Ultimate Collection - CD2\01.Tina Turner - What's Love Got To Do With It.wav

Peak level 83.1 %
Extraction speed 14.6 X
Track quality 100.0 %
Copy CRC 4DAEEB98
Track not present in AccurateRip database
Copy OK

Track 2

Filename A:\PsPBuRnOuT's MUSIC\SORTED BY YEAR\1980s\Take On Me - 80s Anthems - The Ultimate Collection\Take On Me - 80s Anthems - The Ultimate Collection - CD2\02.Foreigner - I Want To Know What Love Is.wav

Peak level 86.8 %
Extraction speed 20.7 X
Track quality 100.0 %
Copy CRC FC84DD2A
Track not present in AccurateRip database
Copy OK

Track 3

Filename A:\PsPBuRnOuT's MUSIC\SORTED BY YEAR\1980s\Take On Me - 80s Anthems - The Ultimate Collection\Take On Me - 80s Anthems - The Ultimate Collection - CD2\03.Simply Red - Holding Back The Years.wav

Peak level 90.1 %
Extraction speed 22.4 X
Track quality 100.0 %
Copy CRC E02A83C4
Track not present in AccurateRip database
Copy OK

Track 4

Filename A:\PsPBuRnOuT's MUSIC\SORTED BY YEAR\1980s\Take On Me - 80s Anthems - The Ultimate Collection\Take On Me - 80s Anthems - The Ultimate Collection - CD2\04.Roxette - Listen To Your Heart.wav

Peak level 78.5 %
Extraction speed 24.4 X
Track quality 100.0 %
Copy CRC EDF8522A
Track not present in AccurateRip database
Copy OK

Track 5

Filename A:\PsPBuRnOuT's MUSIC\SORTED BY YEAR\1980s\Take On Me - 80s Anthems - The Ultimate Collection\Take On Me - 80s Anthems - The Ultimate Collection - CD2\05.Climie Fisher - Love Changes (Everything).wav

Peak level 93.3 %
Extraction speed 22.8 X
Track quality 99.9 %
Copy CRC 9486A5F2
Track not present in AccurateRip database
Copy OK

Track 6

Filename A:\PsPBuRnOuT's MUSIC\SORTED BY YEAR\1980s\Take On Me - 80s Anthems - The Ultimate Collection\Take On Me - 80s Anthems - The Ultimate Collection - CD2\06.Anita Baker - Sweet Love.wav

Peak level 100.0 %
Extraction speed 22.5 X
Track quality 100.0 %
Copy CRC EDF49307
Track not present in AccurateRip database
Copy OK

Track 7

Filename A:\PsPBuRnOuT's MUSIC\SORTED BY YEAR\1980s\Take On Me - 80s Anthems - The Ultimate Collection\Take On Me - 80s Anthems - The Ultimate Collection - CD2\07.Randy Crawford - You Might Need Somebody.wav

Peak level 92.1 %
Extraction speed 29.8 X
Track quality 100.0 %
Copy CRC 37613D9F
Track not present in AccurateRip database
Copy OK

Track 8

Filename A:\PsPBuRnOuT's MUSIC\SORTED BY YEAR\1980s\Take On Me - 80s Anthems - The Ultimate Collection\Take On Me - 80s Anthems - The Ultimate Collection - CD2\08.Al Jarreau - Moonlighting (Theme).wav

Peak level 89.1 %
Extraction speed 31.3 X
Track quality 100.0 %
Copy CRC FA34ACA1
Track not present in AccurateRip database
Copy OK

Track 9

Filename A:\PsPBuRnOuT's MUSIC\SORTED BY YEAR\1980s\Take On Me - 80s Anthems - The Ultimate Collection\Take On Me - 80s Anthems - The Ultimate Collection - CD2\09.Thompson Twins - Doctor! Doctor!.wav

Peak level 92.0 %
Extraction speed 31.9 X
Track quality 100.0 %
Copy CRC 2675EF21
Track not present in AccurateRip database
Copy OK

Track 10

Filename A:\PsPBuRnOuT's MUSIC\SORTED BY YEAR\1980s\Take On Me - 80s Anthems - The Ultimate Collection\Take On Me - 80s Anthems - The Ultimate Collection - CD2\10.Alison Moyet - All Cried Out.wav

Peak level 100.0 %
Extraction speed 33.3 X
Track quality 100.0 %
Copy CRC A0A8CBA0
Track not present in AccurateRip database
Copy OK

Track 11

Filename A:\PsPBuRnOuT's MUSIC\SORTED BY YEAR\1980s\Take On Me - 80s Anthems - The Ultimate Collection\Take On Me - 80s Anthems - The Ultimate Collection - CD2\11.Peter Cetera - Glory Of Love.wav

Peak level 78.5 %
Extraction speed 33.2 X
Track quality 100.0 %
Copy CRC 05708977
Track not present in AccurateRip database
Copy OK

Track 12

Filename A:\PsPBuRnOuT's MUSIC\SORTED BY YEAR\1980s\Take On Me - 80s Anthems - The Ultimate Collection\Take On Me - 80s Anthems - The Ultimate Collection - CD2\12.Marillion - Kayleigh.wav

Peak level 100.0 %
Extraction speed 35.6 X
Track quality 100.0 %
Copy CRC BBCF794C
Track not present in AccurateRip database
Copy OK

Track 13

Filename A:\PsPBuRnOuT's MUSIC\SORTED BY YEAR\1980s\Take On Me - 80s Anthems - The Ultimate Collection\Take On Me - 80s Anthems - The Ultimate Collection - CD2\13.Christopher Cross - Arthur's Theme (Best That You Can Do).wav

Peak level 100.0 %
Extraction speed 34.7 X
Track quality 100.0 %
Copy CRC A21BF2B5
Track not present in AccurateRip database
Copy OK

Track 14

Filename A:\PsPBuRnOuT's MUSIC\SORTED BY YEAR\1980s\Take On Me - 80s Anthems - The Ultimate Collection\Take On Me - 80s Anthems - The Ultimate Collection - CD2\14.Robert Palmer - She Makes My Day.wav

Peak level 94.3 %
Extraction speed 37.6 X
Track quality 100.0 %
Copy CRC 27BB149F
Track not present in AccurateRip database
Copy OK

Track 15

Filename A:\PsPBuRnOuT's MUSIC\SORTED BY YEAR\1980s\Take On Me - 80s Anthems - The Ultimate Collection\Take On Me - 80s Anthems - The Ultimate Collection - CD2\15.Adrian Gurvitz - Classic.wav

Peak level 89.0 %
Extraction speed 38.6 X
Track quality 100.0 %
Copy CRC 5FEC710B
Track not present in AccurateRip database
Copy OK

Track 16

Filename A:\PsPBuRnOuT's MUSIC\SORTED BY YEAR\1980s\Take On Me - 80s Anthems - The Ultimate Collection\Take On Me - 80s Anthems - The Ultimate Collection - CD2\16.Hot Chocolate - Girl Crazy.wav

Peak level 100.0 %
Extraction speed 37.0 X
Track quality 100.0 %
Copy CRC 59230AC3
Track not present in AccurateRip database
Copy OK

Track 17

Filename A:\PsPBuRnOuT's MUSIC\SORTED BY YEAR\1980s\Take On Me - 80s Anthems - The Ultimate Collection\Take On Me - 80s Anthems - The Ultimate Collection - CD2\17.Japan - I Second That Emotion.wav

Peak level 100.0 %
Extraction speed 38.0 X
Track quality 100.0 %
Copy CRC DFADE944
Track not present in AccurateRip database
Copy OK

Track 18

Filename A:\PsPBuRnOuT's MUSIC\SORTED BY YEAR\1980s\Take On Me - 80s Anthems - The Ultimate Collection\Take On Me - 80s Anthems - The Ultimate Collection - CD2\18.The Stranglers - Strange Little Girl.wav

Peak level 96.2 %
Extraction speed 41.2 X
Track quality 100.0 %
Copy CRC 232152D3
Track not present in AccurateRip database
Copy OK

Track 19

Filename A:\PsPBuRnOuT's MUSIC\SORTED BY YEAR\1980s\Take On Me - 80s Anthems - The Ultimate Collection\Take On Me - 80s Anthems - The Ultimate Collection - CD2\19.Chris Rea - On The Beach.wav

Peak level 100.0 %
Extraction speed 39.6 X
Track quality 100.0 %
Copy CRC 16536026
Track not present in AccurateRip database
Copy OK


None of the tracks are present in the AccurateRip database

No errors occurred

End of status report

–– CUETools DB Plugin V2.1.6

[CTDB TOCID: LYXbgdOt82Cee50EpxEotiGYmRE-] found
Submit result: LYXbgdOt82Cee50EpxEotiGYmRE- has been confirmed
Track | CTDB Status
1 | (1/1) Accurately ripped
2 | (1/1) Accurately ripped
3 | (1/1) Accurately ripped
4 | (1/1) Accurately ripped
5 | (1/1) Accurately ripped
6 | (1/1) Accurately ripped
7 | (1/1) Accurately ripped
8 | (1/1) Accurately ripped
9 | (1/1) Accurately ripped
10 | (1/1) Accurately ripped
11 | (1/1) Accurately ripped
12 | (1/1) Accurately ripped
13 | (1/1) Accurately ripped
14 | (1/1) Accurately ripped
15 | (1/1) Accurately ripped
16 | (1/1) Accurately ripped
17 | (1/1) Accurately ripped
18 | (1/1) Accurately ripped
19 | (1/1) Accurately ripped

Exact Audio Copy V1.3 from 2. September 2016

EAC extraction logfile from 17. November 2019, 1:25

Various / Take On Me - 80s Anthems - The Ultimate Collection - CD3

Used drive : ATAPI iHAS124 Y Adapter: 1 ID: 0

Read mode : Secure
Utilize accurate stream : Yes
Defeat audio cache : No
Make use of C2 pointers : Yes

Read offset correction : 48
Overread into Lead-In and Lead-Out : No
Fill up missing offset samples with silence : Yes
Delete leading and trailing silent blocks : No
Null samples used in CRC calculations : Yes
Used interface : Native Win32 interface for Win NT & 2000
Gap handling : Not detected, thus appended to previous track

Used output format : User Defined Encoder
Selected bitrate : 768 kBit/s
Quality : High
Add ID3 tag : No
Command line compressor : C:\Program Files (x86)\Exact Audio Copy\FLAC\FLAC.EXE
Additional command line options : -6 -V -T "ARTIST=%artist%" -T "TITLE=%title%" -T "ALBUM=%albumtitle%" -T "DATE=%year%" -T "TRACKNUMBER=%tracknr%" -T "GENRE=%genre%" -T "COMMENT=%comment%" -T "BAND=%albuminterpret%" -T "ALBUMARTIST=%albuminterpret%" -T "COMPOSER=%composer%" %haslyrics%–tag-from-file=LYRICS="%lyricsfile%"%haslyrics% -T "DISCNUMBER=%cdnumber%" -T "TOTALDISCS=%totalcds%" -T "TOTALTRACKS=%numtracks%" %hascover%–picture="%coverfile%"%hascover% %source% -o %dest%


TOC of the extracted CD

Track | Start | Length | Start sector | End sector
––––––––––––––––––––––––––––-
1 | 0:00.00 | 3:15.45 | 0 | 14669
2 | 3:15.45 | 3:18.64 | 14670 | 29583
3 | 6:34.34 | 3:20.62 | 29584 | 44645
4 | 9:55.21 | 3:24.15 | 44646 | 59960
5 | 13:19.36 | 3:39.53 | 59961 | 76438
6 | 16:59.14 | 4:46.60 | 76439 | 97948
7 | 21:45.74 | 3:36.60 | 97949 | 114208
8 | 25:22.59 | 3:43.73 | 114209 | 131006
9 | 29:06.57 | 3:28.19 | 131007 | 146625
10 | 32:35.01 | 4:03.68 | 146626 | 164918
11 | 36:38.69 | 5:01.44 | 164919 | 187537
12 | 41:40.38 | 3:55.16 | 187538 | 205178
13 | 45:35.54 | 3:38.30 | 205179 | 221558
14 | 49:14.09 | 3:21.12 | 221559 | 236645
15 | 52:35.21 | 4:22.06 | 236646 | 256301
16 | 56:57.27 | 2:49.74 | 256302 | 269050
17 | 59:47.26 | 3:21.13 | 269051 | 284138
18 | 63:08.39 | 3:18.58 | 284139 | 299046
19 | 66:27.22 | 2:34.36 | 299047 | 310632
20 | 69:01.58 | 2:37.43 | 310633 | 322450
21 | 71:39.26 | 3:53.28 | 322451 | 339953


Track 1

Filename A:\PsPBuRnOuT's MUSIC\SORTED BY YEAR\1980s\Take On Me - 80s Anthems - The Ultimate Collection\Take On Me - 80s Anthems - The Ultimate Collection - CD3\01.Mel & Kim - Respectable.wav

Peak level 84.1 %
Extraction speed 13.9 X
Track quality 100.0 %
Copy CRC FBDE2C52
Track not present in AccurateRip database
Copy OK

Track 2

Filename A:\PsPBuRnOuT's MUSIC\SORTED BY YEAR\1980s\Take On Me - 80s Anthems - The Ultimate Collection\Take On Me - 80s Anthems - The Ultimate Collection - CD3\02.Kylie Minogue - I Should Be So Lucky.wav

Peak level 84.1 %
Extraction speed 17.5 X
Track quality 99.8 %
Copy CRC 2543CD27
Track not present in AccurateRip database
Copy OK

Track 3

Filename A:\PsPBuRnOuT's MUSIC\SORTED BY YEAR\1980s\Take On Me - 80s Anthems - The Ultimate Collection\Take On Me - 80s Anthems - The Ultimate Collection - CD3\03.Jason Donovan - Too Many Broken Hearts.wav

Peak level 94.3 %
Extraction speed 17.2 X
Track quality 100.0 %
Copy CRC 6F3747F5
Track not present in AccurateRip database
Copy OK

Track 4

Filename A:\PsPBuRnOuT's MUSIC\SORTED BY YEAR\1980s\Take On Me - 80s Anthems - The Ultimate Collection\Take On Me - 80s Anthems - The Ultimate Collection - CD3\04.Brother Beyond - The Harder I Try.wav

Peak level 100.0 %
Extraction speed 22.7 X
Track quality 100.0 %
Copy CRC 528D430D
Track not present in AccurateRip database
Copy OK

Track 5

Filename A:\PsPBuRnOuT's MUSIC\SORTED BY YEAR\1980s\Take On Me - 80s Anthems - The Ultimate Collection\Take On Me - 80s Anthems - The Ultimate Collection - CD3\05.Hazell Dean - Who's Leaving Who.wav

Peak level 100.0 %
Extraction speed 25.2 X
Track quality 100.0 %
Copy CRC EED3C7AF
Track not present in AccurateRip database
Copy OK

Track 6

Filename A:\PsPBuRnOuT's MUSIC\SORTED BY YEAR\1980s\Take On Me - 80s Anthems - The Ultimate Collection\Take On Me - 80s Anthems - The Ultimate Collection - CD3\06.Laura Branigan - Gloria.wav

Peak level 82.2 %
Extraction speed 22.7 X
Track quality 99.9 %
Copy CRC 7ED2C8E5
Track not present in AccurateRip database
Copy OK

Track 7

Filename A:\PsPBuRnOuT's MUSIC\SORTED BY YEAR\1980s\Take On Me - 80s Anthems - The Ultimate Collection\Take On Me - 80s Anthems - The Ultimate Collection - CD3\07.Samantha Fox - Touch Me (I Want Your Body).wav

Peak level 79.4 %
Extraction speed 22.9 X
Track quality 100.0 %
Copy CRC 9D54A468
Track not present in AccurateRip database
Copy OK

Track 8

Filename A:\PsPBuRnOuT's MUSIC\SORTED BY YEAR\1980s\Take On Me - 80s Anthems - The Ultimate Collection\Take On Me - 80s Anthems - The Ultimate Collection - CD3\08.Coldcut Feat. Yazz & The Plastic Population - Doctorin' The House.wav

Peak level 88.8 %
Extraction speed 27.9 X
Track quality 100.0 %
Copy CRC E2412B5F
Track not present in AccurateRip database
Copy OK

Track 9

Filename A:\PsPBuRnOuT's MUSIC\SORTED BY YEAR\1980s\Take On Me - 80s Anthems - The Ultimate Collection\Take On Me - 80s Anthems - The Ultimate Collection - CD3\09.The Reynolds Girls - I'd Rather Jack.wav

Peak level 99.9 %
Extraction speed 28.9 X
Track quality 100.0 %
Copy CRC AABA6493
Track not present in AccurateRip database
Copy OK

Track 10

Filename A:\PsPBuRnOuT's MUSIC\SORTED BY YEAR\1980s\Take On Me - 80s Anthems - The Ultimate Collection\Take On Me - 80s Anthems - The Ultimate Collection - CD3\10.Amii Stewart - Knock On Wood (1985 7'' Remix).wav

Peak level 100.0 %
Extraction speed 31.6 X
Track quality 100.0 %
Copy CRC 8A8D1454
Track not present in AccurateRip database
Copy OK

Track 11

Filename A:\PsPBuRnOuT's MUSIC\SORTED BY YEAR\1980s\Take On Me - 80s Anthems - The Ultimate Collection\Take On Me - 80s Anthems - The Ultimate Collection - CD3\11.Sheila E. - The Belle Of St. Mark.wav

Peak level 100.0 %
Extraction speed 32.8 X
Track quality 100.0 %
Copy CRC 8B0A2438
Track not present in AccurateRip database
Copy OK

Track 12

Filename A:\PsPBuRnOuT's MUSIC\SORTED BY YEAR\1980s\Take On Me - 80s Anthems - The Ultimate Collection\Take On Me - 80s Anthems - The Ultimate Collection - CD3\12.London Boys - London Nights.wav

Peak level 99.1 %
Extraction speed 34.2 X
Track quality 100.0 %
Copy CRC C92D5266
Track not present in AccurateRip database
Copy OK

Track 13

Filename A:\PsPBuRnOuT's MUSIC\SORTED BY YEAR\1980s\Take On Me - 80s Anthems - The Ultimate Collection\Take On Me - 80s Anthems - The Ultimate Collection - CD3\13.Fuzzbox - Pink Sunshine.wav

Peak level 93.8 %
Extraction speed 35.1 X
Track quality 100.0 %
Copy CRC EFCA8128
Track not present in AccurateRip database
Copy OK

Track 14

Filename A:\PsPBuRnOuT's MUSIC\SORTED BY YEAR\1980s\Take On Me - 80s Anthems - The Ultimate Collection\Take On Me - 80s Anthems - The Ultimate Collection - CD3\14.Sonia - You'll Never Stop Me Loving You.wav

Peak level 90.4 %
Extraction speed 36.3 X
Track quality 100.0 %
Copy CRC 09F4332B
Track not present in AccurateRip database
Copy OK

Track 15

Filename A:\PsPBuRnOuT's MUSIC\SORTED BY YEAR\1980s\Take On Me - 80s Anthems - The Ultimate Collection\Take On Me - 80s Anthems - The Ultimate Collection - CD3\15.Debbie Gibson - Foolish Beat.wav

Peak level 100.0 %
Extraction speed 36.5 X
Track quality 100.0 %
Copy CRC F3719309
Track not present in AccurateRip database
Copy OK

Track 16

Filename A:\PsPBuRnOuT's MUSIC\SORTED BY YEAR\1980s\Take On Me - 80s Anthems - The Ultimate Collection\Take On Me - 80s Anthems - The Ultimate Collection - CD3\16.Tracey Ullman - My Guy.wav

Peak level 97.9 %
Extraction speed 38.2 X
Track quality 100.0 %
Copy CRC BBD76185
Track not present in AccurateRip database
Copy OK

Track 17

Filename A:\PsPBuRnOuT's MUSIC\SORTED BY YEAR\1980s\Take On Me - 80s Anthems - The Ultimate Collection\Take On Me - 80s Anthems - The Ultimate Collection - CD3\17.Tracie - The House That Jack Built.wav

Peak level 98.0 %
Extraction speed 30.8 X
Track quality 100.0 %
Copy CRC 59874F37
Track not present in AccurateRip database
Copy OK

Track 18

Filename A:\PsPBuRnOuT's MUSIC\SORTED BY YEAR\1980s\Take On Me - 80s Anthems - The Ultimate Collection\Take On Me - 80s Anthems - The Ultimate Collection - CD3\18.Matt Bianco - Get Out Of Your Lazy Bed.wav

Peak level 100.0 %
Extraction speed 32.4 X
Track quality 100.0 %
Copy CRC 6DB5C318
Track not present in AccurateRip database
Copy OK

Track 19

Filename A:\PsPBuRnOuT's MUSIC\SORTED BY YEAR\1980s\Take On Me - 80s Anthems - The Ultimate Collection\Take On Me - 80s Anthems - The Ultimate Collection - CD3\19.Modern Romance - Best Years Of Our Lives.wav

Peak level 84.1 %
Extraction speed 37.1 X
Track quality 100.0 %
Copy CRC 5012EF2C
Track not present in AccurateRip database
Copy OK

Track 20

Filename A:\PsPBuRnOuT's MUSIC\SORTED BY YEAR\1980s\Take On Me - 80s Anthems - The Ultimate Collection\Take On Me - 80s Anthems - The Ultimate Collection - CD3\20.Bucks Fizz - Making You Mind Up.wav

Peak level 86.1 %
Extraction speed 11.5 X
Track quality 99.6 %
Copy CRC C030E0EA
Track not present in AccurateRip database
Copy OK

Track 21

Filename A:\PsPBuRnOuT's MUSIC\SORTED BY YEAR\1980s\Take On Me - 80s Anthems - The Ultimate Collection\Take On Me - 80s Anthems - The Ultimate Collection - CD3\21.Kylie Minogue - Especially For You.wav

Peak level 92.2 %
Extraction speed 41.2 X
Track quality 100.0 %
Copy CRC 95AE3423
Track not present in AccurateRip database
Copy OK


None of the tracks are present in the AccurateRip database

No errors occurred

End of status report

–– CUETools DB Plugin V2.1.6

[CTDB TOCID: 3PtSLj.i2QkWY_rN.5aLIv5rX7A-] found
Submit result: 3PtSLj.i2QkWY_rN.5aLIv5rX7A- has been confirmed
Track | CTDB Status
1 | (1/1) Accurately ripped
2 | (1/1) Accurately ripped
3 | (1/1) Accurately ripped
4 | (1/1) Accurately ripped
5 | (1/1) Accurately ripped
6 | (1/1) Accurately ripped
7 | (1/1) Accurately ripped
8 | (1/1) Accurately ripped
9 | (1/1) Accurately ripped
10 | (1/1) Accurately ripped
11 | (1/1) Accurately ripped
12 | (1/1) Accurately ripped
13 | (1/1) Accurately ripped
14 | (1/1) Accurately ripped
15 | (1/1) Accurately ripped
16 | (1/1) Accurately ripped
17 | (1/1) Accurately ripped
18 | (1/1) Accurately ripped
19 | (1/1) Accurately ripped
20 | (1/1) Accurately ripped
21 | (1/1) Accurately ripped

Exact Audio Copy V1.3 from 2. September 2016

EAC extraction logfile from 17. November 2019, 2:18

Various / Take On Me - 80s Anthems - The Ultimate Collection - CD4

Used drive : ATAPI iHAS124 Y Adapter: 1 ID: 0

Read mode : Secure
Utilize accurate stream : Yes
Defeat audio cache : No
Make use of C2 pointers : Yes

Read offset correction : 48
Overread into Lead-In and Lead-Out : No
Fill up missing offset samples with silence : Yes
Delete leading and trailing silent blocks : No
Null samples used in CRC calculations : Yes
Used interface : Native Win32 interface for Win NT & 2000
Gap handling : Not detected, thus appended to previous track

Used output format : User Defined Encoder
Selected bitrate : 768 kBit/s
Quality : High
Add ID3 tag : No
Command line compressor : C:\Program Files (x86)\Exact Audio Copy\FLAC\FLAC.EXE
Additional command line options : -6 -V -T "ARTIST=%artist%" -T "TITLE=%title%" -T "ALBUM=%albumtitle%" -T "DATE=%year%" -T "TRACKNUMBER=%tracknr%" -T "GENRE=%genre%" -T "COMMENT=%comment%" -T "BAND=%albuminterpret%" -T "ALBUMARTIST=%albuminterpret%" -T "COMPOSER=%composer%" %haslyrics%–tag-from-file=LYRICS="%lyricsfile%"%haslyrics% -T "DISCNUMBER=%cdnumber%" -T "TOTALDISCS=%totalcds%" -T "TOTALTRACKS=%numtracks%" %hascover%–picture="%coverfile%"%hascover% %source% -o %dest%


TOC of the extracted CD

Track | Start | Length | Start sector | End sector
––––––––––––––––––––––––––––-
1 | 0:00.00 | 3:59.59 | 0 | 17983
2 | 3:59.59 | 4:22.18 | 17984 | 37651
3 | 8:22.02 | 3:20.65 | 37652 | 52716
4 | 11:42.67 | 4:20.36 | 52717 | 72252
5 | 16:03.28 | 3:41.44 | 72253 | 88871
6 | 19:44.72 | 3:31.36 | 88872 | 104732
7 | 23:16.33 | 3:21.26 | 104733 | 119833
8 | 26:37.59 | 3:11.69 | 119834 | 134227
9 | 29:49.53 | 4:06.52 | 134228 | 152729
10 | 33:56.30 | 4:05.17 | 152730 | 171121
11 | 38:01.47 | 3:44.01 | 171122 | 187922
12 | 41:45.48 | 3:19.70 | 187923 | 202917
13 | 45:05.43 | 3:39.25 | 202918 | 219367
14 | 48:44.68 | 4:13.18 | 219368 | 238360
15 | 52:58.11 | 6:40.43 | 238361 | 268403
16 | 59:38.54 | 5:06.31 | 268404 | 291384
17 | 64:45.10 | 4:06.71 | 291385 | 309905
18 | 68:52.06 | 4:55.41 | 309906 | 332071
19 | 73:47.47 | 3:10.07 | 332072 | 346328


Track 1

Filename A:\PsPBuRnOuT's MUSIC\SORTED BY YEAR\1980s\Take On Me - 80s Anthems - The Ultimate Collection\Take On Me - 80s Anthems - The Ultimate Collection - CD4\01.Chaka Khan - I Feel For You.wav

Peak level 83.1 %
Extraction speed 15.1 X
Track quality 100.0 %
Copy CRC 0EE799C1
Track not present in AccurateRip database
Copy OK

Track 2

Filename A:\PsPBuRnOuT's MUSIC\SORTED BY YEAR\1980s\Take On Me - 80s Anthems - The Ultimate Collection\Take On Me - 80s Anthems - The Ultimate Collection - CD4\02.Sister Sledge - Thinking Of You.wav

Peak level 92.9 %
Extraction speed 18.5 X
Track quality 99.9 %
Copy CRC 4C9965A6
Track not present in AccurateRip database
Copy OK

Track 3

Filename A:\PsPBuRnOuT's MUSIC\SORTED BY YEAR\1980s\Take On Me - 80s Anthems - The Ultimate Collection\Take On Me - 80s Anthems - The Ultimate Collection - CD4\03.Stacy Lattisaw - Jump To The Beat.wav

Peak level 83.1 %
Extraction speed 17.7 X
Track quality 100.0 %
Copy CRC 37174614
Track not present in AccurateRip database
Copy OK

Track 4

Filename A:\PsPBuRnOuT's MUSIC\SORTED BY YEAR\1980s\Take On Me - 80s Anthems - The Ultimate Collection\Take On Me - 80s Anthems - The Ultimate Collection - CD4\04.Shalamar - There It Is.wav

Peak level 92.4 %
Extraction speed 24.5 X
Track quality 100.0 %
Copy CRC B0663D2E
Track not present in AccurateRip database
Copy OK

Track 5

Filename A:\PsPBuRnOuT's MUSIC\SORTED BY YEAR\1980s\Take On Me - 80s Anthems - The Ultimate Collection\Take On Me - 80s Anthems - The Ultimate Collection - CD4\05.The Whispers - It's A Love Thing.wav

Peak level 96.8 %
Extraction speed 26.1 X
Track quality 100.0 %
Copy CRC 118286FD
Track not present in AccurateRip database
Copy OK

Track 6

Filename A:\PsPBuRnOuT's MUSIC\SORTED BY YEAR\1980s\Take On Me - 80s Anthems - The Ultimate Collection\Take On Me - 80s Anthems - The Ultimate Collection - CD4\06.Crown Heights Affair - You Gave Me Love.wav

Peak level 92.4 %
Extraction speed 26.0 X
Track quality 100.0 %
Copy CRC 9F00B0DD
Track not present in AccurateRip database
Copy OK

Track 7

Filename A:\PsPBuRnOuT's MUSIC\SORTED BY YEAR\1980s\Take On Me - 80s Anthems - The Ultimate Collection\Take On Me - 80s Anthems - The Ultimate Collection - CD4\07.Candido - Jingo.wav

Peak level 90.7 %
Extraction speed 27.0 X
Track quality 100.0 %
Copy CRC 6BE36029
Track not present in AccurateRip database
Copy OK

Track 8

Filename A:\PsPBuRnOuT's MUSIC\SORTED BY YEAR\1980s\Take On Me - 80s Anthems - The Ultimate Collection\Take On Me - 80s Anthems - The Ultimate Collection - CD4\08.Stock Aitken & Waterman - Roadblock.wav

Peak level 89.3 %
Extraction speed 29.6 X
Track quality 100.0 %
Copy CRC 9E5054CD
Track not present in AccurateRip database
Copy OK

Track 9

Filename A:\PsPBuRnOuT's MUSIC\SORTED BY YEAR\1980s\Take On Me - 80s Anthems - The Ultimate Collection\Take On Me - 80s Anthems - The Ultimate Collection - CD4\09.Steve Arrington - Feel So Real.wav

Peak level 98.8 %
Extraction speed 30.6 X
Track quality 100.0 %
Copy CRC 16ECE280
Track not present in AccurateRip database
Copy OK

Track 10

Filename A:\PsPBuRnOuT's MUSIC\SORTED BY YEAR\1980s\Take On Me - 80s Anthems - The Ultimate Collection\Take On Me - 80s Anthems - The Ultimate Collection - CD4\10.Collage - Romeo Where's Juliet.wav

Peak level 93.5 %
Extraction speed 30.4 X
Track quality 100.0 %
Copy CRC 9CD6F509
Track not present in AccurateRip database
Copy OK

Track 11

Filename A:\PsPBuRnOuT's MUSIC\SORTED BY YEAR\1980s\Take On Me - 80s Anthems - The Ultimate Collection\Take On Me - 80s Anthems - The Ultimate Collection - CD4\11.Princess - After The Love Has Gone.wav

Peak level 99.8 %
Extraction speed 26.5 X
Track quality 99.9 %
Copy CRC 81597015
Track not present in AccurateRip database
Copy OK

Track 12

Filename A:\PsPBuRnOuT's MUSIC\SORTED BY YEAR\1980s\Take On Me - 80s Anthems - The Ultimate Collection\Take On Me - 80s Anthems - The Ultimate Collection - CD4\12.Midnight Star - Headlines.wav

Peak level 100.0 %
Extraction speed 25.9 X
Track quality 100.0 %
Copy CRC 89BE9CE3
Track not present in AccurateRip database
Copy OK

Track 13

Filename A:\PsPBuRnOuT's MUSIC\SORTED BY YEAR\1980s\Take On Me - 80s Anthems - The Ultimate Collection\Take On Me - 80s Anthems - The Ultimate Collection - CD4\13.Keith Sweat - I Want Her.wav

Peak level 98.8 %
Extraction speed 35.0 X
Track quality 100.0 %
Copy CRC 53B785CA
Track not present in AccurateRip database
Copy OK

Track 14

Filename A:\PsPBuRnOuT's MUSIC\SORTED BY YEAR\1980s\Take On Me - 80s Anthems - The Ultimate Collection\Take On Me - 80s Anthems - The Ultimate Collection - CD4\14.Levert - Casanova.wav

Peak level 74.9 %
Extraction speed 34.3 X
Track quality 100.0 %
Copy CRC 3960CA8F
Track not present in AccurateRip database
Copy OK

Track 15

Filename A:\PsPBuRnOuT's MUSIC\SORTED BY YEAR\1980s\Take On Me - 80s Anthems - The Ultimate Collection\Take On Me - 80s Anthems - The Ultimate Collection - CD4\15.The Gap Band - Big Fun.wav

Peak level 89.1 %
Extraction speed 32.1 X
Track quality 99.9 %
Copy CRC 15C6E7C1
Track not present in AccurateRip database
Copy OK

Track 16

Filename A:\PsPBuRnOuT's MUSIC\SORTED BY YEAR\1980s\Take On Me - 80s Anthems - The Ultimate Collection\Take On Me - 80s Anthems - The Ultimate Collection - CD4\16.Narada Michael Walden - Divine Emotions.wav

Peak level 100.0 %
Extraction speed 30.2 X
Track quality 100.0 %
Copy CRC 9B84412A
Track not present in AccurateRip database
Copy OK

Track 17

Filename A:\PsPBuRnOuT's MUSIC\SORTED BY YEAR\1980s\Take On Me - 80s Anthems - The Ultimate Collection\Take On Me - 80s Anthems - The Ultimate Collection - CD4\17.Ten City - That's The Way Love Is.wav

Peak level 100.0 %
Extraction speed 31.4 X
Track quality 99.9 %
Copy CRC 282AD2F0
Track not present in AccurateRip database
Copy OK

Track 18

Filename A:\PsPBuRnOuT's MUSIC\SORTED BY YEAR\1980s\Take On Me - 80s Anthems - The Ultimate Collection\Take On Me - 80s Anthems - The Ultimate Collection - CD4\18.Richie Havens - Going Back To My Roots.wav

Peak level 100.0 %
Extraction speed 32.3 X
Track quality 100.0 %
Copy CRC 701D66EA
Track not present in AccurateRip database
Copy OK

Track 19

Filename A:\PsPBuRnOuT's MUSIC\SORTED BY YEAR\1980s\Take On Me - 80s Anthems - The Ultimate Collection\Take On Me - 80s Anthems - The Ultimate Collection - CD4\19.Grandmaster Flash & The Furious Five - The Message.wav

Peak level 92.5 %
Extraction speed 41.4 X
Track quality 100.0 %
Copy CRC 0F7F3F04
Track not present in AccurateRip database
Copy OK


None of the tracks are present in the AccurateRip database

No errors occurred

End of status report

–– CUETools DB Plugin V2.1.6

[CTDB TOCID: slrzYooUDYaMsNm.OlU4fTcRcs8-] found
Submit result: slrzYooUDYaMsNm.OlU4fTcRcs8- has been uploaded
Track | CTDB Status
1 | (1/1) Accurately ripped
2 | (1/1) Accurately ripped
3 | (1/1) Accurately ripped
4 | (1/1) Accurately ripped
5 | (1/1) Accurately ripped
6 | (1/1) Accurately ripped
7 | (1/1) Accurately ripped
8 | (1/1) Accurately ripped
9 | (1/1) Accurately ripped
10 | (1/1) Accurately ripped
11 | (1/1) Accurately ripped
12 | (1/1) Accurately ripped
13 | (1/1) Accurately ripped
14 | (1/1) Accurately ripped
15 | (1/1) Accurately ripped
16 | (0/1) No match
17 | (1/1) Accurately ripped
18 | (1/1) Accurately ripped
19 | (1/1) Accurately ripped

Exact Audio Copy V1.3 from 2. September 2016

EAC extraction logfile from 17. November 2019, 6:46

Various / Take On Me - 80s Anthems - The Ultimate Collection - CD5

Used drive : ATAPI iHAS124 Y Adapter: 1 ID: 0

Read mode : Secure
Utilize accurate stream : Yes
Defeat audio cache : No
Make use of C2 pointers : Yes

Read offset correction : 48
Overread into Lead-In and Lead-Out : No
Fill up missing offset samples with silence : Yes
Delete leading and trailing silent blocks : No
Null samples used in CRC calculations : Yes
Used interface : Native Win32 interface for Win NT & 2000
Gap handling : Not detected, thus appended to previous track

Used output format : User Defined Encoder
Selected bitrate : 768 kBit/s
Quality : High
Add ID3 tag : No
Command line compressor : C:\Program Files (x86)\Exact Audio Copy\FLAC\FLAC.EXE
Additional command line options : -6 -V -T "ARTIST=%artist%" -T "TITLE=%title%" -T "ALBUM=%albumtitle%" -T "DATE=%year%" -T "TRACKNUMBER=%tracknr%" -T "GENRE=%genre%" -T "COMMENT=%comment%" -T "BAND=%albuminterpret%" -T "ALBUMARTIST=%albuminterpret%" -T "COMPOSER=%composer%" %haslyrics%–tag-from-file=LYRICS="%lyricsfile%"%haslyrics% -T "DISCNUMBER=%cdnumber%" -T "TOTALDISCS=%totalcds%" -T "TOTALTRACKS=%numtracks%" %hascover%–picture="%coverfile%"%hascover% %source% -o %dest%


TOC of the extracted CD

Track | Start | Length | Start sector | End sector
––––––––––––––––––––––––––––-
1 | 0:00.00 | 2:41.23 | 0 | 12097
2 | 2:41.23 | 3:20.04 | 12098 | 27101
3 | 6:01.27 | 3:56.09 | 27102 | 44810
4 | 9:57.36 | 4:04.25 | 44811 | 63135
5 | 14:01.61 | 3:50.05 | 63136 | 80390
6 | 17:51.66 | 3:25.68 | 80391 | 95833
7 | 21:17.59 | 4:05.06 | 95834 | 114214
8 | 25:22.65 | 2:42.16 | 114215 | 126380
9 | 28:05.06 | 2:47.24 | 126381 | 138929
10 | 30:52.30 | 3:05.17 | 138930 | 152821
11 | 33:57.47 | 3:09.14 | 152822 | 167010
12 | 37:06.61 | 4:03.41 | 167011 | 185276
13 | 41:10.27 | 4:10.01 | 185277 | 204027
14 | 45:20.28 | 3:38.38 | 204028 | 220415
15 | 48:58.66 | 4:15.65 | 220416 | 239605
16 | 53:14.56 | 3:25.07 | 239606 | 254987
17 | 56:39.63 | 3:23.72 | 254988 | 270284
18 | 60:03.60 | 4:18.54 | 270285 | 289688
19 | 64:22.39 | 2:59.17 | 289689 | 303130
20 | 67:21.56 | 2:51.48 | 303131 | 316003
21 | 70:13.29 | 2:59.02 | 316004 | 329430


Track 1

Filename A:\PsPBuRnOuT's MUSIC\SORTED BY YEAR\1980s\Take On Me - 80s Anthems - The Ultimate Collection\Take On Me - 80s Anthems - The Ultimate Collection - CD5\01.Madness - Baggy Trousers.wav

Peak level 87.1 %
Extraction speed 13.1 X
Track quality 100.0 %
Copy CRC 858175A2
Track not present in AccurateRip database
Copy OK

Track 2

Filename A:\PsPBuRnOuT's MUSIC\SORTED BY YEAR\1980s\Take On Me - 80s Anthems - The Ultimate Collection\Take On Me - 80s Anthems - The Ultimate Collection - CD5\02.Joy Division - Love Will Tear Us Apart.wav

Peak level 100.0 %
Extraction speed 19.7 X
Track quality 100.0 %
Copy CRC 1452317F
Track not present in AccurateRip database
Copy OK

Track 3

Filename A:\PsPBuRnOuT's MUSIC\SORTED BY YEAR\1980s\Take On Me - 80s Anthems - The Ultimate Collection\Take On Me - 80s Anthems - The Ultimate Collection - CD5\03.The Jesus & Mary Chain - April Skies.wav

Peak level 89.1 %
Extraction speed 18.9 X
Track quality 99.9 %
Copy CRC 76EB0079
Track not present in AccurateRip database
Copy OK

Track 4

Filename A:\PsPBuRnOuT's MUSIC\SORTED BY YEAR\1980s\Take On Me - 80s Anthems - The Ultimate Collection\Take On Me - 80s Anthems - The Ultimate Collection - CD5\04.New Order - True Faith.wav

Peak level 88.1 %
Extraction speed 18.4 X
Track quality 100.0 %
Copy CRC E9737964
Track not present in AccurateRip database
Copy OK

Track 5

Filename A:\PsPBuRnOuT's MUSIC\SORTED BY YEAR\1980s\Take On Me - 80s Anthems - The Ultimate Collection\Take On Me - 80s Anthems - The Ultimate Collection - CD5\05.Echo & The Bunnymen - The Cutter.wav

Peak level 89.1 %
Extraction speed 21.1 X
Track quality 99.9 %
Copy CRC 98D74933
Track not present in AccurateRip database
Copy OK

Track 6

Filename A:\PsPBuRnOuT's MUSIC\SORTED BY YEAR\1980s\Take On Me - 80s Anthems - The Ultimate Collection\Take On Me - 80s Anthems - The Ultimate Collection - CD5\06.Dexy's Midnight Runners - Geno.wav

Peak level 100.0 %
Extraction speed 21.8 X
Track quality 100.0 %
Copy CRC 50BAA705
Track not present in AccurateRip database
Copy OK

Track 7

Filename A:\PsPBuRnOuT's MUSIC\SORTED BY YEAR\1980s\Take On Me - 80s Anthems - The Ultimate Collection\Take On Me - 80s Anthems - The Ultimate Collection - CD5\07.The Untouchables - Free Yourself.wav

Peak level 86.0 %
Extraction speed 28.2 X
Track quality 100.0 %
Copy CRC 7F08C7CD
Track not present in AccurateRip database
Copy OK

Track 8

Filename A:\PsPBuRnOuT's MUSIC\SORTED BY YEAR\1980s\Take On Me - 80s Anthems - The Ultimate Collection\Take On Me - 80s Anthems - The Ultimate Collection - CD5\08.The Lambrettas - Poison Ivy.wav

Peak level 100.0 %
Extraction speed 22.4 X
Track quality 99.8 %
Copy CRC 166902B0
Track not present in AccurateRip database
Copy OK

Track 9

Filename A:\PsPBuRnOuT's MUSIC\SORTED BY YEAR\1980s\Take On Me - 80s Anthems - The Ultimate Collection\Take On Me - 80s Anthems - The Ultimate Collection - CD5\09.Los Lobos - La Bamba.wav

Peak level 89.0 %
Extraction speed 22.8 X
Track quality 100.0 %
Copy CRC 657C8EE5
Track not present in AccurateRip database
Copy OK

Track 10

Filename A:\PsPBuRnOuT's MUSIC\SORTED BY YEAR\1980s\Take On Me - 80s Anthems - The Ultimate Collection\Take On Me - 80s Anthems - The Ultimate Collection - CD5\10.Elvis Costello - Veronica.wav

Peak level 100.0 %
Extraction speed 31.1 X
Track quality 100.0 %
Copy CRC 44D1A874
Track not present in AccurateRip database
Copy OK

Track 11

Filename A:\PsPBuRnOuT's MUSIC\SORTED BY YEAR\1980s\Take On Me - 80s Anthems - The Ultimate Collection\Take On Me - 80s Anthems - The Ultimate Collection - CD5\11.Aztec Camera - Oblivious.wav

Peak level 94.8 %
Extraction speed 15.2 X
Track quality 99.8 %
Copy CRC 18767393
Track not present in AccurateRip database
Copy OK

Track 12

Filename A:\PsPBuRnOuT's MUSIC\SORTED BY YEAR\1980s\Take On Me - 80s Anthems - The Ultimate Collection\Take On Me - 80s Anthems - The Ultimate Collection - CD5\12.David Lee Roth - Just Like Paradise.wav

Peak level 100.0 %
Extraction speed 26.5 X
Track quality 100.0 %
Copy CRC 6DD17A39
Track not present in AccurateRip database
Copy OK

Track 13

Filename A:\PsPBuRnOuT's MUSIC\SORTED BY YEAR\1980s\Take On Me - 80s Anthems - The Ultimate Collection\Take On Me - 80s Anthems - The Ultimate Collection - CD5\13.ZZ Top - Sharp Dressed Man.wav

Peak level 100.0 %
Extraction speed 32.0 X
Track quality 100.0 %
Copy CRC 2FEE9337
Track not present in AccurateRip database
Copy OK

Track 14

Filename A:\PsPBuRnOuT's MUSIC\SORTED BY YEAR\1980s\Take On Me - 80s Anthems - The Ultimate Collection\Take On Me - 80s Anthems - The Ultimate Collection - CD5\14.A Flock Of Seagulls - I Ran.wav

Peak level 88.1 %
Extraction speed 33.5 X
Track quality 100.0 %
Copy CRC E0939FE1
Track not present in AccurateRip database
Copy OK

Track 15

Filename A:\PsPBuRnOuT's MUSIC\SORTED BY YEAR\1980s\Take On Me - 80s Anthems - The Ultimate Collection\Take On Me - 80s Anthems - The Ultimate Collection - CD5\15.Frankie Goes To Hollywood - Watching The Wildlife.wav

Peak level 99.4 %
Extraction speed 29.3 X
Track quality 99.9 %
Copy CRC 8EFCFB4F
Track not present in AccurateRip database
Copy OK

Track 16

Filename A:\PsPBuRnOuT's MUSIC\SORTED BY YEAR\1980s\Take On Me - 80s Anthems - The Ultimate Collection\Take On Me - 80s Anthems - The Ultimate Collection - CD5\16.Mobiles - Drowning In Berlin.wav

Peak level 91.6 %
Extraction speed 26.9 X
Track quality 100.0 %
Copy CRC 12BBC1DC
Track not present in AccurateRip database
Copy OK

Track 17

Filename A:\PsPBuRnOuT's MUSIC\SORTED BY YEAR\1980s\Take On Me - 80s Anthems - The Ultimate Collection\Take On Me - 80s Anthems - The Ultimate Collection - CD5\17.The Fall - Totally Wired.wav

Peak level 100.0 %
Extraction speed 29.1 X
Track quality 99.8 %
Copy CRC 79E91887
Track not present in AccurateRip database
Copy OK

Track 18

Filename A:\PsPBuRnOuT's MUSIC\SORTED BY YEAR\1980s\Take On Me - 80s Anthems - The Ultimate Collection\Take On Me - 80s Anthems - The Ultimate Collection - CD5\18.New Model Army - Vagabonds.wav

Peak level 100.0 %
Extraction speed 27.1 X
Track quality 100.0 %
Copy CRC A1F1D73F
Track not present in AccurateRip database
Copy OK

Track 19

Filename A:\PsPBuRnOuT's MUSIC\SORTED BY YEAR\1980s\Take On Me - 80s Anthems - The Ultimate Collection\Take On Me - 80s Anthems - The Ultimate Collection - CD5\19.Stray Cats - Runaway Boys.wav

Peak level 100.0 %
Extraction speed 39.7 X
Track quality 100.0 %
Copy CRC ECC5FFEA
Track not present in AccurateRip database
Copy OK

Track 20

Filename A:\PsPBuRnOuT's MUSIC\SORTED BY YEAR\1980s\Take On Me - 80s Anthems - The Ultimate Collection\Take On Me - 80s Anthems - The Ultimate Collection - CD5\20.Tenpole Tudor - Wunderbar.wav

Peak level 99.7 %
Extraction speed 37.9 X
Track quality 100.0 %
Copy CRC 4E5800C2
Track not present in AccurateRip database
Copy OK

Track 21

Filename A:\PsPBuRnOuT's MUSIC\SORTED BY YEAR\1980s\Take On Me - 80s Anthems - The Ultimate Collection\Take On Me - 80s Anthems - The Ultimate Collection - CD5\21.Toy Dolls - Nellie The Elephant.wav

Peak level 78.5 %
Extraction speed 38.7 X
Track quality 100.0 %
Copy CRC 2275C509
Track not present in AccurateRip database
Copy OK


None of the tracks are present in the AccurateRip database

No errors occurred

End of status report

–– CUETools DB Plugin V2.1.6

[CTDB TOCID: 6bwsbLRbGpW4acWCS6VTcx7gkNA-] found
Submit result: 6bwsbLRbGpW4acWCS6VTcx7gkNA- has been uploaded
Track | CTDB Status
1 | (1/1) Accurately ripped
2 | (1/1) Accurately ripped
3 | (1/1) Accurately ripped
4 | (1/1) Accurately ripped
5 | (1/1) Accurately ripped
6 | (1/1) Accurately ripped
7 | (1/1) Accurately ripped
8 | (1/1) Accurately ripped
9 | (1/1) Accurately ripped
10 | (1/1) Accurately ripped
11 | (1/1) Accurately ripped
12 | (1/1) Accurately ripped
13 | (1/1) Accurately ripped
14 | (1/1) Accurately ripped
15 | (1/1) Accurately ripped
16 | (1/1) Accurately ripped
17 | (1/1) Accurately ripped
18 | (1/1) Accurately ripped
19 | (1/1) Accurately ripped
20 | (1/1) Accurately ripped
21 | (1/1) Accurately ripped