Subcategories
Tags
Language
Tags

VA - The Best Of Big Band (2008) {4CD Box Set}

Posted By: popsakov
VA - The Best Of Big Band (2008) {4CD Box Set}

VA - The Best Of Big Band (2003) {2008, 4CD Box Set, Reissue}
EAC Rip | FLAC (Img) + Cue + Log ~ 968 Mb | MP3 CBR320 ~ 441 Mb
Full Scans ~ 101 Mb | 03:02:38 | RAR 5% Recovery
Jazz, Swing, Big Band | Madacy Special Products #BFP2 54101

At the very beginning, jazz was called "a combination of nervousness, lawlessness, primitive and wild animalism and debauchery." This definition was given by a more conservative generation who considered jazz a decadent phenomenon. However, despite such estimates, jazz came to its heyday in the 20s, and in the 30s and 40s determined not only the musical fashion, but also the lifestyle of that time in general. The 4CD compilation presented here is a great example of popular music from the 40s of the last century. The time when Glenn Miller and his orchestra, Benny Goodman, Duke Ellington, Artie Shaw, Woody Herman and other orchestras shone on the stage. These melodies of a bygone era, performed by old Big Bands, leave not only a feeling of nostalgia, which sweetly freezes the heart, but also hope for the next meeting, because you want to listen to this music again and again.

***************

Track List CD1:

01. Glenn Miller Orchestra - Chattanoogo Choo Choo (2:27)
02. Benny Goodman - One O'Clock Jump (7:38)
03. Duke Ellington - Honeysuckle Rose (3:11)
04. Tommy Dorsey - Song Of India (3:08)
05. Count Basie - Hittin' Twelve (2:09)
06. Glenn Miller Orchestra - Kalamazoo (2:39)
07. Duke Ellington - Tea For Two (1:50)
08. Les Brown - Sentimental Journey (2:38)
09. Benny Goodman - Jersey Bounce (2:59)
10. Count Basie - Lester Leaps In (4:03)
11. Glenn Miller Orchestra - Moonlight Cocktail (1:41)
12. Artie Shaw - Cream Puff (2:50)
13. Duke Ellington - Tootie For Cookie (6:31)

Exact Audio Copy V1.1 from 23. June 2015

EAC extraction logfile from 25. May 2020, 11:29

Various / The Best of Big Band (CD1)

Used drive : MATSHITADVD+-RW SW830 Adapter: 1 ID: 0

Read mode : Secure
Utilize accurate stream : Yes
Defeat audio cache : Yes
Make use of C2 pointers : No

Read offset correction : 6
Overread into Lead-In and Lead-Out : No
Fill up missing offset samples with silence : Yes
Delete leading and trailing silent blocks : No
Null samples used in CRC calculations : Yes
Used interface : Native Win32 interface for Win NT & 2000

Used output format : User Defined Encoder
Selected bitrate : 768 kBit/s
Quality : High
Add ID3 tag : No
Command line compressor : C:\Program Files (x86)\Exact Audio Copy\FLAC\FLAC.EXE
Additional command line options : -6 -V -T "ARTIST=%artist%" -T "TITLE=%title%" -T "ALBUM=%albumtitle%" -T "DATE=%year%" -T "TRACKNUMBER=%tracknr%" -T "GENRE=%genre%" -T "COMMENT=%comment%" -T "BAND=%albuminterpret%" -T "ALBUMARTIST=%albuminterpret%" -T "COMPOSER=%composer%" %haslyrics%–tag-from-file=LYRICS="%lyricsfile%"%haslyrics% -T "DISCNUMBER=%cdnumber%" -T "TOTALDISCS=%totalcds%" -T "TOTALTRACKS=%numtracks%" %hascover%–picture="%coverfile%"%hascover% %source% -o %dest%


TOC of the extracted CD

Track | Start | Length | Start sector | End sector
––––––––––––––––––––––––––––-
1 | 0:00.00 | 2:27.04 | 0 | 11028
2 | 2:27.04 | 7:38.11 | 11029 | 45389
3 | 10:05.15 | 3:11.36 | 45390 | 59750
4 | 13:16.51 | 3:08.38 | 59751 | 73888
5 | 16:25.14 | 2:09.34 | 73889 | 83597
6 | 18:34.48 | 2:39.55 | 83598 | 95577
7 | 21:14.28 | 1:50.40 | 95578 | 103867
8 | 23:04.68 | 2:38.03 | 103868 | 115720
9 | 25:42.71 | 2:59.09 | 115721 | 129154
10 | 28:42.05 | 4:03.27 | 129155 | 147406
11 | 32:45.32 | 1:41.15 | 147407 | 154996
12 | 34:26.47 | 2:50.08 | 154997 | 167754
13 | 37:16.55 | 6:31.17 | 167755 | 197096


Range status and errors

Selected range

Filename C:\Users\Boris\Desktop\lossless\BesBigBan4\CD1\Various - The Best of Big Band (CD1).wav

Peak level 96.5 %
Extraction speed 6.7 X
Range quality 100.0 %
Test CRC 8FD437D6
Copy CRC 8FD437D6
Copy OK

No errors occurred


AccurateRip summary

Track 1 cannot be verified as accurate (confidence 5) [84816BB4], AccurateRip returned [7B7EDB57] (AR v2)
Track 2 cannot be verified as accurate (confidence 5) [DE99035A], AccurateRip returned [D775D6A1] (AR v2)
Track 3 cannot be verified as accurate (confidence 5) [F004BE4A], AccurateRip returned [54D56D28] (AR v2)
Track 4 cannot be verified as accurate (confidence 5) [5EBF92E2], AccurateRip returned [8BD0D550] (AR v2)
Track 5 cannot be verified as accurate (confidence 5) [D365E852], AccurateRip returned [1E27AA29] (AR v2)
Track 6 cannot be verified as accurate (confidence 5) [EE7F35EB], AccurateRip returned [C8AAA0B7] (AR v2)
Track 7 cannot be verified as accurate (confidence 5) [5D9F10FF], AccurateRip returned [BCEBFDF9] (AR v2)
Track 8 cannot be verified as accurate (confidence 5) [C3D84ABF], AccurateRip returned [E634D9AC] (AR v2)
Track 9 cannot be verified as accurate (confidence 5) [21C37583], AccurateRip returned [1B895002] (AR v2)
Track 10 cannot be verified as accurate (confidence 5) [D0DB0775], AccurateRip returned [992D8735] (AR v2)
Track 11 cannot be verified as accurate (confidence 5) [8DAFF755], AccurateRip returned [9C9DEA54] (AR v2)
Track 12 cannot be verified as accurate (confidence 5) [3A4D98F3], AccurateRip returned [8E31AD52] (AR v2)
Track 13 cannot be verified as accurate (confidence 5) [A3A612EC], AccurateRip returned [CEA7CA0D] (AR v2)

No tracks could be verified as accurate
You may have a different pressing from the one(s) in the database

End of status report

–– CUETools DB Plugin V2.1.6

[CTDB TOCID: gy17KfERBfbZBHfT0CWVGtq3_84-] found
Submit result: already submitted
Track | CTDB Status
1 | (21/21) Accurately ripped
2 | (21/21) Accurately ripped
3 | (21/21) Accurately ripped
4 | (21/21) Accurately ripped
5 | (21/21) Accurately ripped
6 | (20/21) Accurately ripped
7 | (21/21) Accurately ripped
8 | (21/21) Accurately ripped
9 | (21/21) Accurately ripped
10 | (21/21) Accurately ripped
11 | (21/21) Accurately ripped
12 | (21/21) Accurately ripped
13 | (21/21) Accurately ripped


==== Log checksum 940746647B7E4DDC0725ABF8B0D2FE5FD79A14BE0A03BBC949D25EFF24F9A387 ====

Track List CD2:

01. Glenn Miller Orchestra - In The Mood (3:18)
02. Duke Ellington - Sophisticated Lady (2:59)
03. Glenn Miller Orchestra - Johnson Rag (5:19)
04. Woody Herman - Blowin' Up A Storm (2:55)
05. Benny Goodman - King Porter Stomp (3:18)
06. Tommy Dorsey - I Dream Of You (2:43)
07. Glenn Miller Orchestra - Bugle Call Rag (2:37)
08. Woody Herman - Woodchopper's Ball (4:51)
09. Benny Goodman - How High The Moon (8:47)
10. Benny Goodman - Stompin' At The Savoy (2:26)
11. Glenn Miller Orchestra - Sunrise Serenade (3:16)
12. Woody Herman - After Glow (3:16)
13. Tommy Dorsey - This Love Of Mine (2:16)

Exact Audio Copy V1.1 from 23. June 2015

EAC extraction logfile from 25. May 2020, 12:04

Various / The Best of Big Band (CD 2 of 4)

Used drive : MATSHITADVD+-RW SW830 Adapter: 1 ID: 0

Read mode : Secure
Utilize accurate stream : Yes
Defeat audio cache : Yes
Make use of C2 pointers : No

Read offset correction : 6
Overread into Lead-In and Lead-Out : No
Fill up missing offset samples with silence : Yes
Delete leading and trailing silent blocks : No
Null samples used in CRC calculations : Yes
Used interface : Native Win32 interface for Win NT & 2000

Used output format : User Defined Encoder
Selected bitrate : 768 kBit/s
Quality : High
Add ID3 tag : No
Command line compressor : C:\Program Files (x86)\Exact Audio Copy\FLAC\FLAC.EXE
Additional command line options : -6 -V -T "ARTIST=%artist%" -T "TITLE=%title%" -T "ALBUM=%albumtitle%" -T "DATE=%year%" -T "TRACKNUMBER=%tracknr%" -T "GENRE=%genre%" -T "COMMENT=%comment%" -T "BAND=%albuminterpret%" -T "ALBUMARTIST=%albuminterpret%" -T "COMPOSER=%composer%" %haslyrics%–tag-from-file=LYRICS="%lyricsfile%"%haslyrics% -T "DISCNUMBER=%cdnumber%" -T "TOTALDISCS=%totalcds%" -T "TOTALTRACKS=%numtracks%" %hascover%–picture="%coverfile%"%hascover% %source% -o %dest%


TOC of the extracted CD

Track | Start | Length | Start sector | End sector
––––––––––––––––––––––––––––-
1 | 0:00.00 | 3:18.66 | 0 | 14915
2 | 3:18.66 | 2:59.74 | 14916 | 28414
3 | 6:18.65 | 5:19.66 | 28415 | 52405
4 | 11:38.56 | 2:55.08 | 52406 | 65538
5 | 14:33.64 | 3:18.05 | 65539 | 80393
6 | 17:51.69 | 2:43.29 | 80394 | 92647
7 | 20:35.23 | 2:37.31 | 92648 | 104453
8 | 23:12.54 | 4:51.46 | 104454 | 126324
9 | 28:04.25 | 8:47.17 | 126325 | 165866
10 | 36:51.42 | 2:26.16 | 165867 | 176832
11 | 39:17.58 | 3:16.07 | 176833 | 191539
12 | 42:33.65 | 3:16.52 | 191540 | 206291
13 | 45:50.42 | 2:16.73 | 206292 | 216564


Range status and errors

Selected range

Filename C:\Users\Boris\Desktop\lossless\BesBigBan4\CD2\Various - The Best of Big Band (CD 2 of 4).wav

Peak level 96.5 %
Extraction speed 6.8 X
Range quality 100.0 %
Test CRC E6E2DF34
Copy CRC E6E2DF34
Copy OK

No errors occurred


AccurateRip summary

Track 1 cannot be verified as accurate (confidence 8) [0C133C92], AccurateRip returned [A0661AC4] (AR v2)
Track 2 cannot be verified as accurate (confidence 8) [6C7B4812], AccurateRip returned [825A14F4] (AR v2)
Track 3 cannot be verified as accurate (confidence 8) [3F8155CE], AccurateRip returned [83A820AA] (AR v2)
Track 4 cannot be verified as accurate (confidence 8) [2C795E3F], AccurateRip returned [81CBDB1F] (AR v2)
Track 5 cannot be verified as accurate (confidence 8) [CBF785E2], AccurateRip returned [EF648D33] (AR v2)
Track 6 cannot be verified as accurate (confidence 8) [7E5A25BF], AccurateRip returned [E565D6C8] (AR v2)
Track 7 cannot be verified as accurate (confidence 7) [F5EBD91B], AccurateRip returned [04BD3911] (AR v2)
Track 8 cannot be verified as accurate (confidence 8) [4F748664], AccurateRip returned [A89A57E4] (AR v2)
Track 9 cannot be verified as accurate (confidence 8) [77CA7E99], AccurateRip returned [664563CD] (AR v2)
Track 10 cannot be verified as accurate (confidence 8) [980D1060], AccurateRip returned [0F21B832] (AR v2)
Track 11 cannot be verified as accurate (confidence 8) [ED73FB33], AccurateRip returned [1AE65AC9] (AR v2)
Track 12 cannot be verified as accurate (confidence 8) [6CEC637E], AccurateRip returned [75252C2A] (AR v2)
Track 13 cannot be verified as accurate (confidence 8) [BDF8F4B4], AccurateRip returned [35057990] (AR v2)

No tracks could be verified as accurate
You may have a different pressing from the one(s) in the database

End of status report

–– CUETools DB Plugin V2.1.6

[CTDB TOCID: O5ALOutbE_jE7rgDsjGQZyyxiAY-] found
Submit result: O5ALOutbE_jE7rgDsjGQZyyxiAY- has been confirmed
Track | CTDB Status
1 | (18/18) Accurately ripped
2 | (18/18) Accurately ripped
3 | (18/18) Accurately ripped
4 | (18/18) Accurately ripped
5 | (18/18) Accurately ripped
6 | (18/18) Accurately ripped
7 | (18/18) Accurately ripped
8 | (18/18) Accurately ripped
9 | (18/18) Accurately ripped
10 | (18/18) Accurately ripped
11 | (18/18) Accurately ripped
12 | (18/18) Accurately ripped
13 | (18/18) Accurately ripped


==== Log checksum C13AEF8AB198A9EA6F77F415DBDF333CB3F9EFA9D6500C19FD4F96690C0CAB03 ====

Track List CD3:

01. Duke Ellington - Satin Doll (9:05)
02. Glenn Miller Orchestra - Little Brown Jug (3:01)
03. Count Basie - April In Paris (2:41)
04. Benny Goodman - Frankie & Johnny (2:56)
05. Woody Herman - Aint Misbehavin' (1:58)
06. Tommy Dorsey - In A Little Spanish Town (2:44)
07. Duke Ellington - Take The "A" Train (3:02)
08. Duke Ellington - The Mooche (5:27)
09. Glenn Miller Orchestra - American Patrol (3:35)
10. Count Basie - 920: Special (3:49)
11. Benny Goodman - Seven Come Eleven (6:39)
12. Glenn Miller Orchestra - Tuxedo Junction (3:30)

Exact Audio Copy V1.1 from 23. June 2015

EAC extraction logfile from 25. May 2020, 12:33

Various / The Best of Big Band [disc 03]

Used drive : MATSHITADVD+-RW SW830 Adapter: 1 ID: 0

Read mode : Secure
Utilize accurate stream : Yes
Defeat audio cache : Yes
Make use of C2 pointers : No

Read offset correction : 6
Overread into Lead-In and Lead-Out : No
Fill up missing offset samples with silence : Yes
Delete leading and trailing silent blocks : No
Null samples used in CRC calculations : Yes
Used interface : Native Win32 interface for Win NT & 2000

Used output format : User Defined Encoder
Selected bitrate : 768 kBit/s
Quality : High
Add ID3 tag : No
Command line compressor : C:\Program Files (x86)\Exact Audio Copy\FLAC\FLAC.EXE
Additional command line options : -6 -V -T "ARTIST=%artist%" -T "TITLE=%title%" -T "ALBUM=%albumtitle%" -T "DATE=%year%" -T "TRACKNUMBER=%tracknr%" -T "GENRE=%genre%" -T "COMMENT=%comment%" -T "BAND=%albuminterpret%" -T "ALBUMARTIST=%albuminterpret%" -T "COMPOSER=%composer%" %haslyrics%–tag-from-file=LYRICS="%lyricsfile%"%haslyrics% -T "DISCNUMBER=%cdnumber%" -T "TOTALDISCS=%totalcds%" -T "TOTALTRACKS=%numtracks%" %hascover%–picture="%coverfile%"%hascover% %source% -o %dest%


TOC of the extracted CD

Track | Start | Length | Start sector | End sector
––––––––––––––––––––––––––––-
1 | 0:00.00 | 9:05.15 | 0 | 40889
2 | 9:05.15 | 3:01.21 | 40890 | 54485
3 | 12:06.36 | 2:41.53 | 54486 | 66613
4 | 14:48.14 | 2:56.70 | 66614 | 79883
5 | 17:45.09 | 1:58.64 | 79884 | 88797
6 | 19:43.73 | 2:44.40 | 88798 | 101137
7 | 22:28.38 | 3:02.50 | 101138 | 114837
8 | 25:31.13 | 5:27.52 | 114838 | 139414
9 | 30:58.65 | 3:35.66 | 139415 | 155605
10 | 34:34.56 | 3:49.33 | 155606 | 172813
11 | 38:24.14 | 6:39.24 | 172814 | 202762
12 | 45:03.38 | 3:30.63 | 202763 | 218575


Range status and errors

Selected range

Filename C:\Users\Boris\Desktop\lossless\BesBigBan4\CD3\Various - The Best of Big Band [disc 03].wav

Peak level 96.5 %
Extraction speed 6.8 X
Range quality 100.0 %
Test CRC F45CEFEB
Copy CRC F45CEFEB
Copy OK

No errors occurred


AccurateRip summary

Track 1 cannot be verified as accurate (confidence 5) [2E338FE8], AccurateRip returned [CDFD64BF] (AR v2)
Track 2 cannot be verified as accurate (confidence 5) [BB70F33F], AccurateRip returned [F6A97ECF] (AR v2)
Track 3 cannot be verified as accurate (confidence 5) [C1EBE21C], AccurateRip returned [FEB33162] (AR v2)
Track 4 cannot be verified as accurate (confidence 5) [0EA3BD74], AccurateRip returned [6B0BE874] (AR v2)
Track 5 cannot be verified as accurate (confidence 5) [38C0F023], AccurateRip returned [A0BE204D] (AR v2)
Track 6 cannot be verified as accurate (confidence 5) [0EE30A71], AccurateRip returned [2EEFC188] (AR v2)
Track 7 cannot be verified as accurate (confidence 5) [9A2C8BFC], AccurateRip returned [DFD27D39] (AR v2)
Track 8 cannot be verified as accurate (confidence 5) [3F9DA8F7], AccurateRip returned [929B4B23] (AR v2)
Track 9 cannot be verified as accurate (confidence 5) [EEED0A6D], AccurateRip returned [BE1E4EE6] (AR v2)
Track 10 cannot be verified as accurate (confidence 5) [F542632E], AccurateRip returned [4711DC84] (AR v2)
Track 11 cannot be verified as accurate (confidence 5) [DFA1405A], AccurateRip returned [2D25B49D] (AR v2)
Track 12 cannot be verified as accurate (confidence 5) [56E730C1], AccurateRip returned [4A29555D] (AR v2)

No tracks could be verified as accurate
You may have a different pressing from the one(s) in the database

End of status report

–– CUETools DB Plugin V2.1.6

[CTDB TOCID: mqzP_IhIVF7uslhJUdGPqwp9dsA-] found
Submit result: mqzP_IhIVF7uslhJUdGPqwp9dsA- has been confirmed
Track | CTDB Status
1 | (18/18) Accurately ripped
2 | (18/18) Accurately ripped
3 | (18/18) Accurately ripped
4 | (18/18) Accurately ripped
5 | (18/18) Accurately ripped
6 | (18/18) Accurately ripped
7 | (18/18) Accurately ripped
8 | (18/18) Accurately ripped
9 | (18/18) Accurately ripped
10 | (18/18) Accurately ripped
11 | (18/18) Accurately ripped
12 | (18/18) Accurately ripped


==== Log checksum FE5791931EFFC552908A28C2E2530587D88C649AC4C3815111359E630C8BFF5D ====

Track List CD4:

01. Les Brown - Blue Moon (3:08)
02. Benny Goodman - Stardust (3:27)
03. Glenn Miller Orchestra - Pennsylvania 6-5000 (3:13)
04. Duke Ellington - Caravan (2:49)
05. Wood Herman - Mood Indigo (6:15)
06. Benny Goodman - Jumping At The Woodside (3:13)
07. Count Basie - Stormy Monday Blues (3:12)
08. Benny Goodman - Down South Camp Meeting (2:56)
09. Glenn Miller Orchestra - String Of Pearls (2:57)
10. Artie Shaw - Lambeth Walk (2:24)
11. Benny Goodman - That's A Plenty (6:41)
12. Glenn Miller Orchestra - Serenade In Blue (2:11)

Exact Audio Copy V1.1 from 23. June 2015

EAC extraction logfile from 25. May 2020, 13:17

Various / The Best of Big Band (CD 4 of 4)

Used drive : MATSHITADVD+-RW SW830 Adapter: 1 ID: 0

Read mode : Secure
Utilize accurate stream : Yes
Defeat audio cache : Yes
Make use of C2 pointers : No

Read offset correction : 6
Overread into Lead-In and Lead-Out : No
Fill up missing offset samples with silence : Yes
Delete leading and trailing silent blocks : No
Null samples used in CRC calculations : Yes
Used interface : Native Win32 interface for Win NT & 2000

Used output format : User Defined Encoder
Selected bitrate : 768 kBit/s
Quality : High
Add ID3 tag : No
Command line compressor : C:\Program Files (x86)\Exact Audio Copy\FLAC\FLAC.EXE
Additional command line options : -6 -V -T "ARTIST=%artist%" -T "TITLE=%title%" -T "ALBUM=%albumtitle%" -T "DATE=%year%" -T "TRACKNUMBER=%tracknr%" -T "GENRE=%genre%" -T "COMMENT=%comment%" -T "BAND=%albuminterpret%" -T "ALBUMARTIST=%albuminterpret%" -T "COMPOSER=%composer%" %haslyrics%–tag-from-file=LYRICS="%lyricsfile%"%haslyrics% -T "DISCNUMBER=%cdnumber%" -T "TOTALDISCS=%totalcds%" -T "TOTALTRACKS=%numtracks%" %hascover%–picture="%coverfile%"%hascover% %source% -o %dest%


TOC of the extracted CD

Track | Start | Length | Start sector | End sector
––––––––––––––––––––––––––––-
1 | 0:00.00 | 3:08.70 | 0 | 14169
2 | 3:08.70 | 3:27.08 | 14170 | 29702
3 | 6:36.03 | 3:13.31 | 29703 | 44208
4 | 9:49.34 | 2:49.15 | 44209 | 56898
5 | 12:38.49 | 6:15.18 | 56899 | 85041
6 | 18:53.67 | 3:13.11 | 85042 | 99527
7 | 22:07.03 | 3:12.66 | 99528 | 113993
8 | 25:19.69 | 2:56.71 | 113994 | 127264
9 | 28:16.65 | 2:57.35 | 127265 | 140574
10 | 31:14.25 | 2:24.70 | 140575 | 151444
11 | 33:39.20 | 6:41.43 | 151445 | 181562
12 | 40:20.63 | 2:11.73 | 181563 | 191460


Range status and errors

Selected range

Filename C:\Users\Boris\Desktop\lossless\BesBigBan4\CD4\Various - The Best of Big Band (CD 4 of 4).wav

Peak level 96.5 %
Extraction speed 6.6 X
Range quality 100.0 %
Test CRC EC3C4550
Copy CRC EC3C4550
Copy OK

No errors occurred


AccurateRip summary

Track 1 cannot be verified as accurate (confidence 4) [77159E18], AccurateRip returned [B5E34F18] (AR v2)
Track 2 cannot be verified as accurate (confidence 4) [73EE5A44], AccurateRip returned [6FB10713] (AR v2)
Track 3 cannot be verified as accurate (confidence 5) [3FE2A524], AccurateRip returned [2D00146C] (AR v2)
Track 4 cannot be verified as accurate (confidence 5) [216E2B39], AccurateRip returned [96D6D54F] (AR v2)
Track 5 cannot be verified as accurate (confidence 5) [0251BFC1], AccurateRip returned [8B9E7889] (AR v2)
Track 6 cannot be verified as accurate (confidence 5) [334A60D7], AccurateRip returned [C04B7D59] (AR v2)
Track 7 cannot be verified as accurate (confidence 4) [5E51EDE3], AccurateRip returned [4895DBE9] (AR v2)
Track 8 cannot be verified as accurate (confidence 4) [C5A8C3D4], AccurateRip returned [8E6D2C11] (AR v2)
Track 9 cannot be verified as accurate (confidence 5) [6B9BD673], AccurateRip returned [B0A6D091] (AR v2)
Track 10 cannot be verified as accurate (confidence 4) [A047D35F], AccurateRip returned [C1455D79] (AR v2)
Track 11 cannot be verified as accurate (confidence 4) [E589C7DE], AccurateRip returned [16EE0243] (AR v2)
Track 12 cannot be verified as accurate (confidence 4) [37C54093], AccurateRip returned [A7F519FA] (AR v2)

No tracks could be verified as accurate
You may have a different pressing from the one(s) in the database

End of status report

–– CUETools DB Plugin V2.1.6

[CTDB TOCID: kZS2Hx.W97qqPu4jR2b_aDE0lQg-] found
Submit result: kZS2Hx.W97qqPu4jR2b_aDE0lQg- has been confirmed
Track | CTDB Status
1 | (20/20) Accurately ripped
2 | (20/20) Accurately ripped
3 | (20/20) Accurately ripped
4 | (20/20) Accurately ripped
5 | (20/20) Accurately ripped
6 | (20/20) Accurately ripped
7 | (20/20) Accurately ripped
8 | (20/20) Accurately ripped
9 | (20/20) Accurately ripped
10 | (20/20) Accurately ripped
11 | (20/20) Accurately ripped
12 | (20/20) Accurately ripped


==== Log checksum 8A55AC75C71554439CEAB8BEDDCBEED07FA5E5AAC8CD5368C9EC008CE89F28F8 ====

VA - The Best Of Big Band (2008) {4CD Box Set}


All thanks go to Boris1

>>> My Blog <<<

DOWNLOAD: