Subcategories
Tags
Language
Tags

VA - The Best Small Jazz Bands 1936-1955 (2007) 2CDs

Posted By: Designol
VA - The Best Small Jazz Bands 1936-1955 (2007) 2CDs

VA - The Best Small Jazz Bands 1936-1955 (2007) 2CDs
EAC | FLAC | Tracks (Cue&Log) ~ 313 Mb | Mp3 (CBR320) ~ 276 Mb | Scans ~ 113 Mb
Label: Frémeaux & Associés | # FA5194 | Time: 02:00:41
Classic Jazz, Early Jazz, Swing, Bop, Jazz-Blues, Rhythm & Blues

During its classic period, jazz saw the emergence of numerous regular small formations which successfully encouraged improvisation, enabling their best soloists a freedom of expression without any of the constraints of a big band. Jacques Morgantini allows us to discover this decisive period in the evolution of Jazz with this 36 tracks CD set featuring a 32 pages booklet.

VA - The Best Small Jazz Bands 1936-1955 (2007) 2CDs


Tracklist:

CD1:

01. Fats Waller - The Moon Is Low (3:06)
02. Fats Waller - Tain't Nobody's Bizzness If I Do (3:03)
03. Stuff Smith - Upstairs (3:04)
04. John Kirby - Undecided (3:01)
05. Louis Jordan - Salt Pork West Virginia (3:03)
06. Roy Eldridge - Wabash Stomp (3:10)
07. Al Cooper - See What I Mean? (3:05)
08. Hot Lips Page - He's Pulling His Whiskers On (2:50)
09. Eddie Durham - Moten's Swing (2:37)
10. Bennie Goodman - Good Enough To Keep (2:56)
11. Albert Ammons & His Rythm Kings - Boogie Woogie Stomp (3:00)
12. Django Reinhardt - DJangology (3:00)
13. Nat King Cole - Early Morning Blues (2:47)
14. Lionel Hampton - Jivin' With Jarvis (2:42)
15. Eddie Heywood - Pom-Pom (3:13)
16. Art Tatum - Flyin' Home (4:17)
17. Amos Milburn - Roomin' House Boogie (2:50)
18. Roy Milton - Teh Numbers Blues (2:40)

CD2:

01. T-Bone Walker - Strollin' With Bones (2:31)
02. T-Bone Walker - Street Walkin' Woman (3:07)
03. Jack McVea - Okay For Baby (3:07)
04. Louis Armstrong - Beale Street Blues (4:59)
05. Louis Armstrong - Chantez-Les-Bas (4:51)
06. Kid Ory - The Girls Go Crazy (3:10)
07. Wilbur De Paris - Are You From Dixie? (5:00)
08. Arnett Cobb - Dutch Kitchen Bounce (3:15)
09. Illinois Jacquet - Blow Illinois Blow (2:50)
10. Buddy Tate - One O'Clock Jump (2:45)
11. Joe Thomas - Big Foot (2:38)
12. Johnny Hodges - Johnny's Blues (7:06)
13. Johnny Hodges - Duke's Blues (6:09)
14. Earl Bostic - Flamingo (2:43)
15. Tab Smith - Boogie Joogie (2:54)
16. Cootie Williams - Slindin' And Glidin' (3:37)
17. Tiny Grimes - Call Of The Wild (2:57)
18. Fats Domino - I Know (2:39)


Exact Audio Copy V1.0 beta 3 from 29. August 2011

EAC extraction logfile from 18. October 2012, 8:55

Various Artists / The Best Small Jazz Bands 1936-1955 CD1

Used drive : PLEXTOR DVDR PX-860A Adapter: 0 ID: 0

Read mode : Secure
Utilize accurate stream : Yes
Defeat audio cache : Yes
Make use of C2 pointers : No

Read offset correction : 96
Overread into Lead-In and Lead-Out : No
Fill up missing offset samples with silence : Yes
Delete leading and trailing silent blocks : No
Null samples used in CRC calculations : Yes
Used interface : Native Win32 interface for Win NT & 2000
Gap handling : Appended to previous track

Used output format : User Defined Encoder
Selected bitrate : 1024 kBit/s
Quality : High
Add ID3 tag : No
Command line compressor : C:\Program Files\Exact Audio Copy\Flac\flac.exe
Additional command line options : -8 -V -T "ARTIST=%artist%" -T "TITLE=%title%" -T "ALBUM=%albumtitle%" -T "DATE=%year%" -T "TRACKNUMBER=%tracknr%" -T "GENRE=%genre%" -T "PERFORMER=%albuminterpret%" -T "COMPOSER=%composer%" %haslyrics%–tag-from-file=LYRICS="%lyricsfile%"%haslyrics% -T "ALBUMARTIST=%albumartist%" -T "DISCNUMBER=%cdnumber%" -T "TOTALDISCS=%totalcds%" -T "TOTALTRACKS=%numtracks%" -T "COMMENT=EAC Secure Mode, Test & Copy, AccurateRip, FLAC -8" %source% -o %dest%


TOC of the extracted CD

Track | Start | Length | Start sector | End sector
––––––––––––––––––––––––––––-
1 | 0:00.00 | 3:06.22 | 0 | 13971
2 | 3:06.22 | 3:02.69 | 13972 | 27690
3 | 6:09.16 | 3:04.00 | 27691 | 41490
4 | 9:13.16 | 3:01.20 | 41491 | 55085
5 | 12:14.36 | 3:02.44 | 55086 | 68779
6 | 15:17.05 | 3:10.23 | 68780 | 83052
7 | 18:27.28 | 3:04.39 | 83053 | 96891
8 | 21:31.67 | 2:49.50 | 96892 | 109616
9 | 24:21.42 | 2:37.04 | 109617 | 121395
10 | 26:58.46 | 2:55.73 | 121396 | 134593
11 | 29:54.44 | 2:59.61 | 134594 | 148079
12 | 32:54.30 | 3:00.31 | 148080 | 161610
13 | 35:54.61 | 2:47.01 | 161611 | 174136
14 | 38:41.62 | 2:41.53 | 174137 | 186264
15 | 41:23.40 | 3:12.58 | 186265 | 200722
16 | 44:36.23 | 4:17.04 | 200723 | 220001
17 | 48:53.27 | 2:50.11 | 220002 | 232762
18 | 51:43.38 | 2:39.62 | 232763 | 244749


Track 1

Filename I:\DL\Various Artists - The Best Small Jazz Bands 1936-1955 CD1 (2008) [FLAC]\01 - Fats Waller - The Moon Is Low.wav

Pre-gap length 0:00:02.00

Peak level 85.4 %
Extraction speed 4.1 X
Track quality 100.0 %
Test CRC D64AD75C
Copy CRC D64AD75C
Accurately ripped (confidence 1) [495D51AA] (AR v1)
Copy OK

Track 2

Filename I:\DL\Various Artists - The Best Small Jazz Bands 1936-1955 CD1 (2008) [FLAC]\02 - Fats Waller - Tain't Nobody's Bizzness If I Do.wav

Pre-gap length 0:00:02.00

Peak level 94.0 %
Extraction speed 3.8 X
Track quality 99.9 %
Test CRC 59906DF9
Copy CRC 59906DF9
Accurately ripped (confidence 1) [16B1BE32] (AR v1)
Copy OK

Track 3

Filename I:\DL\Various Artists - The Best Small Jazz Bands 1936-1955 CD1 (2008) [FLAC]\03 - Stuff Smith - Upstairs.wav

Pre-gap length 0:00:02.00

Peak level 71.3 %
Extraction speed 4.7 X
Track quality 100.0 %
Test CRC 32EA47C7
Copy CRC 32EA47C7
Accurately ripped (confidence 1) [A8B00128] (AR v1)
Copy OK

Track 4

Filename I:\DL\Various Artists - The Best Small Jazz Bands 1936-1955 CD1 (2008) [FLAC]\04 - John Kirby - Undecided.wav

Pre-gap length 0:00:02.00

Peak level 57.8 %
Extraction speed 4.2 X
Track quality 99.9 %
Test CRC 33DB73E0
Copy CRC 33DB73E0
Accurately ripped (confidence 1) [6C2EFFD2] (AR v1)
Copy OK

Track 5

Filename I:\DL\Various Artists - The Best Small Jazz Bands 1936-1955 CD1 (2008) [FLAC]\05 - Louis Jordan - Salt Pork West Virginia.wav

Pre-gap length 0:00:02.00

Peak level 83.2 %
Extraction speed 4.5 X
Track quality 99.9 %
Test CRC CE5B08FC
Copy CRC CE5B08FC
Accurately ripped (confidence 1) [FE352683] (AR v1)
Copy OK

Track 6

Filename I:\DL\Various Artists - The Best Small Jazz Bands 1936-1955 CD1 (2008) [FLAC]\06 - Roy Eldridge - Wabash Stomp.wav

Pre-gap length 0:00:02.00

Peak level 73.6 %
Extraction speed 5.4 X
Track quality 100.0 %
Test CRC 4B83B326
Copy CRC 4B83B326
Accurately ripped (confidence 1) [5F52E82D] (AR v1)
Copy OK

Track 7

Filename I:\DL\Various Artists - The Best Small Jazz Bands 1936-1955 CD1 (2008) [FLAC]\07 - Al Cooper - See What I Mean.wav

Pre-gap length 0:00:02.00

Peak level 92.4 %
Extraction speed 5.6 X
Track quality 100.0 %
Test CRC AA5AB73D
Copy CRC AA5AB73D
Accurately ripped (confidence 1) [52D8AADC] (AR v1)
Copy OK

Track 8

Filename I:\DL\Various Artists - The Best Small Jazz Bands 1936-1955 CD1 (2008) [FLAC]\08 - Hot Lips Page - He's Pulling His Whiskers On.wav

Pre-gap length 0:00:02.00

Peak level 97.2 %
Extraction speed 4.9 X
Track quality 99.9 %
Test CRC 6A859F95
Copy CRC 6A859F95
Accurately ripped (confidence 1) [A8ED266C] (AR v1)
Copy OK

Track 9

Filename I:\DL\Various Artists - The Best Small Jazz Bands 1936-1955 CD1 (2008) [FLAC]\09 - Eddie Durham - Moten's Swing.wav

Pre-gap length 0:00:02.00

Peak level 87.2 %
Extraction speed 5.0 X
Track quality 99.9 %
Test CRC 3170BD4F
Copy CRC 3170BD4F
Accurately ripped (confidence 1) [A728CCC3] (AR v1)
Copy OK

Track 10

Filename I:\DL\Various Artists - The Best Small Jazz Bands 1936-1955 CD1 (2008) [FLAC]\10 - Bennie Goodman - Good Enough To Keep.wav

Pre-gap length 0:00:02.00

Peak level 83.8 %
Extraction speed 5.2 X
Track quality 99.9 %
Test CRC E04317E7
Copy CRC E04317E7
Accurately ripped (confidence 1) [3C9C5A63] (AR v1)
Copy OK

Track 11

Filename I:\DL\Various Artists - The Best Small Jazz Bands 1936-1955 CD1 (2008) [FLAC]\11 - Albert Ammons & His Rythm Kings - Boogie Woogie Stomp.wav

Pre-gap length 0:00:02.00

Peak level 69.2 %
Extraction speed 6.3 X
Track quality 100.0 %
Test CRC F82BDA18
Copy CRC F82BDA18
Accurately ripped (confidence 1) [39D27584] (AR v1)
Copy OK

Track 12

Filename I:\DL\Various Artists - The Best Small Jazz Bands 1936-1955 CD1 (2008) [FLAC]\12 - Django Reinhardt - DJangology.wav

Pre-gap length 0:00:02.00

Peak level 91.9 %
Extraction speed 6.5 X
Track quality 100.0 %
Test CRC CCAA7A33
Copy CRC CCAA7A33
Accurately ripped (confidence 1) [A7B6430E] (AR v1)
Copy OK

Track 13

Filename I:\DL\Various Artists - The Best Small Jazz Bands 1936-1955 CD1 (2008) [FLAC]\13 - Nat King Cole - Early Morning Blues.wav

Pre-gap length 0:00:02.00

Peak level 92.6 %
Extraction speed 6.5 X
Track quality 100.0 %
Test CRC D162FBA3
Copy CRC D162FBA3
Accurately ripped (confidence 1) [9CD6C5D9] (AR v1)
Copy OK

Track 14

Filename I:\DL\Various Artists - The Best Small Jazz Bands 1936-1955 CD1 (2008) [FLAC]\14 - Lionel Hampton - Jivin' With Jarvis.wav

Pre-gap length 0:00:02.00

Peak level 97.7 %
Extraction speed 6.6 X
Track quality 100.0 %
Test CRC C7C9F514
Copy CRC C7C9F514
Accurately ripped (confidence 1) [06EE77B2] (AR v1)
Copy OK

Track 15

Filename I:\DL\Various Artists - The Best Small Jazz Bands 1936-1955 CD1 (2008) [FLAC]\15 - Eddie Heywood - Pom-Pom.wav

Pre-gap length 0:00:02.00

Peak level 83.9 %
Extraction speed 7.0 X
Track quality 100.0 %
Test CRC 0A51D9E2
Copy CRC 0A51D9E2
Accurately ripped (confidence 1) [2B07A434] (AR v1)
Copy OK

Track 16

Filename I:\DL\Various Artists - The Best Small Jazz Bands 1936-1955 CD1 (2008) [FLAC]\16 - Art Tatum - Flyin' Home.wav

Pre-gap length 0:00:02.00

Peak level 94.8 %
Extraction speed 7.7 X
Track quality 100.0 %
Test CRC 771C9AD5
Copy CRC 771C9AD5
Accurately ripped (confidence 1) [1B66D1CF] (AR v1)
Copy OK

Track 17

Filename I:\DL\Various Artists - The Best Small Jazz Bands 1936-1955 CD1 (2008) [FLAC]\17 - Amos Milburn - Roomin' House Boogie.wav

Pre-gap length 0:00:02.00

Peak level 84.0 %
Extraction speed 7.4 X
Track quality 100.0 %
Test CRC 9390F832
Copy CRC 9390F832
Accurately ripped (confidence 1) [5DCCECE1] (AR v1)
Copy OK

Track 18

Filename I:\DL\Various Artists - The Best Small Jazz Bands 1936-1955 CD1 (2008) [FLAC]\18 - Roy Milton - Teh Numbers Blues.wav

Pre-gap length 0:00:02.00

Peak level 58.6 %
Extraction speed 7.4 X
Track quality 100.0 %
Test CRC 9DC6C9BB
Copy CRC 9DC6C9BB
Accurately ripped (confidence 1) [AB2E5CE1] (AR v1)
Copy OK


All tracks accurately ripped

No errors occurred

End of status report

–– CUETools DB Plugin V2.1.3

[CTDB TOCID: xF6DbVicLT9toFIPRiUkB2PjtH4-] disk not present in database, Submit result: xF6DbVicLT9toFIPRiUkB2PjtH4- has been uploaded


==== Log checksum B2FC7E5ECF57FCE2AC0FA14F514E5DD4B9511736C0F13B2267A604937C9808DA ====

[CUETools log; Date: 30.06.2018 5:01:13; Version: 2.1.4]
[CTDB TOCID: xF6DbVicLT9toFIPRiUkB2PjtH4-] found.
Track | CTDB Status
1 | (3/3) Accurately ripped
2 | (3/3) Accurately ripped
3 | (3/3) Accurately ripped
4 | (3/3) Accurately ripped
5 | (3/3) Accurately ripped
6 | (3/3) Accurately ripped
7 | (3/3) Accurately ripped
8 | (3/3) Accurately ripped
9 | (3/3) Accurately ripped
10 | (3/3) Accurately ripped
11 | (3/3) Accurately ripped
12 | (3/3) Accurately ripped
13 | (3/3) Accurately ripped
14 | (3/3) Accurately ripped
15 | (3/3) Accurately ripped
16 | (3/3) Accurately ripped
17 | (3/3) Accurately ripped
18 | (3/3) Accurately ripped
[AccurateRip ID: 00236a07-01d78edc-0e0cbf12] found.
Track [ CRC | V2 ] Status
01 [495d51aa|3ab77760] (0+2/2) Accurately ripped
02 [16b1be32|c95c2888] (0+2/2) Accurately ripped
03 [a8b00128|17b40129] (0+2/2) Accurately ripped
04 [6c2effd2|c62b93a9] (0+2/2) Accurately ripped
05 [fe352683|ba265b78] (0+2/2) Accurately ripped
06 [5f52e82d|1a06f5e5] (0+2/2) Accurately ripped
07 [52d8aadc|1945f802] (0+2/2) Accurately ripped
08 [a8ed266c|43b1100b] (0+2/2) Accurately ripped
09 [a728ccc3|40007034] (0+2/2) Accurately ripped
10 [3c9c5a63|b770483c] (0+2/2) Accurately ripped
11 [39d27584|9307dbf7] (0+2/2) Accurately ripped
12 [a7b6430e|c1b7225d] (0+2/2) Accurately ripped
13 [9cd6c5d9|4fad165f] (0+2/2) Accurately ripped
14 [06ee77b2|aca7488a] (0+2/2) Accurately ripped
15 [2b07a434|659785e5] (0+2/2) Accurately ripped
16 [1b66d1cf|435dbcfd] (0+2/2) Accurately ripped
17 [5dccece1|4b59fa2b] (0+2/2) Accurately ripped
18 [ab2e5ce1|8f7129d3] (0+2/2) Accurately ripped

Track Peak [ CRC32 ] [W/O NULL] [ LOG ]
– 97,7 [1AAB0B5E] [10CFB77D]
01 85,4 [D64AD75C] [44DCF771] CRC32
02 94,0 [59906DF9] [5815B1C2] CRC32
03 71,3 [32EA47C7] [CFC7D029] CRC32
04 57,8 [33DB73E0] [D5FE4FAB] CRC32
05 83,2 [CE5B08FC] [8BD5FC56] CRC32
06 73,6 [4B83B326] [1AF6CCF8] CRC32
07 92,4 [AA5AB73D] [3487EF0B] CRC32
08 97,2 [6A859F95] [BECC42B4] CRC32
09 87,2 [3170BD4F] [D2891073] CRC32
10 83,8 [E04317E7] [82EE0171] CRC32
11 69,2 [F82BDA18] [D49D86B3] CRC32
12 91,9 [CCAA7A33] [B283925D] CRC32
13 92,6 [D162FBA3] [4112C136] CRC32
14 97,7 [C7C9F514] [59FDD97B] CRC32
15 83,9 [0A51D9E2] [7E155295] CRC32
16 94,8 [771C9AD5] [2828E902] CRC32
17 84,0 [9390F832] [E9EE5C9E] CRC32
18 58,6 [9DC6C9BB] [B0B7FC2A] CRC32

foobar2000 1.2 / Dynamic Range Meter 1.1.1
log date: 2018-06-30 05:06:23

––––––––––––––––––––––––––––––––––––––––
Analyzed: Various Artists / The Best Small Jazz Bands 1936-1955 CD1
––––––––––––––––––––––––––––––––––––––––

DR Peak RMS Duration Track
––––––––––––––––––––––––––––––––––––––––
DR11 -1.37 dB -16.15 dB 3:06 01-Fats Waller - The Moon Is Low
DR13 -0.53 dB -17.36 dB 3:03 02-Fats Waller - Tain't Nobody's Bizzness If I Do
DR12 -2.94 dB -17.25 dB 3:04 03-Stuff Smith - Upstairs
DR11 -4.75 dB -17.44 dB 3:01 04-John Kirby - Undecided
DR11 -1.60 dB -13.88 dB 3:03 05-Louis Jordan - Salt Pork West Virginia
DR11 -2.65 dB -15.05 dB 3:10 06-Roy Eldridge - Wabash Stomp
DR13 -0.68 dB -17.08 dB 3:05 07-Al Cooper - See What I Mean ?
DR13 -0.24 dB -14.93 dB 2:50 08-Hot Lips Page - He's Pulling His Whiskers On
DR13 -1.18 dB -16.56 dB 2:37 09-Eddie Durham - Moten's Swing
DR13 -1.53 dB -17.18 dB 2:56 10-Bennie Goodman - Good Enough To Keep
DR12 -3.20 dB -17.72 dB 3:00 11-Albert Ammons & His Rythm Kings - Boogie Woogie Stomp
DR16 -0.73 dB -19.69 dB 3:00 12-Django Reinhardt - DJangology
DR13 -0.66 dB -17.35 dB 2:47 13-Nat King Cole - Early Morning Blues
DR13 -0.20 dB -16.20 dB 2:42 14-Lionel Hampton - Jivin' With Jarvis
DR15 -1.52 dB -18.40 dB 3:13 15-Eddie Heywood - Pom-Pom
DR12 -0.46 dB -14.48 dB 4:17 16-Art Tatum - Flyin' Home
DR11 -1.51 dB -15.58 dB 2:50 17-Amos Milburn - Roomin' House Boogie
DR12 -4.63 dB -18.89 dB 2:40 18-Roy Milton - Teh Numbers Blues
––––––––––––––––––––––––––––––––––––––––

Number of tracks: 18
Official DR value: DR13

Samplerate: 44100 Hz
Channels: 2
Bits per sample: 16
Bitrate: 331 kbps
Codec: FLAC
================================================================================


Exact Audio Copy V1.0 beta 3 from 29. August 2011

EAC extraction logfile from 18. October 2012, 9:28

Various Artists / The Best Small Jazz Bands 1936-1955 CD2

Used drive : PLEXTOR DVDR PX-860A Adapter: 0 ID: 0

Read mode : Secure
Utilize accurate stream : Yes
Defeat audio cache : Yes
Make use of C2 pointers : No

Read offset correction : 96
Overread into Lead-In and Lead-Out : No
Fill up missing offset samples with silence : Yes
Delete leading and trailing silent blocks : No
Null samples used in CRC calculations : Yes
Used interface : Native Win32 interface for Win NT & 2000
Gap handling : Appended to previous track

Used output format : User Defined Encoder
Selected bitrate : 1024 kBit/s
Quality : High
Add ID3 tag : No
Command line compressor : C:\Program Files\Exact Audio Copy\Flac\flac.exe
Additional command line options : -8 -V -T "ARTIST=%artist%" -T "TITLE=%title%" -T "ALBUM=%albumtitle%" -T "DATE=%year%" -T "TRACKNUMBER=%tracknr%" -T "GENRE=%genre%" -T "PERFORMER=%albuminterpret%" -T "COMPOSER=%composer%" %haslyrics%–tag-from-file=LYRICS="%lyricsfile%"%haslyrics% -T "ALBUMARTIST=%albumartist%" -T "DISCNUMBER=%cdnumber%" -T "TOTALDISCS=%totalcds%" -T "TOTALTRACKS=%numtracks%" -T "COMMENT=EAC Secure Mode, Test & Copy, AccurateRip, FLAC -8" %source% -o %dest%


TOC of the extracted CD

Track | Start | Length | Start sector | End sector
––––––––––––––––––––––––––––-
1 | 0:00.00 | 2:30.71 | 0 | 11320
2 | 2:30.71 | 3:06.62 | 11321 | 25332
3 | 5:37.58 | 3:07.06 | 25333 | 39363
4 | 8:44.64 | 4:59.07 | 39364 | 61795
5 | 13:43.71 | 4:51.18 | 61796 | 83638
6 | 18:35.14 | 3:10.19 | 83639 | 97907
7 | 21:45.33 | 4:59.41 | 97908 | 120373
8 | 26:44.74 | 3:15.03 | 120374 | 135001
9 | 30:00.02 | 2:49.62 | 135002 | 147738
10 | 32:49.64 | 2:44.63 | 147739 | 160101
11 | 35:34.52 | 2:37.52 | 160102 | 171928
12 | 38:12.29 | 7:05.58 | 171929 | 203861
13 | 45:18.12 | 6:09.21 | 203862 | 231557
14 | 51:27.33 | 2:43.34 | 231558 | 243816
15 | 54:10.67 | 2:53.71 | 243817 | 256862
16 | 57:04.63 | 3:37.04 | 256863 | 273141
17 | 60:41.67 | 2:57.09 | 273142 | 286425
18 | 63:39.01 | 2:38.58 | 286426 | 298333


Track 1

Filename I:\DL\Various Artists - The Best Small Jazz Bands 1936-1955 CD2 (2008) [FLAC]\01 - T-Bone Walker - Strollin' With Bones.wav

Pre-gap length 0:00:02.00

Peak level 65.2 %
Extraction speed 4.1 X
Track quality 100.0 %
Test CRC 2D139EE5
Copy CRC 2D139EE5
Accurately ripped (confidence 1) [B4708B65] (AR v1)
Copy OK

Track 2

Filename I:\DL\Various Artists - The Best Small Jazz Bands 1936-1955 CD2 (2008) [FLAC]\02 - T-Bone Walker - Street Walkin' Woman.wav

Pre-gap length 0:00:02.00

Peak level 84.3 %
Extraction speed 4.6 X
Track quality 100.0 %
Test CRC E464C61B
Copy CRC E464C61B
Accurately ripped (confidence 1) [512646EA] (AR v1)
Copy OK

Track 3

Filename I:\DL\Various Artists - The Best Small Jazz Bands 1936-1955 CD2 (2008) [FLAC]\03 - Jack McVea - Okay For Baby.wav

Pre-gap length 0:00:02.00

Peak level 74.2 %
Extraction speed 4.9 X
Track quality 100.0 %
Test CRC A0FED42E
Copy CRC A0FED42E
Accurately ripped (confidence 1) [E004F18D] (AR v1)
Copy OK

Track 4

Filename I:\DL\Various Artists - The Best Small Jazz Bands 1936-1955 CD2 (2008) [FLAC]\04 - Louis Armstrong - Beale Street Blues.wav

Pre-gap length 0:00:02.00

Peak level 79.8 %
Extraction speed 5.6 X
Track quality 100.0 %
Test CRC C4F1361B
Copy CRC C4F1361B
Accurately ripped (confidence 1) [2D398E49] (AR v1)
Copy OK

Track 5

Filename I:\DL\Various Artists - The Best Small Jazz Bands 1936-1955 CD2 (2008) [FLAC]\05 - Louis Armstrong - Chantez-Les-Bas.wav

Pre-gap length 0:00:02.00

Peak level 78.0 %
Extraction speed 6.0 X
Track quality 100.0 %
Test CRC 4AA4698F
Copy CRC 4AA4698F
Accurately ripped (confidence 1) [8DB52E83] (AR v1)
Copy OK

Track 6

Filename I:\DL\Various Artists - The Best Small Jazz Bands 1936-1955 CD2 (2008) [FLAC]\06 - Kid Ory - The Girls Go Crazy.wav

Pre-gap length 0:00:02.00

Peak level 66.6 %
Extraction speed 5.2 X
Track quality 99.9 %
Test CRC 5D7CF03A
Copy CRC 5D7CF03A
Accurately ripped (confidence 1) [EB37671D] (AR v1)
Copy OK

Track 7

Filename I:\DL\Various Artists - The Best Small Jazz Bands 1936-1955 CD2 (2008) [FLAC]\07 - Wilbur De Paris - Are You From Dixie.wav

Pre-gap length 0:00:02.00

Peak level 96.3 %
Extraction speed 6.6 X
Track quality 100.0 %
Test CRC B2700DC7
Copy CRC B2700DC7
Accurately ripped (confidence 1) [C78CA082] (AR v1)
Copy OK

Track 8

Filename I:\DL\Various Artists - The Best Small Jazz Bands 1936-1955 CD2 (2008) [FLAC]\08 - Arnett Cobb - Dutch Kitchen Bounce.wav

Pre-gap length 0:00:02.00

Peak level 69.0 %
Extraction speed 6.5 X
Track quality 100.0 %
Test CRC A2F97344
Copy CRC A2F97344
Accurately ripped (confidence 1) [8EBA683F] (AR v1)
Copy OK

Track 9

Filename I:\DL\Various Artists - The Best Small Jazz Bands 1936-1955 CD2 (2008) [FLAC]\09 - Illinois Jacquet - Blow Illinois Blow.wav

Pre-gap length 0:00:02.00

Peak level 93.7 %
Extraction speed 6.6 X
Track quality 100.0 %
Test CRC 7DA1069F
Copy CRC 7DA1069F
Accurately ripped (confidence 1) [9890F4B2] (AR v1)
Copy OK

Track 10

Filename I:\DL\Various Artists - The Best Small Jazz Bands 1936-1955 CD2 (2008) [FLAC]\10 - Buddy Tate - One O'Clock Jump.wav

Pre-gap length 0:00:02.00

Peak level 71.7 %
Extraction speed 6.7 X
Track quality 100.0 %
Test CRC 5B297FDA
Copy CRC 5B297FDA
Accurately ripped (confidence 1) [93343D09] (AR v1)
Copy OK

Track 11

Filename I:\DL\Various Artists - The Best Small Jazz Bands 1936-1955 CD2 (2008) [FLAC]\11 - Joe Thomas - Big Foot.wav

Pre-gap length 0:00:02.00

Peak level 44.1 %
Extraction speed 5.8 X
Track quality 99.9 %
Test CRC 3D7CB379
Copy CRC 3D7CB379
Accurately ripped (confidence 1) [4A561CEF] (AR v1)
Copy OK

Track 12

Filename I:\DL\Various Artists - The Best Small Jazz Bands 1936-1955 CD2 (2008) [FLAC]\12 - Johnny Hodges - Johnny's Blues.wav

Pre-gap length 0:00:02.00

Peak level 74.6 %
Extraction speed 8.1 X
Track quality 100.0 %
Test CRC CBDF8A82
Copy CRC CBDF8A82
Accurately ripped (confidence 1) [5A4D2749] (AR v1)
Copy OK

Track 13

Filename I:\DL\Various Artists - The Best Small Jazz Bands 1936-1955 CD2 (2008) [FLAC]\13 - Johnny Hodges - Duke's Blues.wav

Pre-gap length 0:00:02.00

Peak level 82.7 %
Extraction speed 8.3 X
Track quality 100.0 %
Test CRC 150EF350
Copy CRC 150EF350
Accurately ripped (confidence 1) [66CA3D2D] (AR v1)
Copy OK

Track 14

Filename I:\DL\Various Artists - The Best Small Jazz Bands 1936-1955 CD2 (2008) [FLAC]\14 - Earl Bostic - Flamingo.wav

Pre-gap length 0:00:02.00

Peak level 77.6 %
Extraction speed 7.6 X
Track quality 100.0 %
Test CRC 7919E6C2
Copy CRC 7919E6C2
Accurately ripped (confidence 1) [4E0AF7FE] (AR v1)
Copy OK

Track 15

Filename I:\DL\Various Artists - The Best Small Jazz Bands 1936-1955 CD2 (2008) [FLAC]\15 - Tab Smith - Boogie Joogie.wav

Pre-gap length 0:00:02.00

Peak level 85.3 %
Extraction speed 6.8 X
Track quality 99.9 %
Test CRC 36C7B9C2
Copy CRC 36C7B9C2
Accurately ripped (confidence 1) [ED9D57C9] (AR v1)
Copy OK

Track 16

Filename I:\DL\Various Artists - The Best Small Jazz Bands 1936-1955 CD2 (2008) [FLAC]\16 - Cootie Williams - Slindin' And Glidin'.wav

Pre-gap length 0:00:02.00

Peak level 80.0 %
Extraction speed 8.4 X
Track quality 100.0 %
Test CRC EAB879D0
Copy CRC EAB879D0
Accurately ripped (confidence 1) [979BCA06] (AR v1)
Copy OK

Track 17

Filename I:\DL\Various Artists - The Best Small Jazz Bands 1936-1955 CD2 (2008) [FLAC]\17 - Tiny Grimes - Call Of The Wild.wav

Pre-gap length 0:00:02.00

Peak level 72.2 %
Extraction speed 8.1 X
Track quality 100.0 %
Test CRC 2BC199E4
Copy CRC 2BC199E4
Accurately ripped (confidence 1) [D4E65E1F] (AR v1)
Copy OK

Track 18

Filename I:\DL\Various Artists - The Best Small Jazz Bands 1936-1955 CD2 (2008) [FLAC]\18 - Fats Domino - I Know.wav

Pre-gap length 0:00:02.00

Peak level 61.2 %
Extraction speed 8.1 X
Track quality 100.0 %
Test CRC D0D7FC88
Copy CRC D0D7FC88
Accurately ripped (confidence 1) [07A8C2C0] (AR v1)
Copy OK


All tracks accurately ripped

No errors occurred

End of status report

–– CUETools DB Plugin V2.1.3

[CTDB TOCID: hUaYG6oHNQGugoyej6ymPsvU25g-] disk not present in database, Submit result: hUaYG6oHNQGugoyej6ymPsvU25g- has been uploaded


==== Log checksum D48900FAC1FE53035545228A34BD3B637C7DA975E17949B76F9BF1F9BBE072A2 ====

[CUETools log; Date: 30.06.2018 5:01:30; Version: 2.1.4]
[CTDB TOCID: hUaYG6oHNQGugoyej6ymPsvU25g-] found.
Track | CTDB Status
1 | (2/2) Accurately ripped
2 | (2/2) Accurately ripped
3 | (2/2) Accurately ripped
4 | (2/2) Accurately ripped
5 | (2/2) Accurately ripped
6 | (2/2) Accurately ripped
7 | (2/2) Accurately ripped
8 | (2/2) Accurately ripped
9 | (2/2) Accurately ripped
10 | (2/2) Accurately ripped
11 | (2/2) Accurately ripped
12 | (2/2) Accurately ripped
13 | (2/2) Accurately ripped
14 | (2/2) Accurately ripped
15 | (2/2) Accurately ripped
16 | (2/2) Accurately ripped
17 | (2/2) Accurately ripped
18 | (2/2) Accurately ripped
[AccurateRip ID: 002b76fd-02494daf-e90f8912] found.
Track [ CRC | V2 ] Status
01 [b4708b65|adc3f1de] (0+2/2) Accurately ripped
02 [512646ea|79a79138] (0+2/2) Accurately ripped
03 [e004f18d|c46be4d3] (0+2/2) Accurately ripped
04 [2d398e49|2d1c6d2a] (0+2/2) Accurately ripped
05 [8db52e83|03cafd35] (0+2/2) Accurately ripped
06 [eb37671d|c0a4bf49] (0+2/2) Accurately ripped
07 [c78ca082|50797fca] (0+2/2) Accurately ripped
08 [8eba683f|0f0b735b] (0+2/2) Accurately ripped
09 [9890f4b2|3be605b6] (0+2/2) Accurately ripped
10 [93343d09|baf51977] (0+2/2) Accurately ripped
11 [4a561cef|22230933] (0+2/2) Accurately ripped
12 [5a4d2749|4a62cc95] (0+2/2) Accurately ripped
13 [66ca3d2d|10ab9ef6] (0+2/2) Accurately ripped
14 [4e0af7fe|c24dc71f] (0+2/2) Accurately ripped
15 [ed9d57c9|febd7ca6] (0+2/2) Accurately ripped
16 [979bca06|b66fa731] (0+2/2) Accurately ripped
17 [d4e65e1f|0d176b2a] (0+2/2) Accurately ripped
18 [07a8c2c0|a454be61] (0+2/2) Accurately ripped

Track Peak [ CRC32 ] [W/O NULL] [ LOG ]
– 96,3 [1A0C9034] [A453FB3F]
01 65,2 [2D139EE5] [50A1E6F5] CRC32
02 84,3 [E464C61B] [AA1C7471] CRC32
03 74,2 [A0FED42E] [F6AC2C9F] CRC32
04 79,8 [C4F1361B] [3AA19BFC] CRC32
05 78,0 [4AA4698F] [F92078EC] CRC32
06 66,6 [5D7CF03A] [0ED1978F] CRC32
07 96,3 [B2700DC7] [CABAEA10] CRC32
08 69,0 [A2F97344] [3DCFFBBF] CRC32
09 93,7 [7DA1069F] [0C328E19] CRC32
10 71,7 [5B297FDA] [90002C1D] CRC32
11 44,1 [3D7CB379] [18A7C889] CRC32
12 74,6 [CBDF8A82] [B4B4D157] CRC32
13 82,7 [150EF350] [6708C774] CRC32
14 77,6 [7919E6C2] [6EB98EEF] CRC32
15 85,3 [36C7B9C2] [2360407F] CRC32
16 80,0 [EAB879D0] [BCD5415A] CRC32
17 72,2 [2BC199E4] [1E4A3037] CRC32
18 61,2 [D0D7FC88] [1ACFFBAE] CRC32

foobar2000 1.2 / Dynamic Range Meter 1.1.1
log date: 2018-06-30 05:06:45

––––––––––––––––––––––––––––––––––––––––
Analyzed: Various Artists / The Best Small Jazz Bands 1936-1955 CD2
––––––––––––––––––––––––––––––––––––––––

DR Peak RMS Duration Track
––––––––––––––––––––––––––––––––––––––––
DR9 -3.71 dB -14.82 dB 2:31 01-T-Bone Walker - Strollin' With Bones
DR13 -1.48 dB -16.59 dB 3:07 02-T-Bone Walker - Street Walkin' Woman
DR13 -2.58 dB -17.79 dB 3:07 03-Jack McVea - Okay For Baby
DR13 -1.96 dB -17.36 dB 4:59 04-Louis Armstrong - Beale Street Blues
DR12 -2.15 dB -17.21 dB 4:51 05-Louis Armstrong - Chantez-Les-Bas
DR13 -3.53 dB -17.94 dB 3:10 06-Kid Ory - The Girls Go Crazy
DR14 -0.32 dB -15.99 dB 5:00 07-Wilbur De Paris - Are You From Dixie ?
DR11 -3.22 dB -16.22 dB 3:15 08-Arnett Cobb - Dutch Kitchen Bounce
DR12 -0.56 dB -14.81 dB 2:50 09-Illinois Jacquet - Blow Illinois Blow
DR13 -2.88 dB -18.04 dB 2:45 10-Buddy Tate - One O'Clock Jump
DR11 -7.10 dB -20.16 dB 2:38 11-Joe Thomas - Big Foot
DR12 -2.54 dB -16.98 dB 7:06 12-Johnny Hodges - Johnny's Blues
DR13 -1.65 dB -16.95 dB 6:09 13-Johnny Hodges - Duke's Blues
DR13 -2.19 dB -17.42 dB 2:43 14-Earl Bostic - Flamingo
DR14 -1.38 dB -18.32 dB 2:54 15-Tab Smith - Boogie Joogie
DR11 -1.93 dB -15.17 dB 3:37 16-Cootie Williams - Slindin' And Glidin'
DR13 -2.82 dB -17.89 dB 2:57 17-Tiny Grimes - Call Of The Wild
DR12 -4.25 dB -17.33 dB 2:39 18-Fats Domino - I Know
––––––––––––––––––––––––––––––––––––––––

Number of tracks: 18
Official DR value: DR12

Samplerate: 44100 Hz
Channels: 2
Bits per sample: 16
Bitrate: 438 kbps
Codec: FLAC
================================================================================

VA - The Best Small Jazz Bands 1936-1955 (2007) 2CDs

All thanks to original releaser

More interesting music in My Blog