Subcategories

VA - The Book Of Mormon: Original Broadway Cast Recording (2011)

Posted By: ciklon5
VA - The Book Of Mormon: Original Broadway Cast Recording (2011)

VA - The Book Of Mormon: Original Broadway Cast Recording (2011)
FLAC (tracks+.cue,log) | 1:07:59 | 405 Mb
Genre: Musical / Label: Ghostlight Records ‎

The Book of Mormon: Original Broadway Cast Recording contains the songs from the American musical The Book of Mormon, with music, lyrics, and book by Trey Parker, Robert Lopez, and Matt Stone. It was recorded by the musical's original Broadway cast and released on May 17, 2011 to digital outlets. The album saw a physical release on June 7, 2011, in a deluxe package with liner notes provided by former The New York Times theatre critic Frank Rich, as well as full lyrics and a synopsis of the musical. The Book of Mormon was named best musical theater album at the 2012 Grammy Awards.

Track List:

1 Hello! 2:52
2 Two By Two 4:32
3 You And Me (But Mostly Me) 2:43
4 Hasa Diga Eebowai 4:25
5 Turn It Off 5:03
6 I Am Here For You 2:04
7 All-American Prophet 6:15
8 Sal Tlay Ka Siti 3:42
9 Man Up 4:04
10 Making Things Up Again 4:17
11 Spooky Mormon Hell Dream Written-By – Matt Stone, Robert Lopez, Trey Parker 4:30
12 I Believe 4:43
13 Baptize Me 4:15
14 I Am Africa 2:22
15 Joseph Smith American Moses 6:12
16 Tomorrow Is A Latter Day 6:02

X Lossless Decoder version 20110515 (133.1)

XLD extraction logfile from 2011-05-20 12:02:51 -0400

Various Artists / The Book Of Mormon

Used drive : OPTIARC DVD RW AD-7170A (revision 1.N8)

Ripper mode : XLD Secure Ripper
Disable audio cache : OK for the drive with a cache less than 1375KiB
Make use of C2 pointers : NO
Read offset correction : 48
Max retry count : 100
Gap status : Analyzed, Appended

TOC of the extracted CD
Track | Start | Length | Start sector | End sector
––––––––––––––––––––––––––––-
1 | 00:00:00 | 02:52:02 | 0 | 12901
2 | 02:52:02 | 04:31:43 | 12902 | 33269
3 | 07:23:45 | 02:43:18 | 33270 | 45512
4 | 10:06:63 | 04:24:43 | 45513 | 65355
5 | 14:31:31 | 05:03:27 | 65356 | 88107
6 | 19:34:58 | 02:04:08 | 88108 | 97415
7 | 21:38:66 | 06:14:41 | 97416 | 125506
8 | 27:53:32 | 03:41:49 | 125507 | 142130
9 | 31:35:06 | 04:03:67 | 142131 | 160422
10 | 35:38:73 | 04:16:60 | 160423 | 179682
11 | 39:55:58 | 04:30:29 | 179683 | 199961
12 | 44:26:12 | 04:42:59 | 199962 | 221170
13 | 49:08:71 | 04:15:16 | 221171 | 240311
14 | 53:24:12 | 02:21:71 | 240312 | 250957
15 | 55:46:08 | 06:12:18 | 250958 | 278875
16 | 61:58:26 | 06:01:46 | 278876 | 305996

AccurateRip Summary
Disc not found in AccurateRip DB.

All Tracks
Album gain : -6.63 dB
Peak : 1.000000
Statistics
Read error : 0
Jitter error (maybe fixed) : 2
Retry sector count : 0
Damaged sector count : 0

Track 01
Filename : /Users/marcus/Documents/encodes/Various Artists - The Book Of Mormon (2011) [FLAC]/01 Hello!.flac
Pre-gap length : 00:02:00

Track gain : -7.44 dB
Peak : 0.966125
CRC32 hash (test run) : E91802DC
CRC32 hash : E91802DC
CRC32 hash (skip zero) : 4397E3B5
AccurateRip signature : 5D4B06AC
->Track not present in AccurateRip database.
Statistics
Read error : 0
Jitter error (maybe fixed) : 0
Retry sector count : 0
Damaged sector count : 0

Track 02
Filename : /Users/marcus/Documents/encodes/Various Artists - The Book Of Mormon (2011) [FLAC]/02 Two By Two.flac

Track gain : -6.69 dB
Peak : 0.966156
CRC32 hash (test run) : 3184D9E2
CRC32 hash : 3184D9E2
CRC32 hash (skip zero) : D82B20D1
AccurateRip signature : DE300616
->Track not present in AccurateRip database.
Statistics
Read error : 0
Jitter error (maybe fixed) : 0
Retry sector count : 0
Damaged sector count : 0

Track 03
Filename : /Users/marcus/Documents/encodes/Various Artists - The Book Of Mormon (2011) [FLAC]/03 You And Me (But Mostly Me).flac
Pre-gap length : 00:01:00

Track gain : -7.65 dB
Peak : 0.966125
CRC32 hash (test run) : C757CEB3
CRC32 hash : C757CEB3
CRC32 hash (skip zero) : A5779D7A
AccurateRip signature : D7976049
->Track not present in AccurateRip database.
Statistics
Read error : 0
Jitter error (maybe fixed) : 0
Retry sector count : 0
Damaged sector count : 0

Track 04
Filename : /Users/marcus/Documents/encodes/Various Artists - The Book Of Mormon (2011) [FLAC]/04 Hasa Diga Eebowai.flac

Track gain : -6.95 dB
Peak : 0.966125
CRC32 hash (test run) : E3247CE0
CRC32 hash : E3247CE0
CRC32 hash (skip zero) : 38014A06
AccurateRip signature : 540F59CB
->Track not present in AccurateRip database.
Statistics
Read error : 0
Jitter error (maybe fixed) : 0
Retry sector count : 0
Damaged sector count : 0

Track 05
Filename : /Users/marcus/Documents/encodes/Various Artists - The Book Of Mormon (2011) [FLAC]/05 Turn It Off.flac

Track gain : -6.61 dB
Peak : 0.966156
CRC32 hash (test run) : 0B320C84
CRC32 hash : 0B320C84
CRC32 hash (skip zero) : 7E01796A
AccurateRip signature : 85699671
->Track not present in AccurateRip database.
Statistics
Read error : 0
Jitter error (maybe fixed) : 0
Retry sector count : 0
Damaged sector count : 0

Track 06
Filename : /Users/marcus/Documents/encodes/Various Artists - The Book Of Mormon (2011) [FLAC]/06 I Am Here For You.flac
Pre-gap length : 00:01:01

Track gain : 0.67 dB
Peak : 0.647217
CRC32 hash (test run) : D91EF06F
CRC32 hash : D91EF06F
CRC32 hash (skip zero) : 08C4DE9C
AccurateRip signature : 72D3E03D
->Track not present in AccurateRip database.
Statistics
Read error : 0
Jitter error (maybe fixed) : 0
Retry sector count : 0
Damaged sector count : 0

Track 07
Filename : /Users/marcus/Documents/encodes/Various Artists - The Book Of Mormon (2011) [FLAC]/07 All-American Prophet.flac

Track gain : -5.98 dB
Peak : 0.966125
CRC32 hash (test run) : 2138DDC4
CRC32 hash : 2138DDC4
CRC32 hash (skip zero) : 3B50E3EF
AccurateRip signature : 39ABE8C7
->Track not present in AccurateRip database.
Statistics
Read error : 0
Jitter error (maybe fixed) : 1
Retry sector count : 0
Damaged sector count : 0

Track 08
Filename : /Users/marcus/Documents/encodes/Various Artists - The Book Of Mormon (2011) [FLAC]/08 Sal Tlay Ka Siti.flac

Track gain : -5.88 dB
Peak : 0.966156
CRC32 hash (test run) : E044982C
CRC32 hash : E044982C
CRC32 hash (skip zero) : 825A26CF
AccurateRip signature : 69B79CC6
->Track not present in AccurateRip database.
Statistics
Read error : 0
Jitter error (maybe fixed) : 0
Retry sector count : 0
Damaged sector count : 0

Track 09
Filename : /Users/marcus/Documents/encodes/Various Artists - The Book Of Mormon (2011) [FLAC]/09 Man Up.flac
Pre-gap length : 00:01:30

Track gain : -7.06 dB
Peak : 0.966125
CRC32 hash (test run) : 73E6F590
CRC32 hash : 73E6F590
CRC32 hash (skip zero) : 01E01910
AccurateRip signature : C97D5A4E
->Track not present in AccurateRip database.
Statistics
Read error : 0
Jitter error (maybe fixed) : 0
Retry sector count : 0
Damaged sector count : 0

Track 10
Filename : /Users/marcus/Documents/encodes/Various Artists - The Book Of Mormon (2011) [FLAC]/10 Making Things Up Again.flac

Track gain : -5.73 dB
Peak : 0.966125
CRC32 hash (test run) : C14F70B9
CRC32 hash : C14F70B9
CRC32 hash (skip zero) : 0D1269C3
AccurateRip signature : D9BA83E6
->Track not present in AccurateRip database.
Statistics
Read error : 0
Jitter error (maybe fixed) : 0
Retry sector count : 0
Damaged sector count : 0

Track 11
Filename : /Users/marcus/Documents/encodes/Various Artists - The Book Of Mormon (2011) [FLAC]/11 Spooky Mormon Hell Dream.flac

Track gain : -6.37 dB
Peak : 0.966125
CRC32 hash (test run) : C93B9646
CRC32 hash : C93B9646
CRC32 hash (skip zero) : 381C23A4
AccurateRip signature : A871272A
->Track not present in AccurateRip database.
Statistics
Read error : 0
Jitter error (maybe fixed) : 0
Retry sector count : 0
Damaged sector count : 0

Track 12
Filename : /Users/marcus/Documents/encodes/Various Artists - The Book Of Mormon (2011) [FLAC]/12 I Believe.flac
Pre-gap length : 00:01:30

Track gain : -7.31 dB
Peak : 0.966156
CRC32 hash (test run) : F5692E9D
CRC32 hash : F5692E9D
CRC32 hash (skip zero) : 06522C75
AccurateRip signature : 0D8F161A
->Track not present in AccurateRip database.
Statistics
Read error : 0
Jitter error (maybe fixed) : 1
Retry sector count : 0
Damaged sector count : 0

Track 13
Filename : /Users/marcus/Documents/encodes/Various Artists - The Book Of Mormon (2011) [FLAC]/13 Baptize Me.flac

Track gain : -5.62 dB
Peak : 0.966125
CRC32 hash (test run) : DA9F4F07
CRC32 hash : DA9F4F07
CRC32 hash (skip zero) : CEBDFEA7
AccurateRip signature : 825D5353
->Track not present in AccurateRip database.
Statistics
Read error : 0
Jitter error (maybe fixed) : 0
Retry sector count : 0
Damaged sector count : 0

Track 14
Filename : /Users/marcus/Documents/encodes/Various Artists - The Book Of Mormon (2011) [FLAC]/14 I Am Africa.flac
Pre-gap length : 00:01:01

Track gain : -7.28 dB
Peak : 0.966125
CRC32 hash (test run) : 2EBF6745
CRC32 hash : 2EBF6745
CRC32 hash (skip zero) : 69A8BB40
AccurateRip signature : 763CD8E0
->Track not present in AccurateRip database.
Statistics
Read error : 0
Jitter error (maybe fixed) : 0
Retry sector count : 0
Damaged sector count : 0

Track 15
Filename : /Users/marcus/Documents/encodes/Various Artists - The Book Of Mormon (2011) [FLAC]/15 Joseph Smith American Moses.flac

Track gain : -6.21 dB
Peak : 1.000000
CRC32 hash (test run) : 8999C2FC
CRC32 hash : 8999C2FC
CRC32 hash (skip zero) : D29931C8
AccurateRip signature : 5959784E
->Track not present in AccurateRip database.
Statistics
Read error : 0
Jitter error (maybe fixed) : 0
Retry sector count : 0
Damaged sector count : 0

Track 16
Filename : /Users/marcus/Documents/encodes/Various Artists - The Book Of Mormon (2011) [FLAC]/16 Tomorrow Is A Latter Day.flac

Track gain : -6.59 dB
Peak : 0.966125
CRC32 hash (test run) : 6FABC076
CRC32 hash : 6FABC076
CRC32 hash (skip zero) : B9AF87C1
AccurateRip signature : 25D5E9A1
->Track not present in AccurateRip database.
Statistics
Read error : 0
Jitter error (maybe fixed) : 0
Retry sector count : 0
Damaged sector count : 0

No errors occurred

End of status report