Subcategories

VA - The Hits Album: The Car Album On The Road Again (4CD, 2019)

Posted By: ciklon5
VA - The Hits Album: The Car Album On The Road Again (4CD, 2019)

VA - The Hits Album: The Car Album On The Road Again (4CD, 2019)
FLAC tracks +cue+log+booklet | 04:52:47 | 2 Gb
Genre: Dance, Disco, Reggae, RnB, Pop, Hip Hop, Blues, Rock / Label: Sony Music

80 mega hits to sing aloung to… LOUD! on 4CDs, all packaged in an attractive card fold out pocketpack. Includes George Ezra, Shawn Mendes, The Beach Boys, Dolly Parton, Mark Ronson ft Amy Winehouse and many more!

Track List:
CD1
01. George Ezra - Paradise 3:42
02. Shawn Mendes - In My Blood 3:29
03. Mark Ronson Feat. Bruno Mars - Uptown Funk 4:29
04. P!Nk - So What 3:35
05. One Direction - One Way Or Another (Teenage Kicks) 2:38
06. Britney Spears - Toxic 3:19
07. Spice Girls - Spice Up Your Life 2:52
08. Ray Parker Jr. - Ghostbusters 3:57
09. Bill Medley & Jennifer Warnes - (I've Had) The Time Of My Life 4:44
10. Abba - The Winner Takes It All 4:54
11. Ellie Goulding - Your Song 3:06
12. Paloma Faith - Make Your Own Kind Of Music 2:42
13. Shania Twain - That Don't Impress Me Much 3:57
14. Girls Aloud - Call The Shots 3:44
15. Little Mix - Black Magic 3:30
16. Ariana Grande - One Last Time 3:15
17. Justin Bieber - Sorry 3:19
18. Hanson - Mmmbop 3:55
19. Take That - Pray 3:43
20. Westlife - You Raise Me Up 4:00

CD2
21. Whitney Houston - I Will Always Love You 4:31
22. Celine Dion - My Heart Will Go On 4:38
23. Christina Aguilera - Beautiful 4:00
24. Dolly Parton - Jolene 2:39
25. John Denver - Take Me Home, Country Roads 3:09
26. Elvis Presley Vs. Jxl - A Little Less Conversation 3:33
27. Roy Orbison - Oh, Pretty Woman 2:56
28. The Beach Boys - California Girls 2:44
29. The Mamas & The Papas - Monday, Monday 3:24
30. The Righteous Brothers - Unchained Melody 3:36
31. Tom Jones - It's Not Unusual 1:59
32. Lulu & The Luvvers - Shout 2:51
33. The Supremes - Where Did Our Love Go 2:33
34. The Jackson Five - I Want You Back 2:55
35. Destiny's Child - Independent Women, Pt. 1 3:37
36. The Black Eyed Peas - Meet Me Halfway 3:45
37. Shakira - Whenever, Wherever 3:16
38. Gloria Estefan & Miami Sound Machine - Conga 4:14
39. Ricky Martin - She Bangs 3:57
40. Jennifer Lopez - Waiting For Tonight 4:05

CD3
41. S Club 7 - Don't Stop Movin' 3:51
42. Steps - One For Sorrow 4:13
43. Rick Astley - Never Gonna Give You Up 3:33
44. Womack & Womack - Teardrops 3:48
45. Deniece Williams - Let's Hear It For The Boy 4:18
46. Donna Summer - Love's Unkind 4:27
47. Barry Manilow - Copacabana (At The Copa) 3:55
48. Captain & Tennille - Love Will Keep Us Together 3:18
49. Blondie - The Tide Is High 3:47
50. Ub40 - Red Red Wine 3:01
51. Culture Club - Karma Chameleon 4:09
52. Philip Oakey & Giorgio Moroder - Together In Electric Dreams 3:51
53. Soft Cell - Say Hello, Wave Goodbye 5:23
54. Tears For Fears - Everybody Wants To Rule The World 4:09
55. Paul Simon - You Can Call Me Al 4:38
56. The Bangles - Manic Monday 3:04
57. Bonnie Tyler - Holding Out For A Hero 4:22
58. Huey Lewis & The News - The Power Of Love 3:52
59. Cher - Bang Bang 3:45
60. Crowded House - Don't Dream It's Over 3:50

CD4
61. Mark Ronson Feat. Amy Winehouse - Valerie 3:40
62. Robbie Williams - Rock Dj 4:15
63. James Arthur - Say You Won't Let Go 3:29
64. Maroon 5 - She Will Be Loved 4:16
65. Natalie Imbruglia - Torn 4:02
66. Sia - Chandelier 3:35
67. Hozier - Take Me To Church 4:01
68. Sam Smith - Stay With Me 2:53
69. Sparks - This Town Ain't Big Enough For Both Of Us 3:04
70. Electric Light Orchestra - Livin' Thing 3:31
71. Sweet - Ballroom Blitz 4:01
72. The Rubettes - Sugar Baby Love 3:28
73. Bay City Rollers - Bye Bye Baby 2:48
74. Smokie - Living Next Door To Alice 3:26
75. Jamiroquai - Virtual Insanity 3:46
76. Years & Years - King 3:33
77. Jonas Blue Feat. Dakota - Fast Car 3:29
78. Lana Del Rey & Cedric Gervais - Summertime Sadness 3:35
79. Calvin Harris - Summer 3:39
80. Baddiel, Skinner & The Lightning Seeds - Three Lions '98 3:53

Exact Audio Copy V1.3 from 2. September 2016

EAC extraction logfile from 11. November 2019, 21:26

Various / The Hits Album - The Car Album - On The Road Again… - CD1

Used drive : ATAPI iHAS124 Y Adapter: 1 ID: 0

Read mode : Secure
Utilize accurate stream : Yes
Defeat audio cache : No
Make use of C2 pointers : Yes

Read offset correction : 48
Overread into Lead-In and Lead-Out : No
Fill up missing offset samples with silence : Yes
Delete leading and trailing silent blocks : No
Null samples used in CRC calculations : Yes
Used interface : Native Win32 interface for Win NT & 2000
Gap handling : Not detected, thus appended to previous track

Used output format : User Defined Encoder
Selected bitrate : 768 kBit/s
Quality : High
Add ID3 tag : No
Command line compressor : C:\Program Files (x86)\Exact Audio Copy\FLAC\FLAC.EXE
Additional command line options : -6 -V -T "ARTIST=%artist%" -T "TITLE=%title%" -T "ALBUM=%albumtitle%" -T "DATE=%year%" -T "TRACKNUMBER=%tracknr%" -T "GENRE=%genre%" -T "COMMENT=%comment%" -T "BAND=%albuminterpret%" -T "ALBUMARTIST=%albuminterpret%" -T "COMPOSER=%composer%" %haslyrics%–tag-from-file=LYRICS="%lyricsfile%"%haslyrics% -T "DISCNUMBER=%cdnumber%" -T "TOTALDISCS=%totalcds%" -T "TOTALTRACKS=%numtracks%" %hascover%–picture="%coverfile%"%hascover% %source% -o %dest%


TOC of the extracted CD

Track | Start | Length | Start sector | End sector
––––––––––––––––––––––––––––-
1 | 0:00.00 | 3:41.64 | 0 | 16638
2 | 3:41.64 | 3:29.30 | 16639 | 32343
3 | 7:11.19 | 4:28.46 | 32344 | 52489
4 | 11:39.65 | 3:34.62 | 52490 | 68601
5 | 15:14.52 | 2:37.44 | 68602 | 80420
6 | 17:52.21 | 3:19.01 | 80421 | 95346
7 | 21:11.22 | 2:52.14 | 95347 | 108260
8 | 24:03.36 | 3:57.22 | 108261 | 126057
9 | 28:00.58 | 4:43.37 | 126058 | 147319
10 | 32:44.20 | 4:53.54 | 147320 | 169348
11 | 37:37.74 | 3:06.14 | 169349 | 183312
12 | 40:44.13 | 2:42.06 | 183313 | 195468
13 | 43:26.19 | 3:56.63 | 195469 | 213231
14 | 47:23.07 | 3:43.50 | 213232 | 230006
15 | 51:06.57 | 3:29.48 | 230007 | 245729
16 | 54:36.30 | 3:15.11 | 245730 | 260365
17 | 57:51.41 | 3:18.63 | 260366 | 275278
18 | 61:10.29 | 3:55.05 | 275279 | 292908
19 | 65:05.34 | 3:42.69 | 292909 | 309627
20 | 68:48.28 | 3:59.46 | 309628 | 327598


Track 1

Filename A:\PsPBuRnOuT's MUSIC\DRIVE\THE CAR ALBUM - ON THE ROAD AGAIN\THE CAR ALBUM - ON THE ROAD AGAIN… CD1\01.George Ezra - Paradise.wav

Peak level 88.2 %
Extraction speed 9.4 X
Track quality 100.0 %
Copy CRC 08708FBB
Track not present in AccurateRip database
Copy OK

Track 2

Filename A:\PsPBuRnOuT's MUSIC\DRIVE\THE CAR ALBUM - ON THE ROAD AGAIN\THE CAR ALBUM - ON THE ROAD AGAIN… CD1\02.Shawn Mendes - In My Blood.wav

Peak level 84.1 %
Extraction speed 10.8 X
Track quality 100.0 %
Copy CRC 2854004A
Track not present in AccurateRip database
Copy OK

Track 3

Filename A:\PsPBuRnOuT's MUSIC\DRIVE\THE CAR ALBUM - ON THE ROAD AGAIN\THE CAR ALBUM - ON THE ROAD AGAIN… CD1\03.Mark Ronson Feat. Bruno Mars - Uptown Funk.wav

Peak level 89.8 %
Extraction speed 11.2 X
Track quality 99.9 %
Copy CRC 4F50645E
Track not present in AccurateRip database
Copy OK

Track 4

Filename A:\PsPBuRnOuT's MUSIC\DRIVE\THE CAR ALBUM - ON THE ROAD AGAIN\THE CAR ALBUM - ON THE ROAD AGAIN… CD1\04.P!nk - So What.wav

Peak level 74.9 %
Extraction speed 12.5 X
Track quality 100.0 %
Copy CRC 5B252E8C
Track not present in AccurateRip database
Copy OK

Track 5

Filename A:\PsPBuRnOuT's MUSIC\DRIVE\THE CAR ALBUM - ON THE ROAD AGAIN\THE CAR ALBUM - ON THE ROAD AGAIN… CD1\05.One Direction - One Way Or Another (Teenage Kicks).wav

Peak level 84.1 %
Extraction speed 12.6 X
Track quality 100.0 %
Copy CRC D2FB68D3
Track not present in AccurateRip database
Copy OK

Track 6

Filename A:\PsPBuRnOuT's MUSIC\DRIVE\THE CAR ALBUM - ON THE ROAD AGAIN\THE CAR ALBUM - ON THE ROAD AGAIN… CD1\06.Britney Spears - Toxic.wav

Peak level 88.1 %
Extraction speed 13.1 X
Track quality 100.0 %
Copy CRC 2C6AB4BC
Track not present in AccurateRip database
Copy OK

Track 7

Filename A:\PsPBuRnOuT's MUSIC\DRIVE\THE CAR ALBUM - ON THE ROAD AGAIN\THE CAR ALBUM - ON THE ROAD AGAIN… CD1\07.Spice Girls - Spice Up Your Life.wav

Peak level 87.1 %
Extraction speed 14.3 X
Track quality 100.0 %
Copy CRC 65E4FEFC
Track not present in AccurateRip database
Copy OK

Track 8

Filename A:\PsPBuRnOuT's MUSIC\DRIVE\THE CAR ALBUM - ON THE ROAD AGAIN\THE CAR ALBUM - ON THE ROAD AGAIN… CD1\08.Ray Parker Jr. - Ghostbusters.wav

Peak level 100.0 %
Extraction speed 14.2 X
Track quality 100.0 %
Copy CRC E0D8E491
Track not present in AccurateRip database
Copy OK

Track 9

Filename A:\PsPBuRnOuT's MUSIC\DRIVE\THE CAR ALBUM - ON THE ROAD AGAIN\THE CAR ALBUM - ON THE ROAD AGAIN… CD1\09.Bill Medley & Jennifer Warnes - (I've Had) The Time Of My Life.wav

Peak level 100.0 %
Extraction speed 14.9 X
Track quality 100.0 %
Copy CRC D706F6CB
Track not present in AccurateRip database
Copy OK

Track 10

Filename A:\PsPBuRnOuT's MUSIC\DRIVE\THE CAR ALBUM - ON THE ROAD AGAIN\THE CAR ALBUM - ON THE ROAD AGAIN… CD1\10.Abba - The Winner Takes It All.wav

Peak level 98.8 %
Extraction speed 15.5 X
Track quality 100.0 %
Copy CRC C2A991B3
Track not present in AccurateRip database
Copy OK

Track 11

Filename A:\PsPBuRnOuT's MUSIC\DRIVE\THE CAR ALBUM - ON THE ROAD AGAIN\THE CAR ALBUM - ON THE ROAD AGAIN… CD1\11.Ellie Goulding - Your Song.wav

Peak level 78.4 %
Extraction speed 16.9 X
Track quality 100.0 %
Copy CRC 76A2E729
Track not present in AccurateRip database
Copy OK

Track 12

Filename A:\PsPBuRnOuT's MUSIC\DRIVE\THE CAR ALBUM - ON THE ROAD AGAIN\THE CAR ALBUM - ON THE ROAD AGAIN… CD1\12.Paloma Faith - Make Your Own Kind Of Music.wav

Peak level 84.1 %
Extraction speed 16.4 X
Track quality 100.0 %
Copy CRC 080088B0
Track not present in AccurateRip database
Copy OK

Track 13

Filename A:\PsPBuRnOuT's MUSIC\DRIVE\THE CAR ALBUM - ON THE ROAD AGAIN\THE CAR ALBUM - ON THE ROAD AGAIN… CD1\13.Shania Twain - That Don't Impress Me Much.wav

Peak level 83.9 %
Extraction speed 17.7 X
Track quality 100.0 %
Copy CRC A6A4A457
Track not present in AccurateRip database
Copy OK

Track 14

Filename A:\PsPBuRnOuT's MUSIC\DRIVE\THE CAR ALBUM - ON THE ROAD AGAIN\THE CAR ALBUM - ON THE ROAD AGAIN… CD1\14.Girls Aloud - Call The Shots.wav

Peak level 88.1 %
Extraction speed 17.3 X
Track quality 99.9 %
Copy CRC BBC3F538
Track not present in AccurateRip database
Copy OK

Track 15

Filename A:\PsPBuRnOuT's MUSIC\DRIVE\THE CAR ALBUM - ON THE ROAD AGAIN\THE CAR ALBUM - ON THE ROAD AGAIN… CD1\15.Little Mix - Black Magic.wav

Peak level 79.8 %
Extraction speed 17.7 X
Track quality 100.0 %
Copy CRC 59DAA2A0
Track not present in AccurateRip database
Copy OK

Track 16

Filename A:\PsPBuRnOuT's MUSIC\DRIVE\THE CAR ALBUM - ON THE ROAD AGAIN\THE CAR ALBUM - ON THE ROAD AGAIN… CD1\16.Ariana Grande - One Last Time.wav

Peak level 84.1 %
Extraction speed 19.2 X
Track quality 100.0 %
Copy CRC 988EDC88
Track not present in AccurateRip database
Copy OK

Track 17

Filename A:\PsPBuRnOuT's MUSIC\DRIVE\THE CAR ALBUM - ON THE ROAD AGAIN\THE CAR ALBUM - ON THE ROAD AGAIN… CD1\17.Justin Bieber - Sorry.wav

Peak level 79.3 %
Extraction speed 18.4 X
Track quality 99.8 %
Copy CRC 334B8F3C
Track not present in AccurateRip database
Copy OK

Track 18

Filename A:\PsPBuRnOuT's MUSIC\DRIVE\THE CAR ALBUM - ON THE ROAD AGAIN\THE CAR ALBUM - ON THE ROAD AGAIN… CD1\18.Hanson - MmmBop.wav

Peak level 94.4 %
Extraction speed 17.8 X
Track quality 99.9 %
Copy CRC A22D4AE9
Track not present in AccurateRip database
Copy OK

Track 19

Filename A:\PsPBuRnOuT's MUSIC\DRIVE\THE CAR ALBUM - ON THE ROAD AGAIN\THE CAR ALBUM - ON THE ROAD AGAIN… CD1\19.Take That - Pray.wav

Peak level 100.0 %
Extraction speed 15.3 X
Track quality 99.8 %
Copy CRC D3ED6FAD
Track not present in AccurateRip database
Copy OK

Track 20

Filename A:\PsPBuRnOuT's MUSIC\DRIVE\THE CAR ALBUM - ON THE ROAD AGAIN\THE CAR ALBUM - ON THE ROAD AGAIN… CD1\20.Westlife - You Raise Me Up.wav

Peak level 100.0 %
Extraction speed 11.5 X
Track quality 99.8 %
Copy CRC 0ECAB3AE
Track not present in AccurateRip database
Copy OK


None of the tracks are present in the AccurateRip database

No errors occurred

End of status report

–– CUETools DB Plugin V2.1.6

[CTDB TOCID: NAe50zcGumyhUpvSLgL2kxLPz84-] found
Submit result: NAe50zcGumyhUpvSLgL2kxLPz84- has been confirmed
Track | CTDB Status
1 | (1/1) Accurately ripped
2 | (1/1) Accurately ripped
3 | (1/1) Accurately ripped
4 | (1/1) Accurately ripped
5 | (1/1) Accurately ripped
6 | (1/1) Accurately ripped
7 | (1/1) Accurately ripped
8 | (1/1) Accurately ripped
9 | (1/1) Accurately ripped
10 | (1/1) Accurately ripped
11 | (1/1) Accurately ripped
12 | (1/1) Accurately ripped
13 | (1/1) Accurately ripped
14 | (1/1) Accurately ripped
15 | (1/1) Accurately ripped
16 | (1/1) Accurately ripped
17 | (1/1) Accurately ripped
18 | (1/1) Accurately ripped
19 | (1/1) Accurately ripped
20 | (1/1) Accurately ripped

Exact Audio Copy V1.3 from 2. September 2016

EAC extraction logfile from 11. November 2019, 22:22

Various / The Hits Album - The Car Album - On The Road Again… - CD2

Used drive : ATAPI iHAS124 Y Adapter: 1 ID: 0

Read mode : Secure
Utilize accurate stream : Yes
Defeat audio cache : No
Make use of C2 pointers : Yes

Read offset correction : 48
Overread into Lead-In and Lead-Out : No
Fill up missing offset samples with silence : Yes
Delete leading and trailing silent blocks : No
Null samples used in CRC calculations : Yes
Used interface : Native Win32 interface for Win NT & 2000
Gap handling : Not detected, thus appended to previous track

Used output format : User Defined Encoder
Selected bitrate : 768 kBit/s
Quality : High
Add ID3 tag : No
Command line compressor : C:\Program Files (x86)\Exact Audio Copy\FLAC\FLAC.EXE
Additional command line options : -6 -V -T "ARTIST=%artist%" -T "TITLE=%title%" -T "ALBUM=%albumtitle%" -T "DATE=%year%" -T "TRACKNUMBER=%tracknr%" -T "GENRE=%genre%" -T "COMMENT=%comment%" -T "BAND=%albuminterpret%" -T "ALBUMARTIST=%albuminterpret%" -T "COMPOSER=%composer%" %haslyrics%–tag-from-file=LYRICS="%lyricsfile%"%haslyrics% -T "DISCNUMBER=%cdnumber%" -T "TOTALDISCS=%totalcds%" -T "TOTALTRACKS=%numtracks%" %hascover%–picture="%coverfile%"%hascover% %source% -o %dest%


TOC of the extracted CD

Track | Start | Length | Start sector | End sector
––––––––––––––––––––––––––––-
1 | 0:00.00 | 4:30.40 | 0 | 20289
2 | 4:30.40 | 4:37.47 | 20290 | 41111
3 | 9:08.12 | 4:00.25 | 41112 | 59136
4 | 13:08.37 | 2:39.08 | 59137 | 71069
5 | 15:47.45 | 3:08.39 | 71070 | 85208
6 | 18:56.09 | 3:32.54 | 85209 | 101162
7 | 22:28.63 | 2:55.68 | 101163 | 114355
8 | 25:24.56 | 2:44.07 | 114356 | 126662
9 | 28:08.63 | 3:24.26 | 126663 | 141988
10 | 31:33.14 | 3:35.60 | 141989 | 158173
11 | 35:08.74 | 1:59.26 | 158174 | 167124
12 | 37:08.25 | 2:51.27 | 167125 | 179976
13 | 39:59.52 | 2:32.51 | 179977 | 191427
14 | 42:32.28 | 2:54.48 | 191428 | 204525
15 | 45:27.01 | 3:37.32 | 204526 | 220832
16 | 49:04.33 | 3:44.50 | 220833 | 237682
17 | 52:49.08 | 3:15.67 | 237683 | 252374
18 | 56:05.00 | 4:13.54 | 252375 | 271403
19 | 60:18.54 | 3:57.13 | 271404 | 289191
20 | 64:15.67 | 4:05.26 | 289192 | 307592


Track 1

Filename A:\PsPBuRnOuT's MUSIC\DRIVE\THE CAR ALBUM - ON THE ROAD AGAIN\THE CAR ALBUM - ON THE ROAD AGAIN… CD2\01.Whitney Houston - I Will Always Love You.wav

Peak level 100.0 %
Extraction speed 13.7 X
Track quality 99.9 %
Copy CRC 47F95865
Track not present in AccurateRip database
Copy OK

Track 2

Filename A:\PsPBuRnOuT's MUSIC\DRIVE\THE CAR ALBUM - ON THE ROAD AGAIN\THE CAR ALBUM - ON THE ROAD AGAIN… CD2\02.Celine Dion - My Heart Will Go On.wav

Peak level 93.5 %
Extraction speed 17.5 X
Track quality 100.0 %
Copy CRC 631F7186
Track not present in AccurateRip database
Copy OK

Track 3

Filename A:\PsPBuRnOuT's MUSIC\DRIVE\THE CAR ALBUM - ON THE ROAD AGAIN\THE CAR ALBUM - ON THE ROAD AGAIN… CD2\03.Christina Aguilera - Beautiful.wav

Peak level 72.4 %
Extraction speed 23.2 X
Track quality 100.0 %
Copy CRC B9D4592C
Track not present in AccurateRip database
Copy OK

Track 4

Filename A:\PsPBuRnOuT's MUSIC\DRIVE\THE CAR ALBUM - ON THE ROAD AGAIN\THE CAR ALBUM - ON THE ROAD AGAIN… CD2\04.Dolly Parton - Jolene.wav

Peak level 97.2 %
Extraction speed 24.7 X
Track quality 100.0 %
Copy CRC 50C60131
Track not present in AccurateRip database
Copy OK

Track 5

Filename A:\PsPBuRnOuT's MUSIC\DRIVE\THE CAR ALBUM - ON THE ROAD AGAIN\THE CAR ALBUM - ON THE ROAD AGAIN… CD2\05.John Denver - Take Me Home, Country Roads.wav

Peak level 100.0 %
Extraction speed 24.3 X
Track quality 100.0 %
Copy CRC 8C883AA4
Track not present in AccurateRip database
Copy OK

Track 6

Filename A:\PsPBuRnOuT's MUSIC\DRIVE\THE CAR ALBUM - ON THE ROAD AGAIN\THE CAR ALBUM - ON THE ROAD AGAIN… CD2\06.Elvis Presley Vs. JXL - A Little Less Conversation.wav

Peak level 89.1 %
Extraction speed 25.7 X
Track quality 100.0 %
Copy CRC 2646B226
Track not present in AccurateRip database
Copy OK

Track 7

Filename A:\PsPBuRnOuT's MUSIC\DRIVE\THE CAR ALBUM - ON THE ROAD AGAIN\THE CAR ALBUM - ON THE ROAD AGAIN… CD2\07.Roy Orbison - Oh, Pretty Woman.wav

Peak level 99.0 %
Extraction speed 21.7 X
Track quality 99.8 %
Copy CRC DD1085F6
Track not present in AccurateRip database
Copy OK

Track 8

Filename A:\PsPBuRnOuT's MUSIC\DRIVE\THE CAR ALBUM - ON THE ROAD AGAIN\THE CAR ALBUM - ON THE ROAD AGAIN… CD2\08.The Beach Boys - California Girls.wav

Peak level 90.2 %
Extraction speed 17.7 X
Track quality 99.8 %
Copy CRC 03532337
Track not present in AccurateRip database
Copy OK

Track 9

Filename A:\PsPBuRnOuT's MUSIC\DRIVE\THE CAR ALBUM - ON THE ROAD AGAIN\THE CAR ALBUM - ON THE ROAD AGAIN… CD2\09.The Mamas & The Papas - Monday, Monday.wav

Peak level 88.1 %
Extraction speed 23.4 X
Track quality 100.0 %
Copy CRC 21BAD57D
Track not present in AccurateRip database
Copy OK

Track 10

Filename A:\PsPBuRnOuT's MUSIC\DRIVE\THE CAR ALBUM - ON THE ROAD AGAIN\THE CAR ALBUM - ON THE ROAD AGAIN… CD2\10.The Righteous Brothers - Unchained Melody.wav

Peak level 100.0 %
Extraction speed 30.7 X
Track quality 100.0 %
Copy CRC 56AC3760
Track not present in AccurateRip database
Copy OK

Track 11

Filename A:\PsPBuRnOuT's MUSIC\DRIVE\THE CAR ALBUM - ON THE ROAD AGAIN\THE CAR ALBUM - ON THE ROAD AGAIN… CD2\11.Tom Jones - It's Not Unusual.wav

Peak level 100.0 %
Extraction speed 29.6 X
Track quality 100.0 %
Copy CRC 9DAEDC90
Track not present in AccurateRip database
Copy OK

Track 12

Filename A:\PsPBuRnOuT's MUSIC\DRIVE\THE CAR ALBUM - ON THE ROAD AGAIN\THE CAR ALBUM - ON THE ROAD AGAIN… CD2\12.Lulu & The Luvvers - Shout.wav

Peak level 100.0 %
Extraction speed 30.4 X
Track quality 100.0 %
Copy CRC EFB091D8
Track not present in AccurateRip database
Copy OK

Track 13

Filename A:\PsPBuRnOuT's MUSIC\DRIVE\THE CAR ALBUM - ON THE ROAD AGAIN\THE CAR ALBUM - ON THE ROAD AGAIN… CD2\13.The Supremes - Where Did Our Love Go.wav

Peak level 69.6 %
Extraction speed 33.2 X
Track quality 100.0 %
Copy CRC D1EFA701
Track not present in AccurateRip database
Copy OK

Track 14

Filename A:\PsPBuRnOuT's MUSIC\DRIVE\THE CAR ALBUM - ON THE ROAD AGAIN\THE CAR ALBUM - ON THE ROAD AGAIN… CD2\14.The Jackson Five - I Want You Back.wav

Peak level 90.9 %
Extraction speed 25.6 X
Track quality 99.8 %
Copy CRC 2786E539
Track not present in AccurateRip database
Copy OK

Track 15

Filename A:\PsPBuRnOuT's MUSIC\DRIVE\THE CAR ALBUM - ON THE ROAD AGAIN\THE CAR ALBUM - ON THE ROAD AGAIN… CD2\15.Destiny's Child - Independent Women, Pt. 1.wav

Peak level 98.6 %
Extraction speed 26.6 X
Track quality 100.0 %
Copy CRC 32952B48
Track not present in AccurateRip database
Copy OK

Track 16

Filename A:\PsPBuRnOuT's MUSIC\DRIVE\THE CAR ALBUM - ON THE ROAD AGAIN\THE CAR ALBUM - ON THE ROAD AGAIN… CD2\16.The Black Eyed Peas - Meet Me Halfway.wav

Peak level 98.8 %
Extraction speed 28.1 X
Track quality 99.9 %
Copy CRC 1114ACAA
Track not present in AccurateRip database
Copy OK

Track 17

Filename A:\PsPBuRnOuT's MUSIC\DRIVE\THE CAR ALBUM - ON THE ROAD AGAIN\THE CAR ALBUM - ON THE ROAD AGAIN… CD2\17.Shakira - Whenever, Wherever.wav

Peak level 85.0 %
Extraction speed 25.6 X
Track quality 100.0 %
Copy CRC 5DA99E59
Track not present in AccurateRip database
Copy OK

Track 18

Filename A:\PsPBuRnOuT's MUSIC\DRIVE\THE CAR ALBUM - ON THE ROAD AGAIN\THE CAR ALBUM - ON THE ROAD AGAIN… CD2\18.Gloria Estefan & Miami Sound Machine - Conga.wav

Peak level 100.0 %
Extraction speed 21.7 X
Track quality 99.9 %
Copy CRC E73C0A4B
Track not present in AccurateRip database
Copy OK

Track 19

Filename A:\PsPBuRnOuT's MUSIC\DRIVE\THE CAR ALBUM - ON THE ROAD AGAIN\THE CAR ALBUM - ON THE ROAD AGAIN… CD2\19.Ricky Martin - She Bangs.wav

Peak level 89.1 %
Extraction speed 38.3 X
Track quality 100.0 %
Copy CRC 2AB8CC60
Track not present in AccurateRip database
Copy OK

Track 20

Filename A:\PsPBuRnOuT's MUSIC\DRIVE\THE CAR ALBUM - ON THE ROAD AGAIN\THE CAR ALBUM - ON THE ROAD AGAIN… CD2\20.Jennifer Lopez - Waiting For Tonight.wav

Peak level 84.1 %
Extraction speed 37.3 X
Track quality 100.0 %
Copy CRC DCC35F69
Track not present in AccurateRip database
Copy OK


None of the tracks are present in the AccurateRip database

No errors occurred

End of status report

–– CUETools DB Plugin V2.1.6

[CTDB TOCID: hoqt1Yhb33YLdXS3g9CtoF7hZP0-] found
Submit result: hoqt1Yhb33YLdXS3g9CtoF7hZP0- has been confirmed
Track | CTDB Status
1 | (1/1) Accurately ripped
2 | (1/1) Accurately ripped
3 | (1/1) Accurately ripped
4 | (1/1) Accurately ripped
5 | (1/1) Accurately ripped
6 | (1/1) Accurately ripped
7 | (1/1) Accurately ripped
8 | (1/1) Accurately ripped
9 | (1/1) Accurately ripped
10 | (1/1) Accurately ripped
11 | (1/1) Accurately ripped
12 | (1/1) Accurately ripped
13 | (1/1) Accurately ripped
14 | (1/1) Accurately ripped
15 | (1/1) Accurately ripped
16 | (1/1) Accurately ripped
17 | (1/1) Accurately ripped
18 | (1/1) Accurately ripped
19 | (1/1) Accurately ripped
20 | (1/1) Accurately ripped

Exact Audio Copy V1.3 from 2. September 2016

EAC extraction logfile from 12. November 2019, 16:08

Various / The Hits Album - The Car Album - On The Road Again… - CD3

Used drive : ATAPI iHAS124 Y Adapter: 1 ID: 0

Read mode : Secure
Utilize accurate stream : Yes
Defeat audio cache : No
Make use of C2 pointers : Yes

Read offset correction : 48
Overread into Lead-In and Lead-Out : No
Fill up missing offset samples with silence : Yes
Delete leading and trailing silent blocks : No
Null samples used in CRC calculations : Yes
Used interface : Native Win32 interface for Win NT & 2000
Gap handling : Not detected, thus appended to previous track

Used output format : User Defined Encoder
Selected bitrate : 768 kBit/s
Quality : High
Add ID3 tag : No
Command line compressor : C:\Program Files (x86)\Exact Audio Copy\FLAC\FLAC.EXE
Additional command line options : -6 -V -T "ARTIST=%artist%" -T "TITLE=%title%" -T "ALBUM=%albumtitle%" -T "DATE=%year%" -T "TRACKNUMBER=%tracknr%" -T "GENRE=%genre%" -T "COMMENT=%comment%" -T "BAND=%albuminterpret%" -T "ALBUMARTIST=%albuminterpret%" -T "COMPOSER=%composer%" %haslyrics%–tag-from-file=LYRICS="%lyricsfile%"%haslyrics% -T "DISCNUMBER=%cdnumber%" -T "TOTALDISCS=%totalcds%" -T "TOTALTRACKS=%numtracks%" %hascover%–picture="%coverfile%"%hascover% %source% -o %dest%


TOC of the extracted CD

Track | Start | Length | Start sector | End sector
––––––––––––––––––––––––––––-
1 | 0:00.00 | 3:50.36 | 0 | 17285
2 | 3:50.36 | 4:13.02 | 17286 | 36262
3 | 8:03.38 | 3:32.46 | 36263 | 52208
4 | 11:36.09 | 3:47.51 | 52209 | 69284
5 | 15:23.60 | 4:17.41 | 69285 | 88600
6 | 19:41.26 | 4:27.14 | 88601 | 108639
7 | 24:08.40 | 3:54.38 | 108640 | 126227
8 | 28:03.03 | 3:17.72 | 126228 | 141074
9 | 31:21.00 | 3:47.28 | 141075 | 158127
10 | 35:08.28 | 3:01.06 | 158128 | 171708
11 | 38:09.34 | 4:09.24 | 171709 | 190407
12 | 42:18.58 | 3:50.45 | 190408 | 207702
13 | 46:09.28 | 5:23.31 | 207703 | 231958
14 | 51:32.59 | 4:09.20 | 231959 | 250653
15 | 55:42.04 | 4:37.64 | 250654 | 271492
16 | 60:19.68 | 3:03.53 | 271493 | 285270
17 | 63:23.46 | 4:21.54 | 285271 | 304899
18 | 67:45.25 | 3:51.62 | 304900 | 322286
19 | 71:37.12 | 3:45.03 | 322287 | 339164
20 | 75:22.15 | 3:49.45 | 339165 | 356384


Track 1

Filename A:\PsPBuRnOuT's MUSIC\DRIVE\THE CAR ALBUM - ON THE ROAD AGAIN\THE CAR ALBUM - ON THE ROAD AGAIN… CD3\01.S Club 7 - Don't Stop Movin'.wav

Peak level 92.9 %
Extraction speed 9.6 X
Track quality 100.0 %
Copy CRC FDF366DE
Track not present in AccurateRip database
Copy OK

Track 2

Filename A:\PsPBuRnOuT's MUSIC\DRIVE\THE CAR ALBUM - ON THE ROAD AGAIN\THE CAR ALBUM - ON THE ROAD AGAIN… CD3\02.Steps - One For Sorrow.wav

Peak level 100.0 %
Extraction speed 10.5 X
Track quality 99.9 %
Copy CRC 74065E93
Track not present in AccurateRip database
Copy OK

Track 3

Filename A:\PsPBuRnOuT's MUSIC\DRIVE\THE CAR ALBUM - ON THE ROAD AGAIN\THE CAR ALBUM - ON THE ROAD AGAIN… CD3\03.Rick Astley - Never Gonna Give You Up.wav

Peak level 100.0 %
Extraction speed 11.9 X
Track quality 100.0 %
Copy CRC EECE70E3
Track not present in AccurateRip database
Copy OK

Track 4

Filename A:\PsPBuRnOuT's MUSIC\DRIVE\THE CAR ALBUM - ON THE ROAD AGAIN\THE CAR ALBUM - ON THE ROAD AGAIN… CD3\04.Womack & Womack - Teardrops.wav

Peak level 100.0 %
Extraction speed 12.5 X
Track quality 100.0 %
Copy CRC 69093A3E
Track not present in AccurateRip database
Copy OK

Track 5

Filename A:\PsPBuRnOuT's MUSIC\DRIVE\THE CAR ALBUM - ON THE ROAD AGAIN\THE CAR ALBUM - ON THE ROAD AGAIN… CD3\05.Deniece Williams - Let's Hear It For The Boy.wav

Peak level 96.6 %
Extraction speed 13.3 X
Track quality 100.0 %
Copy CRC 2AA27B80
Track not present in AccurateRip database
Copy OK

Track 6

Filename A:\PsPBuRnOuT's MUSIC\DRIVE\THE CAR ALBUM - ON THE ROAD AGAIN\THE CAR ALBUM - ON THE ROAD AGAIN… CD3\06.Donna Summer - Love's Unkind.wav

Peak level 86.9 %
Extraction speed 14.0 X
Track quality 100.0 %
Copy CRC FD9B39B7
Track not present in AccurateRip database
Copy OK

Track 7

Filename A:\PsPBuRnOuT's MUSIC\DRIVE\THE CAR ALBUM - ON THE ROAD AGAIN\THE CAR ALBUM - ON THE ROAD AGAIN… CD3\07.Barry Manilow - Copacabana (At The Copa).wav

Peak level 100.0 %
Extraction speed 14.2 X
Track quality 100.0 %
Copy CRC 9F8B8422
Track not present in AccurateRip database
Copy OK

Track 8

Filename A:\PsPBuRnOuT's MUSIC\DRIVE\THE CAR ALBUM - ON THE ROAD AGAIN\THE CAR ALBUM - ON THE ROAD AGAIN… CD3\08.Captain & Tennille - Love Will Keep Us Together.wav

Peak level 87.3 %
Extraction speed 15.5 X
Track quality 100.0 %
Copy CRC 1380B945
Track not present in AccurateRip database
Copy OK

Track 9

Filename A:\PsPBuRnOuT's MUSIC\DRIVE\THE CAR ALBUM - ON THE ROAD AGAIN\THE CAR ALBUM - ON THE ROAD AGAIN… CD3\09.Blondie - The Tide Is High.wav

Peak level 88.0 %
Extraction speed 15.2 X
Track quality 100.0 %
Copy CRC 7F161505
Track not present in AccurateRip database
Copy OK

Track 10

Filename A:\PsPBuRnOuT's MUSIC\DRIVE\THE CAR ALBUM - ON THE ROAD AGAIN\THE CAR ALBUM - ON THE ROAD AGAIN… CD3\10.UB40 - Red Red Wine.wav

Peak level 100.0 %
Extraction speed 16.6 X
Track quality 100.0 %
Copy CRC A228E047
Track not present in AccurateRip database
Copy OK

Track 11

Filename A:\PsPBuRnOuT's MUSIC\DRIVE\THE CAR ALBUM - ON THE ROAD AGAIN\THE CAR ALBUM - ON THE ROAD AGAIN… CD3\11.Culture Club - Karma Chameleon.wav

Peak level 89.1 %
Extraction speed 17.0 X
Track quality 100.0 %
Copy CRC C6962168
Track not present in AccurateRip database
Copy OK

Track 12

Filename A:\PsPBuRnOuT's MUSIC\DRIVE\THE CAR ALBUM - ON THE ROAD AGAIN\THE CAR ALBUM - ON THE ROAD AGAIN… CD3\12.Philip Oakey & Giorgio Moroder - Together In Electric Dreams.wav

Peak level 100.0 %
Extraction speed 16.6 X
Track quality 100.0 %
Copy CRC D4D02B54
Track not present in AccurateRip database
Copy OK

Track 13

Filename A:\PsPBuRnOuT's MUSIC\DRIVE\THE CAR ALBUM - ON THE ROAD AGAIN\THE CAR ALBUM - ON THE ROAD AGAIN… CD3\13.Soft Cell - Say Hello, Wave Goodbye.wav

Peak level 89.1 %
Extraction speed 17.4 X
Track quality 100.0 %
Copy CRC F32783B7
Track not present in AccurateRip database
Copy OK

Track 14

Filename A:\PsPBuRnOuT's MUSIC\DRIVE\THE CAR ALBUM - ON THE ROAD AGAIN\THE CAR ALBUM - ON THE ROAD AGAIN… CD3\14.Tears For Fears - Everybody Wants To Rule The World.wav

Peak level 100.0 %
Extraction speed 18.8 X
Track quality 100.0 %
Copy CRC 427D32BB
Track not present in AccurateRip database
Copy OK

Track 15

Filename A:\PsPBuRnOuT's MUSIC\DRIVE\THE CAR ALBUM - ON THE ROAD AGAIN\THE CAR ALBUM - ON THE ROAD AGAIN… CD3\15.Paul Simon - You Can Call Me Al.wav

Peak level 86.1 %
Extraction speed 18.3 X
Track quality 99.9 %
Copy CRC A9DC4B4E
Track not present in AccurateRip database
Copy OK

Track 16

Filename A:\PsPBuRnOuT's MUSIC\DRIVE\THE CAR ALBUM - ON THE ROAD AGAIN\THE CAR ALBUM - ON THE ROAD AGAIN… CD3\16.The Bangles - Manic Monday.wav

Peak level 100.0 %
Extraction speed 20.0 X
Track quality 100.0 %
Copy CRC 775ED7D9
Track not present in AccurateRip database
Copy OK

Track 17

Filename A:\PsPBuRnOuT's MUSIC\DRIVE\THE CAR ALBUM - ON THE ROAD AGAIN\THE CAR ALBUM - ON THE ROAD AGAIN… CD3\17.Bonnie Tyler - Holding Out For A Hero.wav

Peak level 83.7 %
Extraction speed 20.2 X
Track quality 100.0 %
Copy CRC 1C383878
Track not present in AccurateRip database
Copy OK

Track 18

Filename A:\PsPBuRnOuT's MUSIC\DRIVE\THE CAR ALBUM - ON THE ROAD AGAIN\THE CAR ALBUM - ON THE ROAD AGAIN… CD3\18.Huey Lewis & The News - The Power Of Love.wav

Peak level 100.0 %
Extraction speed 20.1 X
Track quality 100.0 %
Copy CRC D0B30105
Track not present in AccurateRip database
Copy OK

Track 19

Filename A:\PsPBuRnOuT's MUSIC\DRIVE\THE CAR ALBUM - ON THE ROAD AGAIN\THE CAR ALBUM - ON THE ROAD AGAIN… CD3\19.Cher - Bang Bang.wav

Peak level 100.0 %
Extraction speed 18.6 X
Track quality 99.8 %
Copy CRC D3DDFB1D
Track not present in AccurateRip database
Copy OK

Track 20

Filename A:\PsPBuRnOuT's MUSIC\DRIVE\THE CAR ALBUM - ON THE ROAD AGAIN\THE CAR ALBUM - ON THE ROAD AGAIN… CD3\20.Crowded House - Don't Dream It's Over.wav

Peak level 100.0 %
Extraction speed 11.3 X
Track quality 99.7 %
Copy CRC A74CA022
Track not present in AccurateRip database
Copy OK


None of the tracks are present in the AccurateRip database

No errors occurred

End of status report

–– CUETools DB Plugin V2.1.6

[CTDB TOCID: mvXg1iyxBRnsqVTfBMscxJl5a_c-] found
Submit result: mvXg1iyxBRnsqVTfBMscxJl5a_c- has been confirmed
Track | CTDB Status
1 | (1/1) Accurately ripped
2 | (1/1) Accurately ripped
3 | (1/1) Accurately ripped
4 | (1/1) Accurately ripped
5 | (1/1) Accurately ripped
6 | (1/1) Accurately ripped
7 | (1/1) Accurately ripped
8 | (1/1) Accurately ripped
9 | (1/1) Accurately ripped
10 | (1/1) Accurately ripped
11 | (1/1) Accurately ripped
12 | (1/1) Accurately ripped
13 | (1/1) Accurately ripped
14 | (1/1) Accurately ripped
15 | (1/1) Accurately ripped
16 | (1/1) Accurately ripped
17 | (1/1) Accurately ripped
18 | (1/1) Accurately ripped
19 | (1/1) Accurately ripped
20 | (1/1) Accurately ripped

Exact Audio Copy V1.3 from 2. September 2016

EAC extraction logfile from 12. November 2019, 17:35

Various / The Hits Album - The Car Album - On The Road Again… - CD4

Used drive : ATAPI iHAS124 Y Adapter: 1 ID: 0

Read mode : Secure
Utilize accurate stream : Yes
Defeat audio cache : No
Make use of C2 pointers : Yes

Read offset correction : 48
Overread into Lead-In and Lead-Out : No
Fill up missing offset samples with silence : Yes
Delete leading and trailing silent blocks : No
Null samples used in CRC calculations : Yes
Used interface : Native Win32 interface for Win NT & 2000
Gap handling : Not detected, thus appended to previous track

Used output format : User Defined Encoder
Selected bitrate : 768 kBit/s
Quality : High
Add ID3 tag : No
Command line compressor : C:\Program Files (x86)\Exact Audio Copy\FLAC\FLAC.EXE
Additional command line options : -6 -V -T "ARTIST=%artist%" -T "TITLE=%title%" -T "ALBUM=%albumtitle%" -T "DATE=%year%" -T "TRACKNUMBER=%tracknr%" -T "GENRE=%genre%" -T "COMMENT=%comment%" -T "BAND=%albuminterpret%" -T "ALBUMARTIST=%albuminterpret%" -T "COMPOSER=%composer%" %haslyrics%–tag-from-file=LYRICS="%lyricsfile%"%haslyrics% -T "DISCNUMBER=%cdnumber%" -T "TOTALDISCS=%totalcds%" -T "TOTALTRACKS=%numtracks%" %hascover%–picture="%coverfile%"%hascover% %source% -o %dest%


TOC of the extracted CD

Track | Start | Length | Start sector | End sector
––––––––––––––––––––––––––––-
1 | 0:00.00 | 3:39.58 | 0 | 16482
2 | 3:39.58 | 4:15.31 | 16483 | 35638
3 | 7:55.14 | 3:28.36 | 35639 | 51274
4 | 11:23.50 | 4:15.72 | 51275 | 70471
5 | 15:39.47 | 4:02.13 | 70472 | 88634
6 | 19:41.60 | 3:34.53 | 88635 | 104737
7 | 23:16.38 | 4:00.71 | 104738 | 122808
8 | 27:17.34 | 2:52.52 | 122809 | 135760
9 | 30:10.11 | 3:04.27 | 135761 | 149587
10 | 33:14.38 | 3:30.42 | 149588 | 165379
11 | 36:45.05 | 4:01.01 | 165380 | 183455
12 | 40:46.06 | 3:27.71 | 183456 | 199051
13 | 44:14.02 | 2:48.03 | 199052 | 211654
14 | 47:02.05 | 3:25.49 | 211655 | 227078
15 | 50:27.54 | 3:45.68 | 227079 | 244021
16 | 54:13.47 | 3:32.42 | 244022 | 259963
17 | 57:46.14 | 3:28.71 | 259964 | 275634
18 | 61:15.10 | 3:34.47 | 275635 | 291731
19 | 64:49.57 | 3:38.45 | 291732 | 308126
20 | 68:28.27 | 3:52.59 | 308127 | 325585


Track 1

Filename A:\PsPBuRnOuT's MUSIC\DRIVE\THE CAR ALBUM - ON THE ROAD AGAIN\THE CAR ALBUM - ON THE ROAD AGAIN… CD4\01.Mark Ronson Feat. Amy Winehouse - Valerie.wav

Peak level 86.0 %
Extraction speed 14.1 X
Track quality 100.0 %
Copy CRC 80A4A4A7
Track not present in AccurateRip database
Copy OK

Track 2

Filename A:\PsPBuRnOuT's MUSIC\DRIVE\THE CAR ALBUM - ON THE ROAD AGAIN\THE CAR ALBUM - ON THE ROAD AGAIN… CD4\02.Robbie Williams - Rock DJ.wav

Peak level 83.8 %
Extraction speed 20.2 X
Track quality 100.0 %
Copy CRC D9CC7191
Track not present in AccurateRip database
Copy OK

Track 3

Filename A:\PsPBuRnOuT's MUSIC\DRIVE\THE CAR ALBUM - ON THE ROAD AGAIN\THE CAR ALBUM - ON THE ROAD AGAIN… CD4\03.James Arthur - Say You Won't Let Go.wav

Peak level 83.1 %
Extraction speed 22.6 X
Track quality 100.0 %
Copy CRC 31D23D3B
Track not present in AccurateRip database
Copy OK

Track 4

Filename A:\PsPBuRnOuT's MUSIC\DRIVE\THE CAR ALBUM - ON THE ROAD AGAIN\THE CAR ALBUM - ON THE ROAD AGAIN… CD4\04.Maroon 5 - She Will Be Loved.wav

Peak level 84.1 %
Extraction speed 24.1 X
Track quality 100.0 %
Copy CRC 2CFC897D
Track not present in AccurateRip database
Copy OK

Track 5

Filename A:\PsPBuRnOuT's MUSIC\DRIVE\THE CAR ALBUM - ON THE ROAD AGAIN\THE CAR ALBUM - ON THE ROAD AGAIN… CD4\05.Natalie Imbruglia - Torn.wav

Peak level 69.1 %
Extraction speed 21.1 X
Track quality 99.9 %
Copy CRC D443132E
Track not present in AccurateRip database
Copy OK

Track 6

Filename A:\PsPBuRnOuT's MUSIC\DRIVE\THE CAR ALBUM - ON THE ROAD AGAIN\THE CAR ALBUM - ON THE ROAD AGAIN… CD4\06.Sia - Chandelier.wav

Peak level 79.3 %
Extraction speed 19.7 X
Track quality 100.0 %
Copy CRC E4273EAD
Track not present in AccurateRip database
Copy OK

Track 7

Filename A:\PsPBuRnOuT's MUSIC\DRIVE\THE CAR ALBUM - ON THE ROAD AGAIN\THE CAR ALBUM - ON THE ROAD AGAIN… CD4\07.Hozier - Take Me To Church.wav

Peak level 90.4 %
Extraction speed 28.2 X
Track quality 100.0 %
Copy CRC 1166620C
Track not present in AccurateRip database
Copy OK

Track 8

Filename A:\PsPBuRnOuT's MUSIC\DRIVE\THE CAR ALBUM - ON THE ROAD AGAIN\THE CAR ALBUM - ON THE ROAD AGAIN… CD4\08.Sam Smith - Stay With Me.wav

Peak level 84.0 %
Extraction speed 21.1 X
Track quality 99.8 %
Copy CRC 108FE8DE
Track not present in AccurateRip database
Copy OK

Track 9

Filename A:\PsPBuRnOuT's MUSIC\DRIVE\THE CAR ALBUM - ON THE ROAD AGAIN\THE CAR ALBUM - ON THE ROAD AGAIN… CD4\09.Sparks - This Town Ain't Big Enough For Both Of Us.wav

Peak level 100.0 %
Extraction speed 22.0 X
Track quality 100.0 %
Copy CRC 7BBFF12D
Track not present in AccurateRip database
Copy OK

Track 10

Filename A:\PsPBuRnOuT's MUSIC\DRIVE\THE CAR ALBUM - ON THE ROAD AGAIN\THE CAR ALBUM - ON THE ROAD AGAIN… CD4\10.Electric Light Orchestra - Livin' Thing.wav

Peak level 100.0 %
Extraction speed 29.3 X
Track quality 100.0 %
Copy CRC A3977C2C
Track not present in AccurateRip database
Copy OK

Track 11

Filename A:\PsPBuRnOuT's MUSIC\DRIVE\THE CAR ALBUM - ON THE ROAD AGAIN\THE CAR ALBUM - ON THE ROAD AGAIN… CD4\11.Sweet - Ballroom Blitz.wav

Peak level 99.0 %
Extraction speed 32.1 X
Track quality 100.0 %
Copy CRC 7CF01D11
Track not present in AccurateRip database
Copy OK

Track 12

Filename A:\PsPBuRnOuT's MUSIC\DRIVE\THE CAR ALBUM - ON THE ROAD AGAIN\THE CAR ALBUM - ON THE ROAD AGAIN… CD4\12.The Rubettes - Sugar Baby Love.wav

Peak level 81.0 %
Extraction speed 31.6 X
Track quality 100.0 %
Copy CRC 1470FCBD
Track not present in AccurateRip database
Copy OK

Track 13

Filename A:\PsPBuRnOuT's MUSIC\DRIVE\THE CAR ALBUM - ON THE ROAD AGAIN\THE CAR ALBUM - ON THE ROAD AGAIN… CD4\13.Bay City Rollers - Bye Bye Baby.wav

Peak level 100.0 %
Extraction speed 34.2 X
Track quality 100.0 %
Copy CRC 27776DF1
Track not present in AccurateRip database
Copy OK

Track 14

Filename A:\PsPBuRnOuT's MUSIC\DRIVE\THE CAR ALBUM - ON THE ROAD AGAIN\THE CAR ALBUM - ON THE ROAD AGAIN… CD4\14.Smokie - Living Next Door To Alice.wav

Peak level 94.4 %
Extraction speed 34.9 X
Track quality 100.0 %
Copy CRC 3799BB16
Track not present in AccurateRip database
Copy OK

Track 15

Filename A:\PsPBuRnOuT's MUSIC\DRIVE\THE CAR ALBUM - ON THE ROAD AGAIN\THE CAR ALBUM - ON THE ROAD AGAIN… CD4\15.Jamiroquai - Virtual Insanity.wav

Peak level 89.0 %
Extraction speed 28.2 X
Track quality 99.9 %
Copy CRC 42478825
Track not present in AccurateRip database
Copy OK

Track 16

Filename A:\PsPBuRnOuT's MUSIC\DRIVE\THE CAR ALBUM - ON THE ROAD AGAIN\THE CAR ALBUM - ON THE ROAD AGAIN… CD4\16.Years & Years - King.wav

Peak level 78.5 %
Extraction speed 22.4 X
Track quality 99.9 %
Copy CRC 73B4A309
Track not present in AccurateRip database
Copy OK

Track 17

Filename A:\PsPBuRnOuT's MUSIC\DRIVE\THE CAR ALBUM - ON THE ROAD AGAIN\THE CAR ALBUM - ON THE ROAD AGAIN… CD4\17.Jonas Blue Feat. Dakota - Fast Car.wav

Peak level 89.1 %
Extraction speed 25.9 X
Track quality 100.0 %
Copy CRC 8D1B6F38
Track not present in AccurateRip database
Copy OK

Track 18

Filename A:\PsPBuRnOuT's MUSIC\DRIVE\THE CAR ALBUM - ON THE ROAD AGAIN\THE CAR ALBUM - ON THE ROAD AGAIN… CD4\18.Lana Del Rey & Cedric Gervais - Summertime Sadness.wav

Peak level 88.8 %
Extraction speed 36.3 X
Track quality 100.0 %
Copy CRC E1E91683
Track not present in AccurateRip database
Copy OK

Track 19

Filename A:\PsPBuRnOuT's MUSIC\DRIVE\THE CAR ALBUM - ON THE ROAD AGAIN\THE CAR ALBUM - ON THE ROAD AGAIN… CD4\19.Calvin Harris - Summer.wav

Peak level 88.1 %
Extraction speed 29.2 X
Track quality 99.9 %
Copy CRC 2B36AEDE
Track not present in AccurateRip database
Copy OK

Track 20

Filename A:\PsPBuRnOuT's MUSIC\DRIVE\THE CAR ALBUM - ON THE ROAD AGAIN\THE CAR ALBUM - ON THE ROAD AGAIN… CD4\20.Baddiel, Skinner & The Lightning Seeds - Three Lions '98.wav

Peak level 85.6 %
Extraction speed 8.8 X
Track quality 99.6 %
Copy CRC 7A637602
Track not present in AccurateRip database
Copy OK


None of the tracks are present in the AccurateRip database

No errors occurred

End of status report

–– CUETools DB Plugin V2.1.6

[CTDB TOCID: _gYL8GTlB1PH64.2FbTRe9u.Wp8-] found
Submit result: _gYL8GTlB1PH64.2FbTRe9u.Wp8- has been confirmed
Track | CTDB Status
1 | (1/1) Accurately ripped
2 | (1/1) Accurately ripped
3 | (1/1) Accurately ripped
4 | (1/1) Accurately ripped
5 | (1/1) Accurately ripped
6 | (1/1) Accurately ripped
7 | (1/1) Accurately ripped
8 | (1/1) Accurately ripped
9 | (1/1) Accurately ripped
10 | (1/1) Accurately ripped
11 | (1/1) Accurately ripped
12 | (1/1) Accurately ripped
13 | (1/1) Accurately ripped
14 | (1/1) Accurately ripped
15 | (1/1) Accurately ripped
16 | (1/1) Accurately ripped
17 | (1/1) Accurately ripped
18 | (1/1) Accurately ripped
19 | (1/1) Accurately ripped
20 | (1/1) Accurately ripped