Tags
Language
Tags

VA - The Rocky Story: The Original Soundtrack Songs From The Rocky Movies (1990)

Posted By: Efgrapha
VA - The Rocky Story: The Original Soundtrack Songs From The Rocky Movies (1990)

VA - The Rocky Story: The Original Soundtrack Songs From The Rocky Movies (1990)
EAC | FLAC (Tracks) + cue.+log ~ 278 Mb | Mp3, CBR320 kbps ~ 91 Mb | Covers included
Soundtrack, Rock, Pop Rock, R&B | Label: Scotti Bros. | # 848 242-2 | 00:39:06

The Rocky Story pools material primarily from the Rocky IV soundtrack (Survivor's “Burning Heart,” John Cafferty’s “Heart’s on Fire,” James Brown’s “Living in America,” and Robert Tepper’s “No Easy Way Out”). Survivor’s “Eye of the Tiger” is also featured, along with new, re-recorded versions of “Gonna Fly Now” from the Bill Conti ‘70s originals.

Jason Lymangrover, All Music Guide

All the other reviews are so right - this really is one of the most uplifting, motivational and inspiring soundtracks ever! From the moment you press play and hear that unmistakable guitar intro to Eye of the Tiger the hairs stand up on the back of your neck and you can feel the blood pumping through your entire body - you feel so ALIVE!

I own all the previous albums on tape so to have a 'best of' compiled on a single cd is a dream come true. Every track packs a real punch and if you listen to it while training, then boy, are you in for a surprise - you'll be lifting weights and running at speeds that would make Sly jealous!

It's also one of those rare cd's that you can put on and relax in the knowledge that you will love every track and not have to worry about skipping any or programming in only the good ones - because they're all great!

Although saying that, i'll warn you now - i guarantee you'll find yourself skipping to track 4 first, everytime - and then starting it from the beginning of the cd (so that way you get to hear track 4 again!! (Incidentally, there's another great Robert Tepper track on the Cobra soundtrack.))

Some may scoff but if this is not part of your record collection then just sell your hi-fi right now. Gonna Fly Now is worth the price of admission on its own but you're not just owning one of the most iconic pieces of music in film history, you also get some other cracking tunes. Don't throw in the towel, get hold of a copy now!

Ruggy, Amazon


Tracklist:

01. Survivor - Eye Of The Tiger (3:47)
02. Survivor - Burning Heart (3:52)
03. James Brown - Living In America (4:42)
04. Robert Tepper - No Easy Way Out (4:20)
05. John Cafferty - Hearts On Fire (4:06)
06. The Rocky Orchestra - Gonna Fly Now (4:50)
07. Vince DiCola - War (5:57)
08. Vince DiCola - Training Montage (3:39)
09. The Rocky Orchestra - Gonna Fly Now (Instumental) (3:53)


Exact Audio Copy V1.3 from 2. September 2016

EAC extraction logfile from 20. March 2018, 12:20

Various Artists / The Rocky Story

Used drive : MATSHITADVD-RAM UJ8B0AW Adapter: 1 ID: 0

Read mode : Secure
Utilize accurate stream : Yes
Defeat audio cache : Yes
Make use of C2 pointers : No

Read offset correction : 102
Overread into Lead-In and Lead-Out : No
Fill up missing offset samples with silence : Yes
Delete leading and trailing silent blocks : No
Null samples used in CRC calculations : Yes
Used interface : Native Win32 interface for Win NT & 2000
Gap handling : Appended to previous track

Used output format : User Defined Encoder
Selected bitrate : 1024 kBit/s
Quality : High
Add ID3 tag : No
Command line compressor : E:\Program Files (x86)\Exact Audio Copy\Flac\flac.exe
Additional command line options : -8 -e -p -V -T "ARTIST=%artist%" -T "TITLE=%title%" -T "ALBUM=%albumtitle%" -T "DATE=%year%" -T "TRACKNUMBER=%tracknr%" -T "GENRE=%genre%" -T "PERFORMER=%albuminterpret%" -T "COMPOSER=%composer%" %haslyrics%–tag-from-file=LYRICS="%lyricsfile%"%haslyrics% -T "ALBUMARTIST=%albumartist%" -T "DISCNUMBER=%cdnumber%" -T "TOTALDISCS=%totalcds%" -T "TOTALTRACKS=%numtracks%" -T "COMMENT=%comment%" %source% -o %dest%


TOC of the extracted CD

Track | Start | Length | Start sector | End sector
––––––––––––––––––––––––––––-
1 | 0:00.32 | 3:47.20 | 32 | 17076
2 | 3:47.52 | 3:52.15 | 17077 | 34491
3 | 7:39.67 | 4:42.08 | 34492 | 55649
4 | 12:22.00 | 4:19.70 | 55650 | 75144
5 | 16:41.70 | 4:06.30 | 75145 | 93624
6 | 20:48.25 | 4:49.47 | 93625 | 115346
7 | 25:37.72 | 5:56.48 | 115347 | 142094
8 | 31:34.45 | 3:39.15 | 142095 | 158534
9 | 35:13.60 | 3:52.70 | 158535 | 176004


Track 1

Filename E:\EAC Rip\The Rocky Story (Soundtrack)\01 - Survivor - Eye Of The Tiger.wav

Pre-gap length 0:00:02.32

Peak level 89.2 %
Extraction speed 1.1 X
Track quality 100.0 %
Test CRC 63DBEB7C
Copy CRC 63DBEB7C
Accurately ripped (confidence 33) [5B1B9A49] (AR v2)
Copy OK

Track 2

Filename E:\EAC Rip\The Rocky Story (Soundtrack)\02 - Survivor - Burning Heart.wav

Pre-gap length 0:00:00.72

Peak level 83.3 %
Extraction speed 1.3 X
Track quality 100.0 %
Test CRC 3696B84B
Copy CRC 3696B84B
Accurately ripped (confidence 33) [4DF85FD9] (AR v2)
Copy OK

Track 3

Filename E:\EAC Rip\The Rocky Story (Soundtrack)\03 - James Brown - Living In America.wav

Pre-gap length 0:00:00.57

Peak level 90.5 %
Extraction speed 1.4 X
Track quality 100.0 %
Test CRC F231F070
Copy CRC F231F070
Accurately ripped (confidence 34) [D9B128B8] (AR v2)
Copy OK

Track 4

Filename E:\EAC Rip\The Rocky Story (Soundtrack)\04 - Robert Tepper - No Easy Way Out.wav

Peak level 86.2 %
Extraction speed 1.4 X
Track quality 99.9 %
Test CRC DECF5824
Copy CRC DECF5824
Accurately ripped (confidence 34) [D641CA95] (AR v2)
Copy OK

Track 5

Filename E:\EAC Rip\The Rocky Story (Soundtrack)\05 - John Cafferty - Hearts On Fire.wav

Pre-gap length 0:00:00.63

Peak level 94.1 %
Extraction speed 1.6 X
Track quality 100.0 %
Test CRC DBEE02F8
Copy CRC DBEE02F8
Accurately ripped (confidence 34) [62986E69] (AR v2)
Copy OK

Track 6

Filename E:\EAC Rip\The Rocky Story (Soundtrack)\06 - The Rocky Orchestra - Gonna Fly Now.wav

Peak level 93.8 %
Extraction speed 1.8 X
Track quality 100.0 %
Test CRC 7A8CCEB2
Copy CRC 7A8CCEB2
Accurately ripped (confidence 32) [853E0422] (AR v2)
Copy OK

Track 7

Filename E:\EAC Rip\The Rocky Story (Soundtrack)\07 - Vince DiCola - War.wav

Pre-gap length 0:00:00.30

Peak level 97.3 %
Extraction speed 1.9 X
Track quality 100.0 %
Test CRC CC061491
Copy CRC CC061491
Accurately ripped (confidence 31) [1CF338CB] (AR v2)
Copy OK

Track 8

Filename E:\EAC Rip\The Rocky Story (Soundtrack)\08 - Vince DiCola - Training Montage.wav

Pre-gap length 0:00:01.45

Peak level 93.3 %
Extraction speed 1.9 X
Track quality 100.0 %
Test CRC AACE9ACD
Copy CRC AACE9ACD
Accurately ripped (confidence 31) [341323B5] (AR v2)
Copy OK

Track 9

Filename E:\EAC Rip\The Rocky Story (Soundtrack)\09 - The Rocky Orchestra - Gonna Fly Now (Instumental).wav

Pre-gap length 0:00:00.55

Peak level 91.1 %
Extraction speed 2.0 X
Track quality 100.0 %
Test CRC 6086E3A7
Copy CRC 6086E3A7
Accurately ripped (confidence 31) [DE389F8C] (AR v2)
Copy OK


All tracks accurately ripped

No errors occurred

End of status report

–– CUETools DB Plugin V2.1.6

[CTDB TOCID: CFKgiUdnren0fGIQw6EKaFcWZRs-] found
Submit result: CFKgiUdnren0fGIQw6EKaFcWZRs- has been confirmed
Track | CTDB Status
1 | (74/81) Accurately ripped
2 | (76/81) Accurately ripped
3 | (77/81) Accurately ripped
4 | (77/81) Accurately ripped
5 | (79/81) Accurately ripped
6 | (77/81) Accurately ripped
7 | (75/81) Accurately ripped
8 | (75/81) Accurately ripped
9 | (77/81) Accurately ripped


==== Log checksum AFACDD28756CF2FB8898250EC0B2A2C628B5030FD03E403EDCF003EEDE8241C0 ====

[CUETools log; Date: 15.07.2018 0:30:46; Version: 2.1.4]
Pregap length 00:00:32.
[CTDB TOCID: CFKgiUdnren0fGIQw6EKaFcWZRs-] found.
Track | CTDB Status
1 | (87/94) Accurately ripped
2 | (89/94) Accurately ripped
3 | (90/94) Accurately ripped
4 | (90/94) Accurately ripped
5 | (92/94) Accurately ripped
6 | (90/94) Accurately ripped
7 | (88/94) Accurately ripped
8 | (88/94) Accurately ripped
9 | (90/94) Accurately ripped
[AccurateRip ID: 000d3ea3-00621877-68092a09] found.
Track [ CRC | V2 ] Status
01 [6cbaec0f|5b1b9a49] (35+36/95) Accurately ripped
02 [b5390422|4df85fd9] (34+36/94) Accurately ripped
03 [6e80e6fb|d9b128b8] (35+37/95) Accurately ripped
04 [c31a98d9|d641ca95] (34+37/95) Accurately ripped
05 [a2730de0|62986e69] (33+37/93) Accurately ripped
06 [b4bd114c|853e0422] (36+35/95) Accurately ripped
07 [e1af9278|1cf338cb] (35+34/92) Accurately ripped
08 [5f39487e|341323b5] (34+34/91) Accurately ripped
09 [de1555dc|de389f8c] (35+34/91) Accurately ripped
Offsetted by -657:
01 [9dd91270] (05/95) Accurately ripped
02 [d270e836] (04/94) Accurately ripped
03 [11d07f58] (04/95) Accurately ripped
04 [f1bb4044] (04/95) Accurately ripped
05 [7647262a] (04/93) Accurately ripped
06 [6f7db8d7] (04/95) Accurately ripped
07 [497cdbe8] (04/92) Accurately ripped
08 [9def9711] (04/91) Accurately ripped
09 [574ceb1e] (04/91) Accurately ripped
Offsetted by -1324:
01 [bfd4483d] (00/95) No match (V2 was not tested)
02 [3c0e26b0] (00/94) No match (V2 was not tested)
03 [8d253077] (00/95) No match (V2 was not tested)
04 [b4b993b5] (00/95) No match (V2 was not tested)
05 [d68dee81] (00/93) No match (V2 was not tested)
06 [12413fcf] (00/95) No match (V2 was not tested)
07 [34e2dee8] (00/92) No match (V2 was not tested)
08 [2df8c0aa] (00/91) No match (V2 was not tested)
09 [a7466c00] (00/91) No match (V2 was not tested)
Offsetted by -679:
01 [95b1250d] (00/95) No match (V2 was not tested)
02 [4735efcb] (00/94) No match (V2 was not tested)
03 [29c4bfe3] (00/95) No match (V2 was not tested)
04 [cb31dfa9] (00/95) No match (V2 was not tested)
05 [4ee1dc6a] (00/93) No match (V2 was not tested)
06 [0c4e9f2f] (00/95) No match (V2 was not tested)
07 [64bd7fae] (00/92) No match (V2 was not tested)
08 [e322d8ad] (00/91) No match (V2 was not tested)
09 [c199a219] (00/91) No match (V2 was not tested)

Track Peak [ CRC32 ] [W/O NULL] [ LOG ]
– 97,3 [A8DAD9AD] [3F71AC33]
01 89,2 [63DBEB7C] [12B02C0E] CRC32
02 83,3 [3696B84B] [71EA65DE] CRC32
03 90,5 [F231F070] [932F36F6] CRC32
04 86,2 [DECF5824] [549BAD53] CRC32
05 94,1 [DBEE02F8] [BDD0D8BD] CRC32
06 93,8 [7A8CCEB2] [B6B206DF] CRC32
07 97,3 [CC061491] [C62ACFC2] CRC32
08 93,3 [AACE9ACD] [6C130172] CRC32
09 91,1 [6086E3A7] [57BA4C28] CRC32

foobar2000 1.2 / Dynamic Range Meter 1.1.1
log date: 2018-07-15 00:37:52

––––––––––––––––––––––––––––––––––––––––
Analyzed: James Brown / The Rocky Story (1)
John Cafferty / The Rocky Story (2)
Robert Tepper / The Rocky Story (3)
Survivor / The Rocky Story (4-5)
The Rocky Orchestra / The Rocky Story (6-7)
Vince DiCola / The Rocky Story (8-9)
––––––––––––––––––––––––––––––––––––––––

DR Peak RMS Duration Track
––––––––––––––––––––––––––––––––––––––––
DR13 -0.87 dB -15.06 dB 4:42 03-Living In America
DR10 -0.52 dB -12.86 dB 4:06 05-Hearts On Fire
DR12 -1.29 dB -14.51 dB 4:20 04-No Easy Way Out
DR13 -0.99 dB -15.87 dB 3:47 01-Eye Of The Tiger
DR11 -1.58 dB -15.10 dB 3:52 02-Burning Heart
DR9 -0.55 dB -11.56 dB 4:50 06-Gonna Fly Now
DR11 -0.80 dB -13.79 dB 3:53 09-Gonna Fly Now (Instumental)
DR8 -0.23 dB -11.54 dB 5:57 07-War
DR10 -0.59 dB -12.78 dB 3:39 08-Training Montage
––––––––––––––––––––––––––––––––––––––––

Number of tracks: 9
Official DR value: DR11

Samplerate: 44100 Hz
Channels: 2
Bits per sample: 16
Bitrate: 945 kbps
Codec: FLAC
================================================================================

VA - The Rocky Story: The Original Soundtrack Songs From The Rocky Movies (1990)

VA - The Rocky Story: The Original Soundtrack Songs From The Rocky Movies (1990)