Subcategories

VA - The Ultimate Christmas Album, WCBS-FM 101.1, Vol. 2 (1995)

Posted By: Designol
VA - The Ultimate Christmas Album, WCBS-FM 101.1, Vol. 2 (1995)

VA - The Ultimate Christmas Album, WCBS-FM 101.1, Vol. 2 (1995)
25 MORE Great Songs for the 25th of December

EAC | FLAC | Tracks (Cue&Log) ~ 385 Mb | Mp3 (CBR320) ~ 159 Mb | Scans ~ 40 Mb
Label: Collectables Records | # COL-CD-2512 | Time: 01:09:25
Holidays, R&B, Pop/Rock, Vocal Pop, Soul

Volume two of Collectables' Ultimate Christmas Album gathers more classic pop and rock holiday tunes, including the Beach Boys' "Little Saint Nick," Gene Autry's "Here Comes Santa Claus," and Diana Ross & the Supremes' "White Christmas." Most of this volume's best-known tracks are by traditional pop crooners, such as Dean Martin's "Let It Snow! Let It Snow! Let It Snow!," Bing Crosby's "It's Beginning to Look a Lot Like Christmas," and Burl Ives' "Holly Jolly Christmas." However, less-familiar tracks like the Echelons' "A Christmas Long Ago (Jingle Jingle)," Augie Rios' "Donde Esta Santa Claus," and Barry Gordon's "Nuttin' for Christmas" prevent the collection from being too predictable. It's not exactly a straightforward holiday-hits compilation, but The Ultimate Christmas Album, Vol. 2 balances enough standards and obscure tunes to make it a unique collection.

Heather Phares, All Music Guide

Tracklist:

01. The Beach Boys - Little Saint Nick (2:00)
02. Diana Ross & The Supremes - White Christmas (3:56)
03. Gene Autry - Here Comes Santa Claus (2:33)
04. Johnny Mathis - Sleigh Ride (2:59)
05. Elmo & Patsy - Grandma Got Run Over By A Reindeer (3:31)
06. The Echelons - A Christmas Long Ago (Jingle Jingle) (3:14)
07. The Carpenters - Merry Christmas Darling (3:08)
08. Augie Rios - Donde Esta Santa Claus (2:27)
09. Dion - Merry Christmas Baby (3:27)
10. The Jackson Five - Give Love On Christmas Day (3:00)
11. Burl Ives - Holly Jolly Christmas (2:16)
12. Johnny Maestro & The Brooklyn Bridge - Have Yourself A Merry Little Chtistmas (2:27)
13. The Beach Boys - Frosty The Snowman (1:56)
14. Barry Gordon - Nuttin' For Christmas (2:38)
15. The Duprees - The Christmas Song (3:21)
16. Roy Orbison - Pretty Paper (2:48)
17. Bing Crosby - It's Beginning To Look A Lot Like Christmas (2:49)
18. Denise Montana &The Salsoul Orchestra - Merry Christmas All (3:09)
19. Lou Monte - Dominick The Donkey (2:28)
20. The Melodeers - Rudolph The Red-Nosed Reindeer (2:19)
21. Stevie Wonder - Someday At Christmas (2:52)
22. Andy Williams - It's the Most Wonderful Time Of The Year (2:34)
23. Dean Martin - Let It Snow! Let It Snow! Let It Snow! (1:58)
24. Jo Ann Campbell - Happy New Year Baby (2:43)
25. The Heartbeats - After New Year's Eve (2:50)


Exact Audio Copy V1.0 beta 6 from 9. April 2015

EAC extraction logfile from 3. December 2015, 18:03

Various Artists / The Ultimate Christmas Album Volume 2

Used drive : hp DVD-RAM GH82N Adapter: 1 ID: 0

Read mode : Secure
Utilize accurate stream : Yes
Defeat audio cache : Yes
Make use of C2 pointers : No

Read offset correction : 667
Overread into Lead-In and Lead-Out : No
Fill up missing offset samples with silence : Yes
Delete leading and trailing silent blocks : No
Null samples used in CRC calculations : Yes
Used interface : Native Win32 interface for Win NT & 2000
Gap handling : Appended to previous track

Used output format : User Defined Encoder
Selected bitrate : 1024 kBit/s
Quality : High
Add ID3 tag : No
Command line compressor : C:\Program Files (x86)\Exact Audio Copy\Flac\flac.exe
Additional command line options : -8 -V -T "ARTIST=%artist%" -T "TITLE=%title%" -T "ALBUM=%albumtitle%" -T "DATE=%year%" -T "TRACKNUMBER=%tracknr%" -T "TOTALTRACKS=%numtracks%" -T "GENRE=%genre%" -T "ALBUMARTIST=%albumartist%" -T "ALBUM ARTIST=%albumartist%" -T "COMMENT=EAC Secure Mode, Test & Copy, AccurateRip, FLAC -8" %source%


TOC of the extracted CD

Track | Start | Length | Start sector | End sector
––––––––––––––––––––––––––––-
1 | 0:00.30 | 2:00.10 | 30 | 9039
2 | 2:00.40 | 3:56.32 | 9040 | 26771
3 | 5:56.72 | 2:33.00 | 26772 | 38246
4 | 8:29.72 | 2:59.01 | 38247 | 51672
5 | 11:28.73 | 3:31.07 | 51673 | 67504
6 | 15:00.05 | 3:14.06 | 67505 | 82060
7 | 18:14.11 | 3:08.06 | 82061 | 96166
8 | 21:22.17 | 2:26.49 | 96167 | 107165
9 | 23:48.66 | 3:26.69 | 107166 | 122684
10 | 27:15.60 | 3:00.29 | 122685 | 136213
11 | 30:16.14 | 2:16.21 | 136214 | 146434
12 | 32:32.35 | 2:27.34 | 146435 | 157493
13 | 34:59.69 | 1:56.04 | 157494 | 166197
14 | 36:55.73 | 2:38.07 | 166198 | 178054
15 | 39:34.05 | 3:21.17 | 178055 | 193146
16 | 42:55.22 | 2:47.57 | 193147 | 205728
17 | 45:43.04 | 2:48.45 | 205729 | 218373
18 | 48:31.49 | 3:09.32 | 218374 | 232580
19 | 51:41.06 | 2:27.63 | 232581 | 243668
20 | 54:08.69 | 2:19.23 | 243669 | 254116
21 | 56:28.17 | 2:51.44 | 254117 | 266985
22 | 59:19.61 | 2:34.03 | 266986 | 278538
23 | 61:53.64 | 1:58.16 | 278539 | 287404
24 | 63:52.05 | 2:43.26 | 287405 | 299655
25 | 66:35.31 | 2:50.04 | 299656 | 312409


Track 1

Filename C:\EAC\01 - The Beach Boys - Little Saint Nick.wav

Pre-gap length 0:00:02.30

Peak level 94.4 %
Extraction speed 1.2 X
Track quality 99.9 %
Test CRC 0EECF5DB
Copy CRC 0EECF5DB
Accurately ripped (confidence 6) [6BFD9716] (AR v2)
Copy OK

Track 2

Filename C:\EAC\02 - Diana Ross & The Supremes - White Christmas.wav

Peak level 87.7 %
Extraction speed 1.9 X
Track quality 100.0 %
Test CRC 09DB6EAB
Copy CRC 09DB6EAB
Accurately ripped (confidence 6) [9063626D] (AR v2)
Copy OK

Track 3

Filename C:\EAC\03 - Gene Autry - Here Comes Santa Claus.wav

Peak level 100.0 %
Extraction speed 1.9 X
Track quality 100.0 %
Test CRC BEBFCFE8
Copy CRC BEBFCFE8
Accurately ripped (confidence 6) [29E36F1B] (AR v2)
Copy OK

Track 4

Filename C:\EAC\04 - Johnny Mathis - Sleigh Ride.wav

Peak level 79.6 %
Extraction speed 2.1 X
Track quality 100.0 %
Test CRC 9A4E3B8A
Copy CRC 9A4E3B8A
Accurately ripped (confidence 6) [C33A1BF1] (AR v2)
Copy OK

Track 5

Filename C:\EAC\05 - Elmo & Patsy - Grandma Got Run Over By A Reindeer.wav

Peak level 100.0 %
Extraction speed 2.2 X
Track quality 100.0 %
Test CRC 2ED21DF6
Copy CRC 2ED21DF6
Accurately ripped (confidence 6) [43FACB68] (AR v2)
Copy OK

Track 6

Filename C:\EAC\06 - The Echelons - A Christmas Long Ago (Jingle Jingle).wav

Peak level 100.0 %
Extraction speed 2.3 X
Track quality 100.0 %
Test CRC 7C111824
Copy CRC 7C111824
Accurately ripped (confidence 6) [4E74D7F4] (AR v2)
Copy OK

Track 7

Filename C:\EAC\07 - The Carpenters - Merry Christmas Darling.wav

Peak level 91.8 %
Extraction speed 1.8 X
Track quality 100.0 %
Test CRC E9AD034C
Copy CRC E9AD034C
Accurately ripped (confidence 6) [0124CD0F] (AR v2)
Copy OK

Track 8

Filename C:\EAC\08 - Augie Rios - Donde Esta Santa Claus.wav

Peak level 100.0 %
Extraction speed 2.3 X
Track quality 100.0 %
Test CRC 2F7A382E
Copy CRC 2F7A382E
Accurately ripped (confidence 6) [285B16F4] (AR v2)
Copy OK

Track 9

Filename C:\EAC\09 - Dion - Merry Christmas Baby.wav

Peak level 97.7 %
Extraction speed 2.7 X
Track quality 100.0 %
Test CRC 64AF4654
Copy CRC 64AF4654
Accurately ripped (confidence 6) [6EC040D3] (AR v2)
Copy OK

Track 10

Filename C:\EAC\10 - The Jackson Five - Give Love On Christmas Day.wav

Peak level 94.7 %
Extraction speed 2.7 X
Track quality 100.0 %
Test CRC A3411646
Copy CRC A3411646
Accurately ripped (confidence 6) [3C6141FF] (AR v2)
Copy OK

Track 11

Filename C:\EAC\11 - Burl Ives - Holly Jolly Christmas.wav

Peak level 96.6 %
Extraction speed 2.6 X
Track quality 100.0 %
Test CRC 5837325C
Copy CRC 5837325C
Accurately ripped (confidence 6) [0D497F02] (AR v2)
Copy OK

Track 12

Filename C:\EAC\12 - Johnny Maestro & The Brooklyn Bridge - Have Yourself A Merry Little Chtistmas.wav

Peak level 96.8 %
Extraction speed 2.7 X
Track quality 100.0 %
Test CRC 73F8A675
Copy CRC 73F8A675
Accurately ripped (confidence 6) [39755456] (AR v2)
Copy OK

Track 13

Filename C:\EAC\13 - The Beach Boys - Frosty The Snowman.wav

Peak level 95.9 %
Extraction speed 2.5 X
Track quality 100.0 %
Test CRC 5191D127
Copy CRC 5191D127
Accurately ripped (confidence 6) [7AC63DC2] (AR v2)
Copy OK

Track 14

Filename C:\EAC\14 - Barry Gordon - Nuttin' For Christmas.wav

Peak level 76.1 %
Extraction speed 2.9 X
Track quality 100.0 %
Test CRC E0040777
Copy CRC E0040777
Accurately ripped (confidence 6) [9F09D37C] (AR v2)
Copy OK

Track 15

Filename C:\EAC\15 - The Duprees - The Christmas Song.wav

Peak level 100.0 %
Extraction speed 3.1 X
Track quality 100.0 %
Test CRC 4AE5C27C
Copy CRC 4AE5C27C
Accurately ripped (confidence 6) [CEA086F8] (AR v2)
Copy OK

Track 16

Filename C:\EAC\16 - Roy Orbison - Pretty Paper.wav

Peak level 100.0 %
Extraction speed 3.0 X
Track quality 100.0 %
Test CRC 6B7928BD
Copy CRC 6B7928BD
Accurately ripped (confidence 6) [068A5D0E] (AR v2)
Copy OK

Track 17

Filename C:\EAC\17 - Bing Crosby - It's Beginning To Look A Lot Like Christmas.wav

Peak level 100.0 %
Extraction speed 3.0 X
Track quality 100.0 %
Test CRC 2F4C935C
Copy CRC 2F4C935C
Accurately ripped (confidence 6) [27A6F3CE] (AR v2)
Copy OK

Track 18

Filename C:\EAC\18 - Denise Montana &The Salsoul Orchestra - Merry Christmas All.wav

Peak level 85.2 %
Extraction speed 3.2 X
Track quality 100.0 %
Test CRC 75F3825D
Copy CRC 75F3825D
Accurately ripped (confidence 6) [E74266BD] (AR v2)
Copy OK

Track 19

Filename C:\EAC\19 - Lou Monte - Dominick The Donkey.wav

Peak level 87.2 %
Extraction speed 3.2 X
Track quality 100.0 %
Test CRC 8B9D1830
Copy CRC 8B9D1830
Accurately ripped (confidence 6) [65CF3E46] (AR v2)
Copy OK

Track 20

Filename C:\EAC\20 - The Melodeers - Rudolph The Red-Nosed Reindeer.wav

Peak level 87.6 %
Extraction speed 3.1 X
Track quality 100.0 %
Test CRC 7D65E433
Copy CRC 7D65E433
Accurately ripped (confidence 6) [3574BA31] (AR v2)
Copy OK

Track 21

Filename C:\EAC\21 - Stevie Wonder - Someday At Christmas.wav

Peak level 84.8 %
Extraction speed 3.3 X
Track quality 100.0 %
Test CRC 9DE5E2BC
Copy CRC 9DE5E2BC
Accurately ripped (confidence 6) [42FD6BDC] (AR v2)
Copy OK

Track 22

Filename C:\EAC\22 - Andy Williams - It's the Most Wonderful Time Of The Year.wav

Peak level 90.4 %
Extraction speed 2.8 X
Track quality 99.9 %
Test CRC E58E6EED
Copy CRC E58E6EED
Accurately ripped (confidence 6) [6D23125B] (AR v2)
Copy OK

Track 23

Filename C:\EAC\23 - Dean Martin - Let It Snow! Let It Snow! Let It Snow!.wav

Peak level 84.4 %
Extraction speed 2.5 X
Track quality 99.9 %
Test CRC 06CBC6EC
Copy CRC 06CBC6EC
Accurately ripped (confidence 6) [EC543BEB] (AR v2)
Copy OK

Track 24

Filename C:\EAC\24 - Jo Ann Campbell - Happy New Year Baby.wav

Peak level 100.0 %
Extraction speed 2.9 X
Track quality 99.9 %
Test CRC D12FA761
Copy CRC D12FA761
Accurately ripped (confidence 6) [27CF5CC6] (AR v2)
Copy OK

Track 25

Filename C:\EAC\25 - The Heartbeats - After New Year's Eve.wav

Peak level 90.6 %
Extraction speed 3.6 X
Track quality 100.0 %
Test CRC 90BAFC5A
Copy CRC 90BAFC5A
Accurately ripped (confidence 6) [9D34B2DB] (AR v2)
Copy OK


All tracks accurately ripped

No errors occurred

End of status report

–– CUETools DB Plugin V2.1.6

[CTDB TOCID: zxPlUKMw6yo5aKB1XZVA5piUcj4-] found
Submit result: zxPlUKMw6yo5aKB1XZVA5piUcj4- has been confirmed
Track | CTDB Status
1 | (10/10) Accurately ripped
2 | (10/10) Accurately ripped
3 | (10/10) Accurately ripped
4 | (10/10) Accurately ripped
5 | (10/10) Accurately ripped
6 | ( 9/10) Accurately ripped
7 | ( 9/10) Accurately ripped
8 | (10/10) Accurately ripped
9 | (10/10) Accurately ripped
10 | (10/10) Accurately ripped
11 | (10/10) Accurately ripped
12 | (10/10) Accurately ripped
13 | (10/10) Accurately ripped
14 | (10/10) Accurately ripped
15 | (10/10) Accurately ripped
16 | ( 9/10) Accurately ripped
17 | ( 9/10) Accurately ripped
18 | (10/10) Accurately ripped
19 | (10/10) Accurately ripped
20 | (10/10) Accurately ripped
21 | ( 8/10) Accurately ripped
22 | (10/10) Accurately ripped
23 | ( 9/10) Accurately ripped
24 | (10/10) Accurately ripped
25 | (10/10) Accurately ripped


==== Log checksum 20BABA7868ED2F6ABFE3FF8B698201334B42879BC49EDD834D59827668A3CA7C ====

foobar2000 1.2 / Dynamic Range Meter 1.1.1
log date: 2016-11-04 20:04:29

––––––––––––––––––––––––––––––––––––––––
Analyzed: Andy Williams / The Ultimate Christmas Album Volume 2 (1)
Augie Rios / The Ultimate Christmas Album Volume 2 (2)
Barry Gordon / The Ultimate Christmas Album Volume 2 (3)
Bing Crosby / The Ultimate Christmas Album Volume 2 (4)
Burl Ives / The Ultimate Christmas Album Volume 2 (5)
Dean Martin / The Ultimate Christmas Album Volume 2 (6)
Denise Montana &The Salsoul Orchestra / The Ultimate Christmas Album Volume 2 (7)
Diana Ross & The Supremes / The Ultimate Christmas Album Volume 2 (8)
Dion / The Ultimate Christmas Album Volume 2 (9)
Elmo & Patsy / The Ultimate Christmas Album Volume 2 (10)
Gene Autry / The Ultimate Christmas Album Volume 2 (11)
Jo Ann Campbell / The Ultimate Christmas Album Volume 2 (12)
Johnny Maestro & The Brooklyn Bridge / The Ultimate Christmas Album Volume 2 (13)
Johnny Mathis / The Ultimate Christmas Album Volume 2 (14)
Lou Monte / The Ultimate Christmas Album Volume 2 (15)
Roy Orbison / The Ultimate Christmas Album Volume 2 (16)
Stevie Wonder / The Ultimate Christmas Album Volume 2 (17)
The Beach Boys / The Ultimate Christmas Album Volume 2 (18-19)
The Carpenters / The Ultimate Christmas Album Volume 2 (20)
The Duprees / The Ultimate Christmas Album Volume 2 (21)
The Echelons / The Ultimate Christmas Album Volume 2 (22)
The Heartbeats / The Ultimate Christmas Album Volume 2 (23)
The Jackson Five / The Ultimate Christmas Album Volume 2 (24)
The Melodeers / The Ultimate Christmas Album Volume 2 (25)
––––––––––––––––––––––––––––––––––––––––

DR Peak RMS Duration Track
––––––––––––––––––––––––––––––––––––––––
DR10 -0.87 dB -13.15 dB 2:34 22-It's the Most Wonderful Time Of The Year
DR13 0.00 dB -15.82 dB 2:27 08-Donde Esta Santa Claus
DR12 -2.37 dB -17.29 dB 2:38 14-Nuttin' For Christmas
DR13 0.00 dB -15.30 dB 2:49 17-It's Beginning To Look A Lot Like Christmas
DR14 -0.30 dB -16.93 dB 2:16 11-Holly Jolly Christmas
DR12 -1.46 dB -17.83 dB 1:58 23-Let It Snow! Let It Snow! Let It Snow!
DR12 -1.39 dB -15.47 dB 3:09 18-Merry Christmas All
DR11 -1.14 dB -14.60 dB 3:56 02-White Christmas
DR10 -0.20 dB -11.37 dB 3:27 09-Merry Christmas Baby
DR15 0.00 dB -16.71 dB 3:31 05-Grandma Got Run Over By A Reindeer
DR14 0.00 dB -17.07 dB 2:33 03-Here Comes Santa Claus
DR11 0.00 dB -13.40 dB 2:43 24-Happy New Year Baby
DR11 -0.28 dB -15.24 dB 2:27 12-Have Yourself A Merry Little Chtistmas
DR13 -1.97 dB -17.71 dB 2:59 04-Sleigh Ride
DR13 -1.19 dB -15.94 dB 2:28 19-Dominick The Donkey
DR12 0.00 dB -15.22 dB 2:48 16-Pretty Paper
DR10 -1.43 dB -13.57 dB 2:52 21-Someday At Christmas
DR11 -0.49 dB -13.86 dB 2:00 01-Little Saint Nick
DR11 -0.36 dB -13.98 dB 1:56 13-Frosty The Snowman
DR11 -0.74 dB -15.34 dB 3:08 07-Merry Christmas Darling
DR12 0.00 dB -14.56 dB 3:21 15-The Christmas Song
DR12 0.00 dB -14.09 dB 3:14 06-A Christmas Long Ago (Jingle Jingle)
DR13 -0.85 dB -17.23 dB 2:50 25-After New Year's Eve
DR10 -0.47 dB -13.46 dB 3:00 10-Give Love On Christmas Day
DR11 -1.15 dB -14.64 dB 2:19 20-Rudolph The Red-Nosed Reindeer
––––––––––––––––––––––––––––––––––––––––

Number of tracks: 25
Official DR value: DR12

Samplerate: 44100 Hz
Channels: 2
Bits per sample: 16
Bitrate: 543 kbps
Codec: FLAC
================================================================================

VA - The Ultimate Christmas Album, WCBS-FM 101.1, Vol. 2 (1995)

VA - The Ultimate Christmas Album, WCBS-FM 101.1, Vol. 2 (1995)