Tags
Language
Tags
April 2024
Su Mo Tu We Th Fr Sa
31 1 2 3 4 5 6
7 8 9 10 11 12 13
14 15 16 17 18 19 20
21 22 23 24 25 26 27
28 29 30 1 2 3 4

VA - Top Of The Pops '1977 (2018)

Posted By: ciklon5
VA - Top Of The Pops '1977 (2018)

VA - Top Of The Pops '1977 (2018)
FLAC (tracks+.cue) / MP3 CBR 320 kbps | 02:58:54 | 1,2 Gb / 410 Mb
Genre: 70s, Pop, Rock, Disco / Label: UMC

Top Of The Pops '1977 contains the definitive Artists & 70s, Pop, Rock, Disco. The Best hits from Donna Summer, Marvin Gaye, Harold Melvin & The Blue Notes, Boney M. and many more.

Track List:

CD1
01. Donna Summer - I Feel Love (5:46)
02. Marvin Gaye - Got To Give It Up (4:04)
03. Harold Melvin & The Blue Notes - Don't Leave Me This Way (3:27)
04. Heatwave - Boogie Nights (3:37)
05. The Emotions - Best Of My Love (3:41)
06. The Jacksons - Show You The Way To Go (3:29)
07. Rose Royce - Car Wash (3:13)
08. Barry White - I'm Qualified To Satisfy You (3:06)
09. Boney M. - Daddy Cool (3:25)
10. Baccara - Yes Sir, I Can Boogie (4:28)
11. Van McCoy & The Soul City Symphony - The Shuffle (4:15)
12. The Moments - Jack In The Box (3:59)
13. The Stylistics - 7000 Dollars And You (3:16)
14. Tavares - Whodunit (3:32)
15. David Parton - Isn't She Lovely (4:10)
16. Donna Summer - I Love You (3:15)
17. Thelma Houston - Don't Leave Me This Way (3:37)

CD2
01. Wings - Mull Of Kintyre (4:43)
02. ABBA - Knowing Me, Knowing You (4:04)
03. 10cc - The Things We Do For Love (3:30)
04. Bay City Rollers - It's A Game (2:58)
05. Alessi Brothers - Oh Lori (3:16)
06. Hot Chocolate - So You Win Again (4:31)
07. Diana Ross - Gettin' Ready For Love (2:45)
08. Billy Ocean - Red Light Spells Danger (3:29)
09. Donna Summer - Love's Unkind (4:26)
10. John Miles - Slow Down (4:11)
11. Carole Bayer Sager - You're Moving Out Today (3:31)
12. Elkie Brooks - Pearl's A Singer (3:35)
13. The Floaters - Float On (4:13)
14. Deniece Williams - Free (2:51)
15. The Commodores - Easy (4:15)
16. Elkie Brooks - Sunshine After The Rain (3:19)
17. ABBA - The Name Of The Game (4:53)

CD3
01. Status Quo - Rockin' All Over The World (3:34)
02. Ram Jam - Black Betty (3:55)
03. 10cc - Good Morning Judge (2:52)
04. The Stranglers - No More Heroes (3:26)
05. Eddie & The Hot Rods - Do Anything You Wanna Do (4:01)
06. Graham Parker & The Rumour - Hold Back The Night (3:01)
07. The Jam - In The City (2:20)
08. The Motors - Dancing The Night Away (3:15)
09. Eddie & The Hot Rods - I Might Be Lying (2:58)
10. The Jam - All Around The World (2:20)
11. Thin Lizzy - Dancing In The Moonlight (It's Caught Me In Its Spotlight) (3:20)
12. Status Quo - Wild Side Of Life (3:12)
13. The Jam - The Modern World (2:31)
14. Johnathan Richman & The Modern Lovers - Egyptian Reggae (2:37)
15. The Brighouse & Rastrick Brass Band - The Floral Dance (2:51)
16. Julie Covington - Only Women Bleed (4:16)

Exact Audio Copy V1.3 from 2. September 2016

EAC extraction logfile from 13. June 2018, 19:58

Various Artists / Top Of The Pops '77 CD1

Used drive : MATSHITADVD-RAM UJ-852S Adapter: 1 ID: 0

Read mode : Secure
Utilize accurate stream : Yes
Defeat audio cache : Yes
Make use of C2 pointers : No

Read offset correction : 102
Overread into Lead-In and Lead-Out : No
Fill up missing offset samples with silence : Yes
Delete leading and trailing silent blocks : No
Null samples used in CRC calculations : Yes
Used interface : Native Win32 interface for Win NT & 2000
Gap handling : Appended to previous track

Used output format : User Defined Encoder
Selected bitrate : 896 kBit/s
Quality : High
Add ID3 tag : No
Command line compressor : C:\Program Files (x86)\Exact Audio Copy\FLAC\FLAC.EXE
Additional command line options : -8 -V -T "ARTIST=%artist%" -T "TITLE=%title%" -T "ALBUM=%albumtitle%" -T "DATE=%year%" -T "TRACKNUMBER=%tracknr%" -T "GENRE=%genre%" -T "COMMENT=%comment%" -T "BAND=%albuminterpret%" -T "ALBUMARTIST=%albuminterpret%" -T "COMPOSER=%composer%" %haslyrics%–tag-from-file=LYRICS="%lyricsfile%"%haslyrics% -T "DISCNUMBER=%cdnumber%" -T "TOTALDISCS=%totalcds%" -T "TOTALTRACKS=%numtracks%" %hascover%–picture="%coverfile%"%hascover% %source% -o %dest%


TOC of the extracted CD

Track | Start | Length | Start sector | End sector
––––––––––––––––––––––––––––-
1 | 0:00.00 | 5:45.73 | 0 | 25947
2 | 5:45.73 | 4:03.56 | 25948 | 44228
3 | 9:49.54 | 3:26.45 | 44229 | 59723
4 | 13:16.24 | 3:37.25 | 59724 | 76023
5 | 16:53.49 | 3:40.60 | 76024 | 92583
6 | 20:34.34 | 3:29.02 | 92584 | 108260
7 | 24:03.36 | 3:13.00 | 108261 | 122735
8 | 27:16.36 | 3:05.54 | 122736 | 136664
9 | 30:22.15 | 3:25.32 | 136665 | 152071
10 | 33:47.47 | 4:27.40 | 152072 | 172136
11 | 38:15.12 | 4:14.58 | 172137 | 191244
12 | 42:29.70 | 3:58.67 | 191245 | 209161
13 | 46:28.62 | 3:16.00 | 209162 | 223861
14 | 49:44.62 | 3:31.59 | 223862 | 239745
15 | 53:16.46 | 4:10.06 | 239746 | 258501
16 | 57:26.52 | 3:14.71 | 258502 | 273122
17 | 60:41.48 | 3:37.01 | 273123 | 289398


Track 1

Filename C:\EAC rips\VA - Top Of The Pops '77 CD1\ 01. Donna Summer - I Feel Love.wav

Pre-gap length 0:00:02.00

Peak level 98.2 %
Extraction speed 1.6 X
Track quality 100.0 %
Test CRC C681A62E
Copy CRC C681A62E
Track not present in AccurateRip database
Copy OK

Track 2

Filename C:\EAC rips\VA - Top Of The Pops '77 CD1\ 02. Marvin Gaye - Got To Give It Up.wav

Peak level 98.7 %
Extraction speed 1.7 X
Track quality 100.0 %
Test CRC A8F6AD89
Copy CRC A8F6AD89
Track not present in AccurateRip database
Copy OK

Track 3

Filename C:\EAC rips\VA - Top Of The Pops '77 CD1\ 03. Harold Melvin & The Blue Notes - Don't Leave Me This Way.wav

Peak level 98.2 %
Extraction speed 1.8 X
Track quality 100.0 %
Test CRC 9F963ED5
Copy CRC 9F963ED5
Track not present in AccurateRip database
Copy OK

Track 4

Filename C:\EAC rips\VA - Top Of The Pops '77 CD1\ 04. Heatwave - Boogie Nights.wav

Peak level 100.0 %
Extraction speed 1.9 X
Track quality 100.0 %
Test CRC 3977ED07
Copy CRC 3977ED07
Track not present in AccurateRip database
Copy OK

Track 5

Filename C:\EAC rips\VA - Top Of The Pops '77 CD1\ 05. The Emotions - Best Of My Love.wav

Peak level 100.0 %
Extraction speed 2.0 X
Track quality 100.0 %
Test CRC B3CCB1B3
Copy CRC B3CCB1B3
Track not present in AccurateRip database
Copy OK

Track 6

Filename C:\EAC rips\VA - Top Of The Pops '77 CD1\ 06. The Jacksons - Show You The Way To Go.wav

Peak level 94.4 %
Extraction speed 2.1 X
Track quality 100.0 %
Test CRC CD47C158
Copy CRC CD47C158
Track not present in AccurateRip database
Copy OK

Track 7

Filename C:\EAC rips\VA - Top Of The Pops '77 CD1\ 07. Rose Royce - Car Wash.wav

Peak level 100.0 %
Extraction speed 2.2 X
Track quality 100.0 %
Test CRC 7A8C257A
Copy CRC 7A8C257A
Track not present in AccurateRip database
Copy OK

Track 8

Filename C:\EAC rips\VA - Top Of The Pops '77 CD1\ 08. Barry White - I'm Qualified To Satisfy You.wav

Peak level 98.2 %
Extraction speed 2.2 X
Track quality 100.0 %
Test CRC 78338C10
Copy CRC 78338C10
Track not present in AccurateRip database
Copy OK

Track 9

Filename C:\EAC rips\VA - Top Of The Pops '77 CD1\ 09. Boney M. - Daddy Cool.wav

Peak level 98.2 %
Extraction speed 2.4 X
Track quality 100.0 %
Test CRC 3EDB6924
Copy CRC 3EDB6924
Track not present in AccurateRip database
Copy OK

Track 10

Filename C:\EAC rips\VA - Top Of The Pops '77 CD1\ 10. Baccara - Yes Sir, I Can Boogie.wav

Peak level 97.2 %
Extraction speed 2.5 X
Track quality 100.0 %
Test CRC ABDDF4F5
Copy CRC ABDDF4F5
Track not present in AccurateRip database
Copy OK

Track 11

Filename C:\EAC rips\VA - Top Of The Pops '77 CD1\ 11. Van McCoy & The Soul City Symphony - The Shuffle.wav

Peak level 98.2 %
Extraction speed 2.6 X
Track quality 100.0 %
Test CRC E6231AAB
Copy CRC E6231AAB
Track not present in AccurateRip database
Copy OK

Track 12

Filename C:\EAC rips\VA - Top Of The Pops '77 CD1\ 12. The Moments - Jack In The Box.wav

Peak level 100.0 %
Extraction speed 2.7 X
Track quality 100.0 %
Test CRC E32ADC47
Copy CRC E32ADC47
Track not present in AccurateRip database
Copy OK

Track 13

Filename C:\EAC rips\VA - Top Of The Pops '77 CD1\ 13. The Stylistics - 7000 Dollars And You.wav

Peak level 98.2 %
Extraction speed 2.7 X
Track quality 100.0 %
Test CRC 58F5B16D
Copy CRC 58F5B16D
Track not present in AccurateRip database
Copy OK

Track 14

Filename C:\EAC rips\VA - Top Of The Pops '77 CD1\ 14. Tavares - Whodunit.wav

Peak level 98.2 %
Extraction speed 2.4 X
Track quality 99.9 %
Test CRC B4DAC754
Copy CRC B4DAC754
Track not present in AccurateRip database
Copy OK

Track 15

Filename C:\EAC rips\VA - Top Of The Pops '77 CD1\ 15. David Parton - Isn't She Lovely.wav

Peak level 97.5 %
Extraction speed 2.9 X
Track quality 100.0 %
Test CRC 31E60C5E
Copy CRC 31E60C5E
Track not present in AccurateRip database
Copy OK

Track 16

Filename C:\EAC rips\VA - Top Of The Pops '77 CD1\ 16. Donna Summer - I Love You.wav

Peak level 98.2 %
Extraction speed 2.9 X
Track quality 100.0 %
Test CRC C923D178
Copy CRC C923D178
Track not present in AccurateRip database
Copy OK

Track 17

Filename C:\EAC rips\VA - Top Of The Pops '77 CD1\ 17. Thelma Houston - Don't Leave Me This Way.wav

Peak level 98.2 %
Extraction speed 3.0 X
Track quality 100.0 %
Test CRC EE968CB8
Copy CRC EE968CB8
Track not present in AccurateRip database
Copy OK


None of the tracks are present in the AccurateRip database

No errors occurred

End of status report

–– CUETools DB Plugin V2.1.6

[CTDB TOCID: kgv0PLbLLu1dzcFtdVXy8sZ77Vc-] found
Submit result: kgv0PLbLLu1dzcFtdVXy8sZ77Vc- has been confirmed
Track | CTDB Status
1 | (5/5) Accurately ripped
2 | (5/5) Accurately ripped
3 | (5/5) Accurately ripped
4 | (5/5) Accurately ripped
5 | (5/5) Accurately ripped
6 | (5/5) Accurately ripped
7 | (5/5) Accurately ripped
8 | (5/5) Accurately ripped
9 | (5/5) Accurately ripped
10 | (5/5) Accurately ripped
11 | (5/5) Accurately ripped
12 | (5/5) Accurately ripped
13 | (5/5) Accurately ripped
14 | (5/5) Accurately ripped
15 | (5/5) Accurately ripped
16 | (5/5) Accurately ripped
17 | (5/5) Accurately ripped


==== Log checksum E3CF0D035C09387B1D46DA4CE6B10DE9B07ABBDAADF3D7F661C8E68089B5CDF7 ====

Exact Audio Copy V1.3 from 2. September 2016

EAC extraction logfile from 13. June 2018, 21:03

Various Artists / Top Of The Pops '77 CD2

Used drive : MATSHITADVD-RAM UJ-852S Adapter: 1 ID: 0

Read mode : Secure
Utilize accurate stream : Yes
Defeat audio cache : Yes
Make use of C2 pointers : No

Read offset correction : 102
Overread into Lead-In and Lead-Out : No
Fill up missing offset samples with silence : Yes
Delete leading and trailing silent blocks : No
Null samples used in CRC calculations : Yes
Used interface : Native Win32 interface for Win NT & 2000
Gap handling : Appended to previous track

Used output format : User Defined Encoder
Selected bitrate : 896 kBit/s
Quality : High
Add ID3 tag : No
Command line compressor : C:\Program Files (x86)\Exact Audio Copy\FLAC\FLAC.EXE
Additional command line options : -8 -V -T "ARTIST=%artist%" -T "TITLE=%title%" -T "ALBUM=%albumtitle%" -T "DATE=%year%" -T "TRACKNUMBER=%tracknr%" -T "GENRE=%genre%" -T "COMMENT=%comment%" -T "BAND=%albuminterpret%" -T "ALBUMARTIST=%albuminterpret%" -T "COMPOSER=%composer%" %haslyrics%–tag-from-file=LYRICS="%lyricsfile%"%haslyrics% -T "DISCNUMBER=%cdnumber%" -T "TOTALDISCS=%totalcds%" -T "TOTALTRACKS=%numtracks%" %hascover%–picture="%coverfile%"%hascover% %source% -o %dest%


TOC of the extracted CD

Track | Start | Length | Start sector | End sector
––––––––––––––––––––––––––––-
1 | 0:00.00 | 4:43.26 | 0 | 21250
2 | 4:43.26 | 4:03.67 | 21251 | 39542
3 | 8:47.18 | 3:29.40 | 39543 | 55257
4 | 12:16.58 | 2:57.48 | 55258 | 68580
5 | 15:14.31 | 3:16.37 | 68581 | 83317
6 | 18:30.68 | 4:31.32 | 83318 | 103674
7 | 23:02.25 | 2:44.57 | 103675 | 116031
8 | 25:47.07 | 3:28.57 | 116032 | 131688
9 | 29:15.64 | 4:26.17 | 131689 | 151655
10 | 33:42.06 | 4:10.58 | 151656 | 170463
11 | 37:52.64 | 3:31.04 | 170464 | 186292
12 | 41:23.68 | 3:35.26 | 186293 | 202443
13 | 44:59.19 | 4:13.27 | 202444 | 221445
14 | 49:12.46 | 2:50.39 | 221446 | 234234
15 | 52:03.10 | 4:14.57 | 234235 | 253341
16 | 56:17.67 | 3:19.00 | 253342 | 268266
17 | 59:36.67 | 4:53.09 | 268267 | 290250


Track 1

Filename C:\EAC rips\VA - Top Of The Pops '77 CD2\ 01. Wings - Mull Of Kintyre.wav

Pre-gap length 0:00:02.00

Peak level 98.2 %
Extraction speed 1.5 X
Track quality 100.0 %
Test CRC E4D0F52C
Copy CRC E4D0F52C
Track not present in AccurateRip database
Copy OK

Track 2

Filename C:\EAC rips\VA - Top Of The Pops '77 CD2\ 02. ABBA - Knowing Me, Knowing You.wav

Peak level 95.1 %
Extraction speed 1.7 X
Track quality 100.0 %
Test CRC 1BB0BACC
Copy CRC 1BB0BACC
Track not present in AccurateRip database
Copy OK

Track 3

Filename C:\EAC rips\VA - Top Of The Pops '77 CD2\ 03. 10cc - The Things We Do For Love.wav

Peak level 98.2 %
Extraction speed 1.8 X
Track quality 100.0 %
Test CRC 169F96BA
Copy CRC 169F96BA
Track not present in AccurateRip database
Copy OK

Track 4

Filename C:\EAC rips\VA - Top Of The Pops '77 CD2\ 04. Bay City Rollers - It's A Game.wav

Peak level 95.6 %
Extraction speed 1.6 X
Track quality 99.9 %
Test CRC DADE4748
Copy CRC DADE4748
Track not present in AccurateRip database
Copy OK

Track 5

Filename C:\EAC rips\VA - Top Of The Pops '77 CD2\ 05. Alessi Brothers - Oh Lori.wav

Peak level 98.2 %
Extraction speed 1.9 X
Track quality 100.0 %
Test CRC 28023052
Copy CRC 28023052
Track not present in AccurateRip database
Copy OK

Track 6

Filename C:\EAC rips\VA - Top Of The Pops '77 CD2\ 06. Hot Chocolate - So You Win Again.wav

Peak level 100.0 %
Extraction speed 2.1 X
Track quality 100.0 %
Test CRC 1597D087
Copy CRC 1597D087
Track not present in AccurateRip database
Copy OK

Track 7

Filename C:\EAC rips\VA - Top Of The Pops '77 CD2\ 07. Diana Ross - Gettin' Ready For Love.wav

Peak level 98.2 %
Extraction speed 2.1 X
Track quality 100.0 %
Test CRC 60E8D3C5
Copy CRC 60E8D3C5
Track not present in AccurateRip database
Copy OK

Track 8

Filename C:\EAC rips\VA - Top Of The Pops '77 CD2\ 08. Billy Ocean - Red Light Spells Danger.wav

Peak level 98.2 %
Extraction speed 2.2 X
Track quality 100.0 %
Test CRC 184132FE
Copy CRC 184132FE
Track not present in AccurateRip database
Copy OK

Track 9

Filename C:\EAC rips\VA - Top Of The Pops '77 CD2\ 09. Donna Summer - Love's Unkind.wav

Peak level 98.2 %
Extraction speed 2.2 X
Track quality 99.9 %
Test CRC B27D6F94
Copy CRC B27D6F94
Track not present in AccurateRip database
Copy OK

Track 10

Filename C:\EAC rips\VA - Top Of The Pops '77 CD2\ 10. John Miles - Slow Down.wav

Peak level 98.2 %
Extraction speed 2.5 X
Track quality 100.0 %
Test CRC 6F512A97
Copy CRC 6F512A97
Track not present in AccurateRip database
Copy OK

Track 11

Filename C:\EAC rips\VA - Top Of The Pops '77 CD2\ 11. Carole Bayer Sager - You're Moving Out Today.wav

Peak level 98.2 %
Extraction speed 2.5 X
Track quality 100.0 %
Test CRC F1FC42CD
Copy CRC F1FC42CD
Track not present in AccurateRip database
Copy OK

Track 12

Filename C:\EAC rips\VA - Top Of The Pops '77 CD2\ 12. Elkie Brooks - Pearl's A Singer.wav

Peak level 98.2 %
Extraction speed 2.6 X
Track quality 100.0 %
Test CRC F1811326
Copy CRC F1811326
Track not present in AccurateRip database
Copy OK

Track 13

Filename C:\EAC rips\VA - Top Of The Pops '77 CD2\ 13. The Floaters - Float On.wav

Peak level 98.7 %
Extraction speed 2.8 X
Track quality 100.0 %
Test CRC DE86E902
Copy CRC DE86E902
Track not present in AccurateRip database
Copy OK

Track 14

Filename C:\EAC rips\VA - Top Of The Pops '77 CD2\ 14. Deniece Williams - Free.wav

Peak level 99.2 %
Extraction speed 2.6 X
Track quality 100.0 %
Test CRC 1D19FBDE
Copy CRC 1D19FBDE
Track not present in AccurateRip database
Copy OK

Track 15

Filename C:\EAC rips\VA - Top Of The Pops '77 CD2\ 15. The Commodores - Easy.wav

Peak level 100.0 %
Extraction speed 2.9 X
Track quality 100.0 %
Test CRC 2DE4713B
Copy CRC 2DE4713B
Track not present in AccurateRip database
Copy OK

Track 16

Filename C:\EAC rips\VA - Top Of The Pops '77 CD2\ 16. Elkie Brooks - Sunshine After The Rain.wav

Peak level 98.2 %
Extraction speed 2.9 X
Track quality 100.0 %
Test CRC 635327A2
Copy CRC 635327A2
Track not present in AccurateRip database
Copy OK

Track 17

Filename C:\EAC rips\VA - Top Of The Pops '77 CD2\ 17. ABBA - The Name Of The Game.wav

Peak level 95.1 %
Extraction speed 2.8 X
Track quality 99.9 %
Test CRC 6FD29562
Copy CRC 6FD29562
Track not present in AccurateRip database
Copy OK


None of the tracks are present in the AccurateRip database

No errors occurred

End of status report

–– CUETools DB Plugin V2.1.6

[CTDB TOCID: F8Zz07iy.RcJr83yus0jby0oSjw-] found
Submit result: F8Zz07iy.RcJr83yus0jby0oSjw- has been confirmed
Track | CTDB Status
1 | (5/5) Accurately ripped
2 | (5/5) Accurately ripped
3 | (5/5) Accurately ripped
4 | (5/5) Accurately ripped
5 | (5/5) Accurately ripped
6 | (5/5) Accurately ripped
7 | (5/5) Accurately ripped
8 | (5/5) Accurately ripped
9 | (5/5) Accurately ripped
10 | (5/5) Accurately ripped
11 | (5/5) Accurately ripped
12 | (5/5) Accurately ripped
13 | (5/5) Accurately ripped
14 | (5/5) Accurately ripped
15 | (5/5) Accurately ripped
16 | (5/5) Accurately ripped
17 | (5/5) Accurately ripped


==== Log checksum 6E5BE10FC963796A04FFB9ABC450F025A080E656C2355F2629575A07565DE61D ====

Exact Audio Copy V1.3 from 2. September 2016

EAC extraction logfile from 13. June 2018, 22:01

Various Artists / Top Of The Pops '77 CD3

Used drive : MATSHITADVD-RAM UJ-852S Adapter: 1 ID: 0

Read mode : Secure
Utilize accurate stream : Yes
Defeat audio cache : Yes
Make use of C2 pointers : No

Read offset correction : 102
Overread into Lead-In and Lead-Out : No
Fill up missing offset samples with silence : Yes
Delete leading and trailing silent blocks : No
Null samples used in CRC calculations : Yes
Used interface : Native Win32 interface for Win NT & 2000
Gap handling : Appended to previous track

Used output format : User Defined Encoder
Selected bitrate : 896 kBit/s
Quality : High
Add ID3 tag : No
Command line compressor : C:\Program Files (x86)\Exact Audio Copy\FLAC\FLAC.EXE
Additional command line options : -8 -V -T "ARTIST=%artist%" -T "TITLE=%title%" -T "ALBUM=%albumtitle%" -T "DATE=%year%" -T "TRACKNUMBER=%tracknr%" -T "GENRE=%genre%" -T "COMMENT=%comment%" -T "BAND=%albuminterpret%" -T "ALBUMARTIST=%albuminterpret%" -T "COMPOSER=%composer%" %haslyrics%–tag-from-file=LYRICS="%lyricsfile%"%haslyrics% -T "DISCNUMBER=%cdnumber%" -T "TOTALDISCS=%totalcds%" -T "TOTALTRACKS=%numtracks%" %hascover%–picture="%coverfile%"%hascover% %source% -o %dest%


TOC of the extracted CD

Track | Start | Length | Start sector | End sector
––––––––––––––––––––––––––––-
1 | 0:00.00 | 3:33.69 | 0 | 16043
2 | 3:33.69 | 3:55.30 | 16044 | 33698
3 | 7:29.24 | 2:51.59 | 33699 | 46582
4 | 10:21.08 | 3:26.00 | 46583 | 62032
5 | 13:47.08 | 4:00.68 | 62033 | 80100
6 | 17:48.01 | 3:00.66 | 80101 | 93666
7 | 20:48.67 | 2:19.50 | 93667 | 104141
8 | 23:08.42 | 3:15.23 | 104142 | 118789
9 | 26:23.65 | 2:58.23 | 118790 | 132162
10 | 29:22.13 | 2:19.38 | 132163 | 142625
11 | 31:41.51 | 3:20.09 | 142626 | 157634
12 | 35:01.60 | 3:12.32 | 157635 | 172066
13 | 38:14.17 | 2:31.04 | 172067 | 183395
14 | 40:45.21 | 2:37.04 | 183396 | 195174
15 | 43:22.25 | 2:50.38 | 195175 | 207962
16 | 46:12.63 | 4:16.21 | 207963 | 227183


Track 1

Filename C:\EAC rips\VA - Top Of The Pops '77 CD3\ 01. Status Quo - Rockin' All Over The World.wav

Pre-gap length 0:00:02.00

Peak level 96.1 %
Extraction speed 1.4 X
Track quality 100.0 %
Test CRC 9287ECAF
Copy CRC 9287ECAF
Track not present in AccurateRip database
Copy OK

Track 2

Filename C:\EAC rips\VA - Top Of The Pops '77 CD3\ 02. Ram Jam - Black Betty.wav

Peak level 98.0 %
Extraction speed 1.4 X
Track quality 99.9 %
Test CRC 3D8ABDA9
Copy CRC 3D8ABDA9
Track not present in AccurateRip database
Copy OK

Track 3

Filename C:\EAC rips\VA - Top Of The Pops '77 CD3\ 03. 10cc - Good Morning Judge.wav

Peak level 98.2 %
Extraction speed 1.6 X
Track quality 100.0 %
Test CRC 5D432D20
Copy CRC 5D432D20
Track not present in AccurateRip database
Copy OK

Track 4

Filename C:\EAC rips\VA - Top Of The Pops '77 CD3\ 04. The Stranglers - No More Heroes.wav

Peak level 98.2 %
Extraction speed 1.7 X
Track quality 100.0 %
Test CRC C674FB81
Copy CRC C674FB81
Track not present in AccurateRip database
Copy OK

Track 5

Filename C:\EAC rips\VA - Top Of The Pops '77 CD3\ 05. Eddie & The Hot Rods - Do Anything You Wanna Do.wav

Peak level 98.2 %
Extraction speed 1.9 X
Track quality 100.0 %
Test CRC BDCC9881
Copy CRC BDCC9881
Track not present in AccurateRip database
Copy OK

Track 6

Filename C:\EAC rips\VA - Top Of The Pops '77 CD3\ 06. Graham Parker & The Rumour - Hold Back The Night.wav

Peak level 98.2 %
Extraction speed 1.9 X
Track quality 100.0 %
Test CRC 66C6CA3B
Copy CRC 66C6CA3B
Track not present in AccurateRip database
Copy OK

Track 7

Filename C:\EAC rips\VA - Top Of The Pops '77 CD3\ 07. The Jam - In The City.wav

Peak level 98.8 %
Extraction speed 1.9 X
Track quality 100.0 %
Test CRC 476299F6
Copy CRC 476299F6
Track not present in AccurateRip database
Copy OK

Track 8

Filename C:\EAC rips\VA - Top Of The Pops '77 CD3\ 08. The Motors - Dancing The Night Away.wav

Peak level 100.0 %
Extraction speed 2.1 X
Track quality 100.0 %
Test CRC 8C3A22C1
Copy CRC 8C3A22C1
Track not present in AccurateRip database
Copy OK

Track 9

Filename C:\EAC rips\VA - Top Of The Pops '77 CD3\ 09. Eddie & The Hot Rods - I Might Be Lying.wav

Peak level 98.2 %
Extraction speed 1.8 X
Track quality 99.9 %
Test CRC 1C0D183B
Copy CRC 1C0D183B
Track not present in AccurateRip database
Copy OK

Track 10

Filename C:\EAC rips\VA - Top Of The Pops '77 CD3\ 10. The Jam - All Around The World.wav

Peak level 99.1 %
Extraction speed 2.1 X
Track quality 100.0 %
Test CRC E5F25B27
Copy CRC E5F25B27
Track not present in AccurateRip database
Copy OK

Track 11

Filename C:\EAC rips\VA - Top Of The Pops '77 CD3\ 11. Thin Lizzy - Dancing In The Moonlight (It's Caught Me In Its Spotlight).wav

Peak level 98.2 %
Extraction speed 2.3 X
Track quality 100.0 %
Test CRC CAEEF8F5
Copy CRC CAEEF8F5
Track not present in AccurateRip database
Copy OK

Track 12

Filename C:\EAC rips\VA - Top Of The Pops '77 CD3\ 12. Status Quo - Wild Side Of Life.wav

Peak level 98.2 %
Extraction speed 2.3 X
Track quality 100.0 %
Test CRC 15FD423C
Copy CRC 15FD423C
Track not present in AccurateRip database
Copy OK

Track 13

Filename C:\EAC rips\VA - Top Of The Pops '77 CD3\ 13. The Jam - The Modern World.wav

Peak level 98.2 %
Extraction speed 1.9 X
Track quality 99.9 %
Test CRC 4A163C9B
Copy CRC 4A163C9B
Track not present in AccurateRip database
Copy OK

Track 14

Filename C:\EAC rips\VA - Top Of The Pops '77 CD3\ 14. Johnathan Richman & The Modern Lovers - Egyptian Reggae.wav

Peak level 92.1 %
Extraction speed 2.0 X
Track quality 99.9 %
Test CRC 06622DED
Copy CRC 06622DED
Track not present in AccurateRip database
Copy OK

Track 15

Filename C:\EAC rips\VA - Top Of The Pops '77 CD3\ 15. The Brighouse & Rastrick Brass Band - The Floral Dance.wav

Peak level 98.2 %
Extraction speed 2.4 X
Track quality 100.0 %
Test CRC 14F335C8
Copy CRC 14F335C8
Track not present in AccurateRip database
Copy OK

Track 16

Filename C:\EAC rips\VA - Top Of The Pops '77 CD3\ 16. Julie Covington - Only Women Bleed.wav

Peak level 98.2 %
Extraction speed 2.4 X
Track quality 99.9 %
Test CRC EA5B2706
Copy CRC EA5B2706
Track not present in AccurateRip database
Copy OK


None of the tracks are present in the AccurateRip database

No errors occurred

End of status report

–– CUETools DB Plugin V2.1.6

[CTDB TOCID: 8h1Y52YOYslFpqL3L9nvsRcwh.M-] found
Submit result: 8h1Y52YOYslFpqL3L9nvsRcwh.M- has been confirmed
Track | CTDB Status
1 | (5/5) Accurately ripped
2 | (5/5) Accurately ripped
3 | (5/5) Accurately ripped
4 | (5/5) Accurately ripped
5 | (5/5) Accurately ripped
6 | (5/5) Accurately ripped
7 | (5/5) Accurately ripped
8 | (5/5) Accurately ripped
9 | (5/5) Accurately ripped
10 | (5/5) Accurately ripped
11 | (5/5) Accurately ripped
12 | (5/5) Accurately ripped
13 | (5/5) Accurately ripped
14 | (5/5) Accurately ripped
15 | (5/5) Accurately ripped
16 | (5/5) Accurately ripped


==== Log checksum 170573B651F4DAA40FF52F532037B071FC4DF95BE2E90AD137AD30C7EEA009F2 ====