Subcategories

VA - Ultimate Seventies - The Classics (5CD, 2020)

Posted By: ciklon5
VA - Ultimate Seventies - The Classics (5CD, 2020)

VA - Ultimate Seventies - The Classics (5CD, 2020)
FLAC (*tracks + .cue,log,scans) | 06:04:51 | 2,3 Gb
Genre: Pop, Rock, Disco / Label: Union Square Music Ltd

“Ultimate Seventies - The Classics" brings you 100 songs from that mighty decade, when the charts were packed with amazing artists and genres vying with each other for your attention. It was peak time for singer-songwriters, with Van Morrison, Chris Rea and Gerry Rafferty all represented here. Disco was in its heyday, and you can hear Chic, Candi Staton and Sister Sledge on this 5CD set. If it's classic soul you're after, how about Aretha Franklin, Curtis Mayfield or George Benson? There's glam rock, from Wizzard, The Sweet and Mud; punk rock rears its head with The Ramones, The Stranglers and Sham 69; the reggae party is started by Dave & Ansell Collins, John Holt and Althea & Donna; and there's still time to sample mellower sounds from Bread, Daryl Hall & John Oates, and The Doobie Brothers From Young Hearts Run Free to Life's Been Good, "Ultimate Seventies - The Classics" is a hit-packed run through an incredible decade of music.

Track List:
Disc: 1
1. Young Hearts Run Free - Candi Staton
2. I'm Every Woman (Edit) - Chaka Khan
3. Everybody Dance (7" Edit) [2018 Remaster] - Chic
4. He's the Greatest Dancer (Edit Version) - Sister Sledge
5. Disco Inferno (Single Edit) - The Trammps
6. You To Me Are Everything - The Real Thing
7. Love Is In The Air - John Paul Young
8. December, 1963 (Oh What a Night!) - The Four Seasons
9. Ghetto Child (Remastered) - Spinners
10. Dolly My Love - The Moments
11. Loving On the Losing Side - Tommy Hunt
12. Superfly - Curtis Mayfield
13. Rapper's Delight (Sugar Hill Mix By the Scratch Perverts' Prime Cuts) - The Sugarhill Gang
14. I Got The… (Radio Edit) [2006 Remaster] - Labi Siffre
15. Love, Love, Love - Donny Hathaway
16. (Everybody Wanna Get Rich) Rite Away [2017 Remaster] - Dr. John
17. Galaxy (Edit Version) - War
18. Take That to the Bank - Shalamar
19. Let No Man Put Asunder - First Choice
20. Spanish Harlem - Aretha Franklin
21. The Greatest Love of All - George Benson

Disc: 2
1. Moondance (Single Version) - Van Morrison
2. Baker Street (Edit) - Gerry Rafferty
3. The Air That I Breathe - The Hollies
4. So You Win Again - Hot Chocolate
5. We Don't Talk Anymore - Cliff Richard
6. Fool (If You Think It's Over) - Chris Rea
7. Year of the Cat (Edit) - Al Stewart
8. Lost In France - Bonnie Tyler
9. How Long - Ace
10. You Are My Love - Liverpool Express
11. Wonderous Stories - Yes
12. Northern Lights - Renaissance
13. Magic - Pilot
14. If I Had You - The Korgis
15. Clair - Gilbert O'Sullivan
16. Jeans On - David Dundas
17. Jarrow Song - Alan Price
18. Streets of London - Ralph McTell
19. Matchstalk Men and Matchstalk Cats and Dogs - Brian & Michael

Disc: 3
1. The Ballroom Blitz - The Sweet
2. Cindy Incidentally (2015 Remaster) - Faces
3. 10538 Overture - Electric Light Orchestra
4. Feels like the First Time - Foreigner
5. Slow Ride (Single Version) - Foghat
6. Love Hurts (Single Edit) - Nazareth
7. Ships In The Night (2004 Remastered Version) - Be Bop Deluxe
8. My Best Friend's Girl - The Cars
9. One Rule For You - After The Fire
10. Egyptian Reggae - Jonathan Richman and The Modern Lovers
11. Kid - Pretenders
12. Venus - Television
13. Sheena Is a Punk Rocker (2005 Remaster) - Ramones
14. No More Heroes (Radio Edit) - The Stranglers
15. Neat Neat Neat - The Damned
16. Rich Kids - Rich Kids
17. Hurry Up Harry - Sham 69
18. Nice Legs Shame About the Face - The Monks
19. Car 67 - Driver 67

Disc: 4
1. Kung Fu Fighting - Carl Douglas
2. Uptown Top Ranking - Althea & Donna
3. Love of the Common People - Nicky Thomas
4. Liquidator - Harry J Allstars
5. Double Barrel - Dave Barker & Ansel Collins
6. To Be Young Gifted and Black - Bob Andy & Marcia Griffiths
7. Help Me Make It Through the Night - John Holt
8. Everything I Own - Ken Boothe
9. Let Your Yeah Be Yeah - The Pioneers
10. Good Morning Freedom - Blue Mink
11. Angel Fingers (A Teen Ballad) [2006 Remaster] - Wizzard
12. New York Groove - Hello
13. Touch Too Much - The Arrows
14. The Bump - Kenny
15. Oh Boy - Mud
16. Some Girls - Racey
17. The Boy From New York City - Darts
18. Rockabilly Rebel - Matchbox
19. S-S-S-Single Bed - Fox
20. A Glass of Champagne - Sailor
21. Baby Jump - Mungo Jerry
22. The Combine Harvester (Brand New Key) - The Wurzels
23. Grandad - Clive Dunn
24. Ernie (The Fastest Milkman in the West) - Benny Hill

Disc: 5
1. Listen to the Music - The Doobie Brothers
2. Lonely Boy - Andrew Gold
3. She's Gone (Single Version) - Daryl Hall & John Oates
4. Dream Weaver - Gary Wright
5. I'd Really Love to See You Tonight - England Dan & John Ford Coley
6. Just When I Needed You Most - Randy VanWarmer
7. Guitar Man - Bread
8. I Don't Want to Talk About It - Crazy Horse
9. She (Remastered Version) - Gram Parsons
10. Silver Raven - Gene Clark
11. Blue Bayou (2017 Remaster) - Linda Ronstadt
12. The Highwayman - Jimmy Webb
13. The Kiss (Remastered) - Judee Sill
14. Send in the Clowns - Judy Collins
15. Chuck E's in Love - Rickie Lee Jones
16. Beach Baby - First Class
17. Life's Been Good - Joe Walsh

Exact Audio Copy V1.3 from 2. September 2016

EAC extraction logfile from 5. April 2020, 21:32

Various / Ultimate Seventies - The Classics - CD1

Used drive : ASUS DRW-24D5MT Adapter: 1 ID: 0

Read mode : Secure
Utilize accurate stream : Yes
Defeat audio cache : No
Make use of C2 pointers : Yes

Read offset correction : 6
Overread into Lead-In and Lead-Out : No
Fill up missing offset samples with silence : Yes
Delete leading and trailing silent blocks : No
Null samples used in CRC calculations : Yes
Used interface : Native Win32 interface for Win NT & 2000
Gap handling : Not detected, thus appended to previous track

Used output format : User Defined Encoder
Selected bitrate : 896 kBit/s
Quality : High
Add ID3 tag : No
Command line compressor : C:\Program Files (x86)\Exact Audio Copy\FLAC\FLAC.EXE
Additional command line options : -6 -V -T "ARTIST=%artist%" -T "TITLE=%title%" -T "ALBUM=%albumtitle%" -T "DATE=%year%" -T "TRACKNUMBER=%tracknr%" -T "GENRE=%genre%" -T "COMMENT=%comment%" -T "BAND=%albuminterpret%" -T "ALBUMARTIST=%albuminterpret%" -T "COMPOSER=%composer%" %haslyrics%–tag-from-file=LYRICS="%lyricsfile%"%haslyrics% -T "DISCNUMBER=%cdnumber%" -T "TOTALDISCS=%totalcds%" -T "TOTALTRACKS=%numtracks%" %hascover%–picture="%coverfile%"%hascover% %source% -o %dest%


TOC of the extracted CD

Track | Start | Length | Start sector | End sector
––––––––––––––––––––––––––––-
1 | 0:00.00 | 3:50.02 | 0 | 17251
2 | 3:50.02 | 4:03.35 | 17252 | 35511
3 | 7:53.37 | 3:30.60 | 35512 | 51321
4 | 11:24.22 | 3:31.73 | 51322 | 67219
5 | 14:56.20 | 3:10.35 | 67220 | 81504
6 | 18:06.55 | 3:28.00 | 81505 | 97104
7 | 21:34.55 | 3:26.51 | 97105 | 112605
8 | 25:01.31 | 3:17.12 | 112606 | 127392
9 | 28:18.43 | 3:46.57 | 127393 | 144399
10 | 32:05.25 | 3:00.67 | 144400 | 157966
11 | 35:06.17 | 3:08.52 | 157967 | 172118
12 | 38:14.69 | 3:51.70 | 172119 | 189513
13 | 42:06.64 | 3:59.17 | 189514 | 207455
14 | 46:06.06 | 3:48.60 | 207456 | 224615
15 | 49:54.66 | 3:23.07 | 224616 | 239847
16 | 53:17.73 | 2:40.74 | 239848 | 251921
17 | 55:58.72 | 4:43.36 | 251922 | 273182
18 | 60:42.33 | 3:23.55 | 273183 | 288462
19 | 64:06.13 | 4:22.74 | 288463 | 308186
20 | 68:29.12 | 3:27.37 | 308187 | 323748
21 | 71:56.49 | 5:33.10 | 323749 | 348733


Track 1

Filename A:\PsPBuRnOuT's MUSIC\SORTED BY YEAR\1970s\Ultimate Seventies - The Classics\Ultimate Seventies - The Classics - CD1\01.Candi Staton - Young Hearts Run Free.wav

Peak level 90.1 %
Extraction speed 11.2 X
Track quality 100.0 %
Copy CRC 9AEF597D
Accurately ripped (confidence 2) [FBF07AC4] (AR v2)
Copy OK

Track 2

Filename A:\PsPBuRnOuT's MUSIC\SORTED BY YEAR\1970s\Ultimate Seventies - The Classics\Ultimate Seventies - The Classics - CD1\02.Chaka Khan - I'm Every Woman.wav

Peak level 91.1 %
Extraction speed 18.9 X
Track quality 99.9 %
Copy CRC 95FC28D2
Accurately ripped (confidence 2) [145C9EDC] (AR v2)
Copy OK

Track 3

Filename A:\PsPBuRnOuT's MUSIC\SORTED BY YEAR\1970s\Ultimate Seventies - The Classics\Ultimate Seventies - The Classics - CD1\03.Chic - Everybody Dance.wav

Peak level 100.0 %
Extraction speed 19.4 X
Track quality 100.0 %
Copy CRC C44AC6CC
Accurately ripped (confidence 1) [C22B564D] (AR v2)
Copy OK

Track 4

Filename A:\PsPBuRnOuT's MUSIC\SORTED BY YEAR\1970s\Ultimate Seventies - The Classics\Ultimate Seventies - The Classics - CD1\04.Sister Sledge - He's The Greatest Dancer.wav

Peak level 84.1 %
Extraction speed 21.1 X
Track quality 100.0 %
Copy CRC 35A5CC2B
Accurately ripped (confidence 1) [45AB11DA] (AR v2)
Copy OK

Track 5

Filename A:\PsPBuRnOuT's MUSIC\SORTED BY YEAR\1970s\Ultimate Seventies - The Classics\Ultimate Seventies - The Classics - CD1\05.The Trammps - Disco Inferno.wav

Peak level 80.3 %
Extraction speed 21.4 X
Track quality 100.0 %
Copy CRC 43B6B1E0
Accurately ripped (confidence 1) [841143C7] (AR v2)
Copy OK

Track 6

Filename A:\PsPBuRnOuT's MUSIC\SORTED BY YEAR\1970s\Ultimate Seventies - The Classics\Ultimate Seventies - The Classics - CD1\06.The Real Thing - You To Me Are Everything.wav

Peak level 91.2 %
Extraction speed 21.3 X
Track quality 100.0 %
Copy CRC 59B6D158
Accurately ripped (confidence 2) [571DEDFB] (AR v2)
Copy OK

Track 7

Filename A:\PsPBuRnOuT's MUSIC\SORTED BY YEAR\1970s\Ultimate Seventies - The Classics\Ultimate Seventies - The Classics - CD1\07.John Paul Young - Love Is In The Air.wav

Peak level 63.3 %
Extraction speed 21.8 X
Track quality 100.0 %
Copy CRC C6A0E6D0
Accurately ripped (confidence 2) [19D000F7] (AR v2)
Copy OK

Track 8

Filename A:\PsPBuRnOuT's MUSIC\SORTED BY YEAR\1970s\Ultimate Seventies - The Classics\Ultimate Seventies - The Classics - CD1\08.Frankie Valli & The Four Seasons - December, 1963 (Oh What A Night).wav

Peak level 100.0 %
Extraction speed 21.9 X
Track quality 100.0 %
Copy CRC F75B7DD4
Accurately ripped (confidence 1) [818E4EB7] (AR v2)
Copy OK

Track 9

Filename A:\PsPBuRnOuT's MUSIC\SORTED BY YEAR\1970s\Ultimate Seventies - The Classics\Ultimate Seventies - The Classics - CD1\09.The Spinners - Ghetto Child.wav

Peak level 97.1 %
Extraction speed 23.4 X
Track quality 100.0 %
Copy CRC 369C3444
Accurately ripped (confidence 1) [AA640609] (AR v2)
Copy OK

Track 10

Filename A:\PsPBuRnOuT's MUSIC\SORTED BY YEAR\1970s\Ultimate Seventies - The Classics\Ultimate Seventies - The Classics - CD1\10.The Moments - Dolly My Love.wav

Peak level 93.4 %
Extraction speed 22.4 X
Track quality 100.0 %
Copy CRC 02BF5EDD
Accurately ripped (confidence 1) [604CD463] (AR v2)
Copy OK

Track 11

Filename A:\PsPBuRnOuT's MUSIC\SORTED BY YEAR\1970s\Ultimate Seventies - The Classics\Ultimate Seventies - The Classics - CD1\11.Tommy Hunt - Loving On The Losing Side.wav

Peak level 94.1 %
Extraction speed 24.5 X
Track quality 100.0 %
Copy CRC 75E71DB6
Accurately ripped (confidence 1) [7842CA32] (AR v2)
Copy OK

Track 12

Filename A:\PsPBuRnOuT's MUSIC\SORTED BY YEAR\1970s\Ultimate Seventies - The Classics\Ultimate Seventies - The Classics - CD1\12.Curtis Mayfield - Superfly.wav

Peak level 99.9 %
Extraction speed 25.1 X
Track quality 100.0 %
Copy CRC 06342AF1
Accurately ripped (confidence 1) [5658FA3B] (AR v2)
Copy OK

Track 13

Filename A:\PsPBuRnOuT's MUSIC\SORTED BY YEAR\1970s\Ultimate Seventies - The Classics\Ultimate Seventies - The Classics - CD1\13.The Sugarhill Gang - Rapper's Delight.wav

Peak level 87.3 %
Extraction speed 25.4 X
Track quality 100.0 %
Copy CRC 9AECF705
Accurately ripped (confidence 1) [AD6EBE01] (AR v2)
Copy OK

Track 14

Filename A:\PsPBuRnOuT's MUSIC\SORTED BY YEAR\1970s\Ultimate Seventies - The Classics\Ultimate Seventies - The Classics - CD1\14.Labi Siffre - I Got The….wav

Peak level 99.1 %
Extraction speed 24.6 X
Track quality 99.9 %
Copy CRC B5DF1C63
Accurately ripped (confidence 1) [D6780D7C] (AR v2)
Copy OK

Track 15

Filename A:\PsPBuRnOuT's MUSIC\SORTED BY YEAR\1970s\Ultimate Seventies - The Classics\Ultimate Seventies - The Classics - CD1\15.Donny Hathaway - Love Love Love.wav

Peak level 100.0 %
Extraction speed 26.5 X
Track quality 100.0 %
Copy CRC 210CCFCE
Accurately ripped (confidence 1) [BC511706] (AR v2)
Copy OK

Track 16

Filename A:\PsPBuRnOuT's MUSIC\SORTED BY YEAR\1970s\Ultimate Seventies - The Classics\Ultimate Seventies - The Classics - CD1\16.Dr. John - (Everybody Wanna Get Rich) Rite Away.wav

Peak level 100.0 %
Extraction speed 27.2 X
Track quality 100.0 %
Copy CRC 1B1ECAF5
Accurately ripped (confidence 1) [EB3CFA5E] (AR v2)
Copy OK

Track 17

Filename A:\PsPBuRnOuT's MUSIC\SORTED BY YEAR\1970s\Ultimate Seventies - The Classics\Ultimate Seventies - The Classics - CD1\17.War - Galaxy.wav

Peak level 94.4 %
Extraction speed 26.7 X
Track quality 100.0 %
Copy CRC B5250EF3
Accurately ripped (confidence 1) [9CD1EFB5] (AR v2)
Copy OK

Track 18

Filename A:\PsPBuRnOuT's MUSIC\SORTED BY YEAR\1970s\Ultimate Seventies - The Classics\Ultimate Seventies - The Classics - CD1\18.Shalamar - Take That To The Bank.wav

Peak level 100.0 %
Extraction speed 25.6 X
Track quality 100.0 %
Copy CRC E68639B7
Accurately ripped (confidence 1) [A47499CF] (AR v2)
Copy OK

Track 19

Filename A:\PsPBuRnOuT's MUSIC\SORTED BY YEAR\1970s\Ultimate Seventies - The Classics\Ultimate Seventies - The Classics - CD1\19.First Choice - Let No Man Put Asunder.wav

Peak level 87.6 %
Extraction speed 28.3 X
Track quality 100.0 %
Copy CRC 5C77A368
Accurately ripped (confidence 1) [0FFF504C] (AR v2)
Copy OK

Track 20

Filename A:\PsPBuRnOuT's MUSIC\SORTED BY YEAR\1970s\Ultimate Seventies - The Classics\Ultimate Seventies - The Classics - CD1\20.Aretha Franklin - Spanish Harlem.wav

Peak level 95.1 %
Extraction speed 28.6 X
Track quality 100.0 %
Copy CRC 5A22C738
Accurately ripped (confidence 1) [D47753D7] (AR v2)
Copy OK

Track 21

Filename A:\PsPBuRnOuT's MUSIC\SORTED BY YEAR\1970s\Ultimate Seventies - The Classics\Ultimate Seventies - The Classics - CD1\21.George Benson - The Greatest Love Of All.wav

Peak level 95.5 %
Extraction speed 27.9 X
Track quality 100.0 %
Copy CRC 5704A79E
Accurately ripped (confidence 1) [F26B18F1] (AR v2)
Copy OK


All tracks accurately ripped

No errors occurred

End of status report

–– CUETools DB Plugin V2.1.6

[CTDB TOCID: iMyWmyiPbExcz.X.RxcgVSGNJ6k-] found
Submit result: iMyWmyiPbExcz.X.RxcgVSGNJ6k- has been confirmed
Track | CTDB Status
1 | (3/3) Accurately ripped
2 | (3/3) Accurately ripped
3 | (3/3) Accurately ripped
4 | (3/3) Accurately ripped
5 | (3/3) Accurately ripped
6 | (3/3) Accurately ripped
7 | (3/3) Accurately ripped
8 | (3/3) Accurately ripped
9 | (3/3) Accurately ripped
10 | (3/3) Accurately ripped
11 | (3/3) Accurately ripped
12 | (3/3) Accurately ripped
13 | (3/3) Accurately ripped
14 | (3/3) Accurately ripped
15 | (3/3) Accurately ripped
16 | (3/3) Accurately ripped
17 | (3/3) Accurately ripped
18 | (3/3) Accurately ripped
19 | (3/3) Accurately ripped
20 | (3/3) Accurately ripped
21 | (3/3) Accurately ripped

Exact Audio Copy V1.3 from 2. September 2016

EAC extraction logfile from 5. April 2020, 22:31

Various / Ultimate Seventies - The Classics - CD2

Used drive : ASUS DRW-24D5MT Adapter: 1 ID: 0

Read mode : Secure
Utilize accurate stream : Yes
Defeat audio cache : No
Make use of C2 pointers : Yes

Read offset correction : 6
Overread into Lead-In and Lead-Out : No
Fill up missing offset samples with silence : Yes
Delete leading and trailing silent blocks : No
Null samples used in CRC calculations : Yes
Used interface : Native Win32 interface for Win NT & 2000
Gap handling : Not detected, thus appended to previous track

Used output format : User Defined Encoder
Selected bitrate : 896 kBit/s
Quality : High
Add ID3 tag : No
Command line compressor : C:\Program Files (x86)\Exact Audio Copy\FLAC\FLAC.EXE
Additional command line options : -6 -V -T "ARTIST=%artist%" -T "TITLE=%title%" -T "ALBUM=%albumtitle%" -T "DATE=%year%" -T "TRACKNUMBER=%tracknr%" -T "GENRE=%genre%" -T "COMMENT=%comment%" -T "BAND=%albuminterpret%" -T "ALBUMARTIST=%albuminterpret%" -T "COMPOSER=%composer%" %haslyrics%–tag-from-file=LYRICS="%lyricsfile%"%haslyrics% -T "DISCNUMBER=%cdnumber%" -T "TOTALDISCS=%totalcds%" -T "TOTALTRACKS=%numtracks%" %hascover%–picture="%coverfile%"%hascover% %source% -o %dest%


TOC of the extracted CD

Track | Start | Length | Start sector | End sector
––––––––––––––––––––––––––––-
1 | 0:00.00 | 4:34.25 | 0 | 20574
2 | 4:34.25 | 4:06.25 | 20575 | 39049
3 | 8:40.50 | 4:02.73 | 39050 | 57272
4 | 12:43.48 | 4:28.59 | 57273 | 77431
5 | 17:12.32 | 4:12.70 | 77432 | 96401
6 | 21:25.27 | 4:41.33 | 96402 | 117509
7 | 26:06.60 | 6:32.54 | 117510 | 146963
8 | 32:39.39 | 3:52.45 | 146964 | 164408
9 | 36:32.09 | 3:22.07 | 164409 | 179565
10 | 39:54.16 | 3:13.61 | 179566 | 194101
11 | 43:08.02 | 3:47.46 | 194102 | 211172
12 | 46:55.48 | 4:05.11 | 211173 | 229558
13 | 51:00.59 | 3:03.70 | 229559 | 243353
14 | 54:04.54 | 3:59.63 | 243354 | 261341
15 | 58:04.42 | 2:59.69 | 261342 | 274835
16 | 61:04.36 | 3:18.50 | 274836 | 289735
17 | 64:23.11 | 4:35.63 | 289736 | 310423
18 | 68:58.74 | 4:06.04 | 310424 | 328877
19 | 73:05.03 | 4:28.30 | 328878 | 349007


Track 1

Filename A:\PsPBuRnOuT's MUSIC\SORTED BY YEAR\1970s\Ultimate Seventies - The Classics\Ultimate Seventies - The Classics - CD2\01.Van Morrison - Moondance.wav

Peak level 100.0 %
Extraction speed 13.6 X
Track quality 100.0 %
Copy CRC 5D0D01D1
Accurately ripped (confidence 1) [824ED2B3] (AR v2)
Copy OK

Track 2

Filename A:\PsPBuRnOuT's MUSIC\SORTED BY YEAR\1970s\Ultimate Seventies - The Classics\Ultimate Seventies - The Classics - CD2\02.Gerry Rafferty - Baker Street.wav

Peak level 83.8 %
Extraction speed 19.7 X
Track quality 99.9 %
Copy CRC 26D743FE
Accurately ripped (confidence 2) [F9D8DFFD] (AR v2)
Copy OK

Track 3

Filename A:\PsPBuRnOuT's MUSIC\SORTED BY YEAR\1970s\Ultimate Seventies - The Classics\Ultimate Seventies - The Classics - CD2\03.The Hollies - The Air That I Breathe.wav

Peak level 100.0 %
Extraction speed 20.3 X
Track quality 100.0 %
Copy CRC 9E85CE94
Accurately ripped (confidence 2) [28447021] (AR v2)
Copy OK

Track 4

Filename A:\PsPBuRnOuT's MUSIC\SORTED BY YEAR\1970s\Ultimate Seventies - The Classics\Ultimate Seventies - The Classics - CD2\04.Hot Chocolate - So You Win Again.wav

Peak level 82.2 %
Extraction speed 21.2 X
Track quality 100.0 %
Copy CRC 17AAA67C
Accurately ripped (confidence 2) [C0AC7AEC] (AR v2)
Copy OK

Track 5

Filename A:\PsPBuRnOuT's MUSIC\SORTED BY YEAR\1970s\Ultimate Seventies - The Classics\Ultimate Seventies - The Classics - CD2\05.Cliff Richard - We Don't Talk Any More.wav

Peak level 100.0 %
Extraction speed 22.4 X
Track quality 100.0 %
Copy CRC EBC37A0C
Accurately ripped (confidence 2) [E16354D0] (AR v2)
Copy OK

Track 6

Filename A:\PsPBuRnOuT's MUSIC\SORTED BY YEAR\1970s\Ultimate Seventies - The Classics\Ultimate Seventies - The Classics - CD2\06.Chris Rea - Fool (If You Think It's Over).wav

Peak level 100.0 %
Extraction speed 23.0 X
Track quality 100.0 %
Copy CRC 3BCDD5F5
Accurately ripped (confidence 2) [0F8E2558] (AR v2)
Copy OK

Track 7

Filename A:\PsPBuRnOuT's MUSIC\SORTED BY YEAR\1970s\Ultimate Seventies - The Classics\Ultimate Seventies - The Classics - CD2\07.Al Stewart - Year Of The Cat.wav

Peak level 100.0 %
Extraction speed 23.9 X
Track quality 100.0 %
Copy CRC 600F91E5
Accurately ripped (confidence 1) [7251FB42] (AR v2)
Copy OK

Track 8

Filename A:\PsPBuRnOuT's MUSIC\SORTED BY YEAR\1970s\Ultimate Seventies - The Classics\Ultimate Seventies - The Classics - CD2\08.Bonnie Tyler - Lost In France.wav

Peak level 72.9 %
Extraction speed 24.0 X
Track quality 99.9 %
Copy CRC 83E46EFA
Accurately ripped (confidence 1) [D258E610] (AR v2)
Copy OK

Track 9

Filename A:\PsPBuRnOuT's MUSIC\SORTED BY YEAR\1970s\Ultimate Seventies - The Classics\Ultimate Seventies - The Classics - CD2\09.Ace - How Long.wav

Peak level 97.8 %
Extraction speed 23.8 X
Track quality 100.0 %
Copy CRC E6F88521
Accurately ripped (confidence 1) [2C8D02B5] (AR v2)
Copy OK

Track 10

Filename A:\PsPBuRnOuT's MUSIC\SORTED BY YEAR\1970s\Ultimate Seventies - The Classics\Ultimate Seventies - The Classics - CD2\10.Liverpool Express - You Are My Love.wav

Peak level 74.1 %
Extraction speed 25.8 X
Track quality 100.0 %
Copy CRC 81F957C7
Accurately ripped (confidence 1) [507AB393] (AR v2)
Copy OK

Track 11

Filename A:\PsPBuRnOuT's MUSIC\SORTED BY YEAR\1970s\Ultimate Seventies - The Classics\Ultimate Seventies - The Classics - CD2\11.Yes - Wonderous Stories.wav

Peak level 100.0 %
Extraction speed 26.4 X
Track quality 100.0 %
Copy CRC D27F577F
Accurately ripped (confidence 1) [21401744] (AR v2)
Copy OK

Track 12

Filename A:\PsPBuRnOuT's MUSIC\SORTED BY YEAR\1970s\Ultimate Seventies - The Classics\Ultimate Seventies - The Classics - CD2\12.Renaissance - Northern Lights.wav

Peak level 100.0 %
Extraction speed 26.9 X
Track quality 100.0 %
Copy CRC 6C6D1807
Accurately ripped (confidence 1) [88B959ED] (AR v2)
Copy OK

Track 13

Filename A:\PsPBuRnOuT's MUSIC\SORTED BY YEAR\1970s\Ultimate Seventies - The Classics\Ultimate Seventies - The Classics - CD2\13.Pilot - Magic.wav

Peak level 99.8 %
Extraction speed 26.0 X
Track quality 100.0 %
Copy CRC 0D822A04
Accurately ripped (confidence 2) [CFF01EBC] (AR v2)
Copy OK

Track 14

Filename A:\PsPBuRnOuT's MUSIC\SORTED BY YEAR\1970s\Ultimate Seventies - The Classics\Ultimate Seventies - The Classics - CD2\14.The Korgis - If I Had You.wav

Peak level 100.0 %
Extraction speed 27.7 X
Track quality 100.0 %
Copy CRC 371EEA23
Accurately ripped (confidence 1) [8F6E49D5] (AR v2)
Copy OK

Track 15

Filename A:\PsPBuRnOuT's MUSIC\SORTED BY YEAR\1970s\Ultimate Seventies - The Classics\Ultimate Seventies - The Classics - CD2\15.Gilbert O'Sullivan - Clair.wav

Peak level 87.5 %
Extraction speed 26.9 X
Track quality 100.0 %
Copy CRC 720B6BEB
Accurately ripped (confidence 1) [DDE05C03] (AR v2)
Copy OK

Track 16

Filename A:\PsPBuRnOuT's MUSIC\SORTED BY YEAR\1970s\Ultimate Seventies - The Classics\Ultimate Seventies - The Classics - CD2\16.David Dundas - Jeans On.wav

Peak level 97.9 %
Extraction speed 27.9 X
Track quality 100.0 %
Copy CRC 030AAEE3
Accurately ripped (confidence 1) [DCC2F27F] (AR v2)
Copy OK

Track 17

Filename A:\PsPBuRnOuT's MUSIC\SORTED BY YEAR\1970s\Ultimate Seventies - The Classics\Ultimate Seventies - The Classics - CD2\17.Alan Price - Jarrow Song.wav

Peak level 76.2 %
Extraction speed 28.5 X
Track quality 100.0 %
Copy CRC 89F4A858
Accurately ripped (confidence 1) [D001254C] (AR v2)
Copy OK

Track 18

Filename A:\PsPBuRnOuT's MUSIC\SORTED BY YEAR\1970s\Ultimate Seventies - The Classics\Ultimate Seventies - The Classics - CD2\18.Ralph McTell - Streets Of London.wav

Peak level 89.0 %
Extraction speed 28.7 X
Track quality 100.0 %
Copy CRC 6B9E9E0E
Accurately ripped (confidence 2) [70F4BD68] (AR v2)
Copy OK

Track 19

Filename A:\PsPBuRnOuT's MUSIC\SORTED BY YEAR\1970s\Ultimate Seventies - The Classics\Ultimate Seventies - The Classics - CD2\19.Brian & Michael - Matchstalk Men And Matchstalk Cats And Dogs.wav

Peak level 93.4 %
Extraction speed 29.4 X
Track quality 100.0 %
Copy CRC FFB5359F
Accurately ripped (confidence 1) [3F6A274B] (AR v2)
Copy OK


All tracks accurately ripped

No errors occurred

End of status report

–– CUETools DB Plugin V2.1.6

[CTDB TOCID: zCwj2o5fjgFEmQuD2i.XAufHDpU-] found
Submit result: zCwj2o5fjgFEmQuD2i.XAufHDpU- has been confirmed
Track | CTDB Status
1 | (3/3) Accurately ripped
2 | (3/3) Accurately ripped
3 | (3/3) Accurately ripped
4 | (3/3) Accurately ripped
5 | (3/3) Accurately ripped
6 | (3/3) Accurately ripped
7 | (3/3) Accurately ripped
8 | (3/3) Accurately ripped
9 | (3/3) Accurately ripped
10 | (3/3) Accurately ripped
11 | (3/3) Accurately ripped
12 | (3/3) Accurately ripped
13 | (3/3) Accurately ripped
14 | (3/3) Accurately ripped
15 | (3/3) Accurately ripped
16 | (3/3) Accurately ripped
17 | (3/3) Accurately ripped
18 | (3/3) Accurately ripped
19 | (3/3) Accurately ripped

Exact Audio Copy V1.3 from 2. September 2016

EAC extraction logfile from 6. April 2020, 10:51

Various / Ultimate Seventies - The Classics - CD3

Used drive : ASUS DRW-24D5MT Adapter: 1 ID: 0

Read mode : Secure
Utilize accurate stream : Yes
Defeat audio cache : No
Make use of C2 pointers : Yes

Read offset correction : 6
Overread into Lead-In and Lead-Out : No
Fill up missing offset samples with silence : Yes
Delete leading and trailing silent blocks : No
Null samples used in CRC calculations : Yes
Used interface : Native Win32 interface for Win NT & 2000
Gap handling : Not detected, thus appended to previous track

Used output format : User Defined Encoder
Selected bitrate : 896 kBit/s
Quality : High
Add ID3 tag : No
Command line compressor : C:\Program Files (x86)\Exact Audio Copy\FLAC\FLAC.EXE
Additional command line options : -6 -V -T "ARTIST=%artist%" -T "TITLE=%title%" -T "ALBUM=%albumtitle%" -T "DATE=%year%" -T "TRACKNUMBER=%tracknr%" -T "GENRE=%genre%" -T "COMMENT=%comment%" -T "BAND=%albuminterpret%" -T "ALBUMARTIST=%albuminterpret%" -T "COMPOSER=%composer%" %haslyrics%–tag-from-file=LYRICS="%lyricsfile%"%haslyrics% -T "DISCNUMBER=%cdnumber%" -T "TOTALDISCS=%totalcds%" -T "TOTALTRACKS=%numtracks%" %hascover%–picture="%coverfile%"%hascover% %source% -o %dest%


TOC of the extracted CD

Track | Start | Length | Start sector | End sector
––––––––––––––––––––––––––––-
1 | 0:00.00 | 4:01.38 | 0 | 18112
2 | 4:01.38 | 2:36.28 | 18113 | 29840
3 | 6:37.66 | 5:26.47 | 29841 | 54337
4 | 12:04.38 | 3:47.59 | 54338 | 71421
5 | 15:52.22 | 3:56.36 | 71422 | 89157
6 | 19:48.58 | 3:50.43 | 89158 | 106450
7 | 23:39.26 | 3:35.31 | 106451 | 122606
8 | 27:14.57 | 3:40.67 | 122607 | 139173
9 | 30:55.49 | 3:15.62 | 139174 | 153860
10 | 34:11.36 | 2:35.55 | 153861 | 165540
11 | 36:47.16 | 3:03.23 | 165541 | 179288
12 | 39:50.39 | 3:48.51 | 179289 | 196439
13 | 43:39.15 | 2:46.64 | 196440 | 208953
14 | 46:26.04 | 2:55.03 | 208954 | 222081
15 | 49:21.07 | 2:40.34 | 222082 | 234115
16 | 52:01.41 | 2:56.16 | 234116 | 247331
17 | 54:57.57 | 3:24.27 | 247332 | 262658
18 | 58:22.09 | 1:59.60 | 262659 | 271643
19 | 60:21.69 | 3:10.72 | 271644 | 285965


Track 1

Filename A:\PsPBuRnOuT's MUSIC\SORTED BY YEAR\1970s\Ultimate Seventies - The Classics\Ultimate Seventies - The Classics - CD3\01.Sweet - Ballroom Blitz.wav

Peak level 85.6 %
Extraction speed 12.7 X
Track quality 100.0 %
Copy CRC 4D2BD128
Accurately ripped (confidence 1) [D6228554] (AR v2)
Copy OK

Track 2

Filename A:\PsPBuRnOuT's MUSIC\SORTED BY YEAR\1970s\Ultimate Seventies - The Classics\Ultimate Seventies - The Classics - CD3\02.Faces - Cindy Incidentally.wav

Peak level 86.7 %
Extraction speed 18.5 X
Track quality 100.0 %
Copy CRC 65EDA0D2
Accurately ripped (confidence 1) [4C1730C1] (AR v2)
Copy OK

Track 3

Filename A:\PsPBuRnOuT's MUSIC\SORTED BY YEAR\1970s\Ultimate Seventies - The Classics\Ultimate Seventies - The Classics - CD3\03.Electric Light Orchestra - 10538 Overture.wav

Peak level 98.7 %
Extraction speed 19.9 X
Track quality 99.9 %
Copy CRC 22799106
Accurately ripped (confidence 1) [CD8BC76F] (AR v2)
Copy OK

Track 4

Filename A:\PsPBuRnOuT's MUSIC\SORTED BY YEAR\1970s\Ultimate Seventies - The Classics\Ultimate Seventies - The Classics - CD3\04.Foreigner - Feels Like The First Time.wav

Peak level 72.4 %
Extraction speed 21.1 X
Track quality 100.0 %
Copy CRC 3C9C7F22
Accurately ripped (confidence 1) [C187EFB8] (AR v2)
Copy OK

Track 5

Filename A:\PsPBuRnOuT's MUSIC\SORTED BY YEAR\1970s\Ultimate Seventies - The Classics\Ultimate Seventies - The Classics - CD3\05.Foghat - Slow Ride.wav

Peak level 100.0 %
Extraction speed 22.7 X
Track quality 100.0 %
Copy CRC 5DEAF77B
Accurately ripped (confidence 1) [B0CE90C9] (AR v2)
Copy OK

Track 6

Filename A:\PsPBuRnOuT's MUSIC\SORTED BY YEAR\1970s\Ultimate Seventies - The Classics\Ultimate Seventies - The Classics - CD3\06.Nazareth - Love Hurts.wav

Peak level 82.2 %
Extraction speed 23.7 X
Track quality 100.0 %
Copy CRC 0F2E618D
Accurately ripped (confidence 1) [64C70795] (AR v2)
Copy OK

Track 7

Filename A:\PsPBuRnOuT's MUSIC\SORTED BY YEAR\1970s\Ultimate Seventies - The Classics\Ultimate Seventies - The Classics - CD3\07.Be Bop Deluxe - Ships In The Night.wav

Peak level 99.4 %
Extraction speed 23.8 X
Track quality 99.9 %
Copy CRC AA6ECC82
Accurately ripped (confidence 1) [EC85FECF] (AR v2)
Copy OK

Track 8

Filename A:\PsPBuRnOuT's MUSIC\SORTED BY YEAR\1970s\Ultimate Seventies - The Classics\Ultimate Seventies - The Classics - CD3\08.The Cars - My Best Friend's Girl.wav

Peak level 99.8 %
Extraction speed 23.9 X
Track quality 100.0 %
Copy CRC 58750D7B
Accurately ripped (confidence 1) [11D127E8] (AR v2)
Copy OK

Track 9

Filename A:\PsPBuRnOuT's MUSIC\SORTED BY YEAR\1970s\Ultimate Seventies - The Classics\Ultimate Seventies - The Classics - CD3\09.After The Fire - One Rule One You.wav

Peak level 99.6 %
Extraction speed 24.3 X
Track quality 100.0 %
Copy CRC B8D856C7
Accurately ripped (confidence 1) [D1ADD8BC] (AR v2)
Copy OK

Track 10

Filename A:\PsPBuRnOuT's MUSIC\SORTED BY YEAR\1970s\Ultimate Seventies - The Classics\Ultimate Seventies - The Classics - CD3\10.Jonathan Richman & The Modern Lovers - Egyptian Reggae.wav

Peak level 100.0 %
Extraction speed 24.9 X
Track quality 100.0 %
Copy CRC E35B0784
Accurately ripped (confidence 1) [83F0197B] (AR v2)
Copy OK

Track 11

Filename A:\PsPBuRnOuT's MUSIC\SORTED BY YEAR\1970s\Ultimate Seventies - The Classics\Ultimate Seventies - The Classics - CD3\11.Pretenders - Kid.wav

Peak level 93.5 %
Extraction speed 24.9 X
Track quality 100.0 %
Copy CRC CDB69181
Accurately ripped (confidence 1) [238F2E01] (AR v2)
Copy OK

Track 12

Filename A:\PsPBuRnOuT's MUSIC\SORTED BY YEAR\1970s\Ultimate Seventies - The Classics\Ultimate Seventies - The Classics - CD3\12.Television - Venus.wav

Peak level 100.0 %
Extraction speed 26.0 X
Track quality 100.0 %
Copy CRC D8C7B711
Accurately ripped (confidence 1) [EF2EF536] (AR v2)
Copy OK

Track 13

Filename A:\PsPBuRnOuT's MUSIC\SORTED BY YEAR\1970s\Ultimate Seventies - The Classics\Ultimate Seventies - The Classics - CD3\13.Ramones - Sheena Is A Punk Rocker.wav

Peak level 100.0 %
Extraction speed 26.4 X
Track quality 100.0 %
Copy CRC 2AC9761E
Accurately ripped (confidence 1) [94AD0369] (AR v2)
Copy OK

Track 14

Filename A:\PsPBuRnOuT's MUSIC\SORTED BY YEAR\1970s\Ultimate Seventies - The Classics\Ultimate Seventies - The Classics - CD3\14.The Stranglers - No More Heroes.wav

Peak level 100.0 %
Extraction speed 26.7 X
Track quality 100.0 %
Copy CRC 657B1E56
Accurately ripped (confidence 1) [D9996411] (AR v2)
Copy OK

Track 15

Filename A:\PsPBuRnOuT's MUSIC\SORTED BY YEAR\1970s\Ultimate Seventies - The Classics\Ultimate Seventies - The Classics - CD3\15.The Damned - Neat Neat Neat.wav

Peak level 100.0 %
Extraction speed 26.8 X
Track quality 100.0 %
Copy CRC 3305E9A6
Accurately ripped (confidence 1) [F25751F1] (AR v2)
Copy OK

Track 16

Filename A:\PsPBuRnOuT's MUSIC\SORTED BY YEAR\1970s\Ultimate Seventies - The Classics\Ultimate Seventies - The Classics - CD3\16.Rich Kids - Rich Kids.wav

Peak level 100.0 %
Extraction speed 27.2 X
Track quality 99.8 %
Copy CRC 78C099B5
Accurately ripped (confidence 1) [163D9CEF] (AR v2)
Copy OK

Track 17

Filename A:\PsPBuRnOuT's MUSIC\SORTED BY YEAR\1970s\Ultimate Seventies - The Classics\Ultimate Seventies - The Classics - CD3\17.Sham 69 - Hurry Up Harry.wav

Peak level 87.4 %
Extraction speed 27.6 X
Track quality 100.0 %
Copy CRC 40A9CD98
Accurately ripped (confidence 1) [85DEEE79] (AR v2)
Copy OK

Track 18

Filename A:\PsPBuRnOuT's MUSIC\SORTED BY YEAR\1970s\Ultimate Seventies - The Classics\Ultimate Seventies - The Classics - CD3\18.The Monks - Nice Legs Shame About The Face.wav

Peak level 92.7 %
Extraction speed 27.1 X
Track quality 99.8 %
Copy CRC FC19B93A
Accurately ripped (confidence 1) [F91F3C94] (AR v2)
Copy OK

Track 19

Filename A:\PsPBuRnOuT's MUSIC\SORTED BY YEAR\1970s\Ultimate Seventies - The Classics\Ultimate Seventies - The Classics - CD3\19.Driver 67 - Cars 67.wav

Peak level 100.0 %
Extraction speed 27.8 X
Track quality 100.0 %
Copy CRC 070C8BD6
Accurately ripped (confidence 1) [8345BC68] (AR v2)
Copy OK


All tracks accurately ripped

No errors occurred

End of status report

–– CUETools DB Plugin V2.1.6

[CTDB TOCID: LOwnk01unkJxIVAoqxvTXCGTTR4-] found
Submit result: LOwnk01unkJxIVAoqxvTXCGTTR4- has been confirmed
Track | CTDB Status
1 | (3/3) Accurately ripped
2 | (3/3) Accurately ripped
3 | (3/3) Accurately ripped
4 | (3/3) Accurately ripped
5 | (3/3) Accurately ripped
6 | (3/3) Accurately ripped
7 | (3/3) Accurately ripped
8 | (3/3) Accurately ripped
9 | (3/3) Accurately ripped
10 | (3/3) Accurately ripped
11 | (3/3) Accurately ripped
12 | (3/3) Accurately ripped
13 | (3/3) Accurately ripped
14 | (3/3) Accurately ripped
15 | (3/3) Accurately ripped
16 | (3/3) Accurately ripped
17 | (3/3) Accurately ripped
18 | (3/3) Accurately ripped
19 | (3/3) Accurately ripped

Exact Audio Copy V1.3 from 2. September 2016

EAC extraction logfile from 6. April 2020, 19:43

Various / Ultimate Seventies - The Classics - CD4

Used drive : ASUS DRW-24D5MT Adapter: 1 ID: 0

Read mode : Secure
Utilize accurate stream : Yes
Defeat audio cache : No
Make use of C2 pointers : Yes

Read offset correction : 6
Overread into Lead-In and Lead-Out : No
Fill up missing offset samples with silence : Yes
Delete leading and trailing silent blocks : No
Null samples used in CRC calculations : Yes
Used interface : Native Win32 interface for Win NT & 2000
Gap handling : Not detected, thus appended to previous track

Used output format : User Defined Encoder
Selected bitrate : 896 kBit/s
Quality : High
Add ID3 tag : No
Command line compressor : C:\Program Files (x86)\Exact Audio Copy\FLAC\FLAC.EXE
Additional command line options : -6 -V -T "ARTIST=%artist%" -T "TITLE=%title%" -T "ALBUM=%albumtitle%" -T "DATE=%year%" -T "TRACKNUMBER=%tracknr%" -T "GENRE=%genre%" -T "COMMENT=%comment%" -T "BAND=%albuminterpret%" -T "ALBUMARTIST=%albuminterpret%" -T "COMPOSER=%composer%" %haslyrics%–tag-from-file=LYRICS="%lyricsfile%"%haslyrics% -T "DISCNUMBER=%cdnumber%" -T "TOTALDISCS=%totalcds%" -T "TOTALTRACKS=%numtracks%" %hascover%–picture="%coverfile%"%hascover% %source% -o %dest%


TOC of the extracted CD

Track | Start | Length | Start sector | End sector
––––––––––––––––––––––––––––-
1 | 0:00.00 | 3:15.61 | 0 | 14685
2 | 3:15.61 | 3:51.07 | 14686 | 32017
3 | 7:06.68 | 2:16.27 | 32018 | 42244
4 | 9:23.20 | 3:05.62 | 42245 | 56181
5 | 12:29.07 | 2:43.16 | 56182 | 68422
6 | 15:12.23 | 3:05.39 | 68423 | 82336
7 | 18:17.62 | 3:03.41 | 82337 | 96102
8 | 21:21.28 | 3:43.42 | 96103 | 112869
9 | 25:04.70 | 3:05.71 | 112870 | 126815
10 | 28:10.66 | 2:48.62 | 126816 | 139477
11 | 30:59.53 | 4:36.28 | 139478 | 160205
12 | 35:36.06 | 2:43.27 | 160206 | 172457
13 | 38:19.33 | 2:58.59 | 172458 | 185866
14 | 41:18.17 | 2:32.52 | 185867 | 197318
15 | 43:50.69 | 2:51.02 | 197319 | 210145
16 | 46:41.71 | 3:25.41 | 210146 | 225561
17 | 50:07.37 | 3:02.24 | 225562 | 239235
18 | 53:09.61 | 2:42.64 | 239236 | 251449
19 | 55:52.50 | 3:48.11 | 251450 | 268560
20 | 59:40.61 | 2:39.30 | 268561 | 280515
21 | 62:20.16 | 4:03.62 | 280516 | 298802
22 | 66:24.03 | 3:02.33 | 298803 | 312485
23 | 69:26.36 | 3:21.62 | 312486 | 327622
24 | 72:48.23 | 3:50.68 | 327623 | 344940


Track 1

Filename A:\PsPBuRnOuT's MUSIC\SORTED BY YEAR\1970s\Ultimate Seventies - The Classics\Ultimate Seventies - The Classics - CD4\01.Carl Douglas - Kung Fu Fighting.wav

Peak level 100.0 %
Extraction speed 12.3 X
Track quality 100.0 %
Copy CRC 8AEF3FC0
Accurately ripped (confidence 1) [E407C087] (AR v2)
Copy OK

Track 2

Filename A:\PsPBuRnOuT's MUSIC\SORTED BY YEAR\1970s\Ultimate Seventies - The Classics\Ultimate Seventies - The Classics - CD4\02.Althea & Donna - Uptown Top Ranking.wav

Peak level 83.1 %
Extraction speed 17.3 X
Track quality 100.0 %
Copy CRC 50FC035E
Accurately ripped (confidence 2) [545AD951] (AR v2)
Copy OK

Track 3

Filename A:\PsPBuRnOuT's MUSIC\SORTED BY YEAR\1970s\Ultimate Seventies - The Classics\Ultimate Seventies - The Classics - CD4\03.Nicky Thomas - Love Of The Common People.wav

Peak level 87.5 %
Extraction speed 19.6 X
Track quality 99.8 %
Copy CRC 7ACF283E
Accurately ripped (confidence 1) [B38C819E] (AR v2)
Copy OK

Track 4

Filename A:\PsPBuRnOuT's MUSIC\SORTED BY YEAR\1970s\Ultimate Seventies - The Classics\Ultimate Seventies - The Classics - CD4\04.Harry J Allstars - Liquidator.wav

Peak level 79.4 %
Extraction speed 19.5 X
Track quality 100.0 %
Copy CRC F1BE5E11
Accurately ripped (confidence 1) [DBB70B90] (AR v2)
Copy OK

Track 5

Filename A:\PsPBuRnOuT's MUSIC\SORTED BY YEAR\1970s\Ultimate Seventies - The Classics\Ultimate Seventies - The Classics - CD4\05.Dave & Ansell Collins - Double Barrel.wav

Peak level 72.6 %
Extraction speed 19.7 X
Track quality 100.0 %
Copy CRC E4DC737D
Accurately ripped (confidence 1) [4FACA86D] (AR v2)
Copy OK

Track 6

Filename A:\PsPBuRnOuT's MUSIC\SORTED BY YEAR\1970s\Ultimate Seventies - The Classics\Ultimate Seventies - The Classics - CD4\06.Bob & Marcia - To Be Young Gifted & Black.wav

Peak level 75.2 %
Extraction speed 21.3 X
Track quality 100.0 %
Copy CRC 6DA6A37B
Accurately ripped (confidence 1) [57D1A37E] (AR v2)
Copy OK

Track 7

Filename A:\PsPBuRnOuT's MUSIC\SORTED BY YEAR\1970s\Ultimate Seventies - The Classics\Ultimate Seventies - The Classics - CD4\07.John Holt - Help Me Make It Through The Night.wav

Peak level 80.1 %
Extraction speed 18.5 X
Track quality 99.8 %
Copy CRC DF21102B
Accurately ripped (confidence 1) [1E41AC36] (AR v2)
Copy OK

Track 8

Filename A:\PsPBuRnOuT's MUSIC\SORTED BY YEAR\1970s\Ultimate Seventies - The Classics\Ultimate Seventies - The Classics - CD4\08.Ken Boothe - Everything I Own.wav

Peak level 70.8 %
Extraction speed 22.9 X
Track quality 100.0 %
Copy CRC 46F576F8
Accurately ripped (confidence 1) [8B64D5B8] (AR v2)
Copy OK

Track 9

Filename A:\PsPBuRnOuT's MUSIC\SORTED BY YEAR\1970s\Ultimate Seventies - The Classics\Ultimate Seventies - The Classics - CD4\09.The Pioneers - Let Your Yeah Be Yeah.wav

Peak level 78.8 %
Extraction speed 22.9 X
Track quality 100.0 %
Copy CRC 1FD68620
Accurately ripped (confidence 1) [2F878007] (AR v2)
Copy OK

Track 10

Filename A:\PsPBuRnOuT's MUSIC\SORTED BY YEAR\1970s\Ultimate Seventies - The Classics\Ultimate Seventies - The Classics - CD4\10.Blue Mink - Good Morning Freedom.wav

Peak level 79.7 %
Extraction speed 23.8 X
Track quality 100.0 %
Copy CRC 3CECCD7F
Accurately ripped (confidence 1) [8D74E9ED] (AR v2)
Copy OK

Track 11

Filename A:\PsPBuRnOuT's MUSIC\SORTED BY YEAR\1970s\Ultimate Seventies - The Classics\Ultimate Seventies - The Classics - CD4\11.Wizzard - Angel Fingers (A Teen Ballad).wav

Peak level 93.6 %
Extraction speed 24.8 X
Track quality 100.0 %
Copy CRC 019BF2D2
Accurately ripped (confidence 1) [B82CAF58] (AR v2)
Copy OK

Track 12

Filename A:\PsPBuRnOuT's MUSIC\SORTED BY YEAR\1970s\Ultimate Seventies - The Classics\Ultimate Seventies - The Classics - CD4\12.Hello - New York Groove.wav

Peak level 69.2 %
Extraction speed 24.7 X
Track quality 100.0 %
Copy CRC CD25A2F6
Accurately ripped (confidence 1) [3F6EDEE3] (AR v2)
Copy OK

Track 13

Filename A:\PsPBuRnOuT's MUSIC\SORTED BY YEAR\1970s\Ultimate Seventies - The Classics\Ultimate Seventies - The Classics - CD4\13.The Arrows - Touch Too Much.wav

Peak level 94.4 %
Extraction speed 25.3 X
Track quality 99.8 %
Copy CRC D0CE8B5B
Accurately ripped (confidence 1) [7AA4C00D] (AR v2)
Copy OK

Track 14

Filename A:\PsPBuRnOuT's MUSIC\SORTED BY YEAR\1970s\Ultimate Seventies - The Classics\Ultimate Seventies - The Classics - CD4\14.Kenny - The Bump.wav

Peak level 94.4 %
Extraction speed 25.0 X
Track quality 100.0 %
Copy CRC 6A4F809F
Accurately ripped (confidence 1) [B1900461] (AR v2)
Copy OK

Track 15

Filename A:\PsPBuRnOuT's MUSIC\SORTED BY YEAR\1970s\Ultimate Seventies - The Classics\Ultimate Seventies - The Classics - CD4\15.Mud - Oh Boy.wav

Peak level 100.0 %
Extraction speed 26.1 X
Track quality 100.0 %
Copy CRC 0093FF31
Accurately ripped (confidence 1) [02AD783B] (AR v2)
Copy OK

Track 16

Filename A:\PsPBuRnOuT's MUSIC\SORTED BY YEAR\1970s\Ultimate Seventies - The Classics\Ultimate Seventies - The Classics - CD4\16.Racey - Some Girls.wav

Peak level 77.6 %
Extraction speed 26.3 X
Track quality 99.8 %
Copy CRC F225F60D
Accurately ripped (confidence 1) [A311F005] (AR v2)
Copy OK

Track 17

Filename A:\PsPBuRnOuT's MUSIC\SORTED BY YEAR\1970s\Ultimate Seventies - The Classics\Ultimate Seventies - The Classics - CD4\17.Darts - The Boy From New York City.wav

Peak level 100.0 %
Extraction speed 26.9 X
Track quality 100.0 %
Copy CRC 6DA7E89C
Accurately ripped (confidence 2) [1B076CFD] (AR v2)
Copy OK

Track 18

Filename A:\PsPBuRnOuT's MUSIC\SORTED BY YEAR\1970s\Ultimate Seventies - The Classics\Ultimate Seventies - The Classics - CD4\18.Matchbox - Rockabilly Rebal.wav

Peak level 83.1 %
Extraction speed 26.9 X
Track quality 99.8 %
Copy CRC 5288A1BA
Accurately ripped (confidence 1) [6456E0C1] (AR v2)
Copy OK

Track 19

Filename A:\PsPBuRnOuT's MUSIC\SORTED BY YEAR\1970s\Ultimate Seventies - The Classics\Ultimate Seventies - The Classics - CD4\19.Fox - S-S-S-Single Bed.wav

Peak level 89.1 %
Extraction speed 27.2 X
Track quality 99.9 %
Copy CRC B700D68A
Accurately ripped (confidence 1) [7BA41F40] (AR v2)
Copy OK

Track 20

Filename A:\PsPBuRnOuT's MUSIC\SORTED BY YEAR\1970s\Ultimate Seventies - The Classics\Ultimate Seventies - The Classics - CD4\20.Sailor - A Glass Of Champagne.wav

Peak level 100.0 %
Extraction speed 27.5 X
Track quality 100.0 %
Copy CRC A1CC0C57
Accurately ripped (confidence 2) [889949FD] (AR v2)
Copy OK

Track 21

Filename A:\PsPBuRnOuT's MUSIC\SORTED BY YEAR\1970s\Ultimate Seventies - The Classics\Ultimate Seventies - The Classics - CD4\21.Mungo Jerry - Baby Jump.wav

Peak level 88.1 %
Extraction speed 28.0 X
Track quality 100.0 %
Copy CRC E905E0EE
Accurately ripped (confidence 1) [511D9BA6] (AR v2)
Copy OK

Track 22

Filename A:\PsPBuRnOuT's MUSIC\SORTED BY YEAR\1970s\Ultimate Seventies - The Classics\Ultimate Seventies - The Classics - CD4\22.The Wurzels - The Combine Harvester (Brand New Key).wav

Peak level 92.3 %
Extraction speed 28.6 X
Track quality 100.0 %
Copy CRC D254B829
Accurately ripped (confidence 2) [469E1E8D] (AR v2)
Copy OK

Track 23

Filename A:\PsPBuRnOuT's MUSIC\SORTED BY YEAR\1970s\Ultimate Seventies - The Classics\Ultimate Seventies - The Classics - CD4\23.Clive Dunn - Grandad.wav

Peak level 100.0 %
Extraction speed 29.0 X
Track quality 100.0 %
Copy CRC 4FBC8DFF
Accurately ripped (confidence 1) [F290974E] (AR v2)
Copy OK

Track 24

Filename A:\PsPBuRnOuT's MUSIC\SORTED BY YEAR\1970s\Ultimate Seventies - The Classics\Ultimate Seventies - The Classics - CD4\24.Benny Hill - Ernie (The Fastest Milkman In The West).wav

Peak level 96.1 %
Extraction speed 29.2 X
Track quality 100.0 %
Copy CRC A7CD0A14
Accurately ripped (confidence 2) [5460346F] (AR v2)
Copy OK


All tracks accurately ripped

No errors occurred

End of status report

–– CUETools DB Plugin V2.1.6

[CTDB TOCID: xpkRIJg6deFRMCCCgGKEb4_KFZk-] found
Submit result: xpkRIJg6deFRMCCCgGKEb4_KFZk- has been confirmed
Track | CTDB Status
1 | (3/3) Accurately ripped
2 | (3/3) Accurately ripped
3 | (3/3) Accurately ripped
4 | (3/3) Accurately ripped
5 | (3/3) Accurately ripped
6 | (3/3) Accurately ripped
7 | (3/3) Accurately ripped
8 | (3/3) Accurately ripped
9 | (3/3) Accurately ripped
10 | (3/3) Accurately ripped
11 | (3/3) Accurately ripped
12 | (3/3) Accurately ripped
13 | (3/3) Accurately ripped
14 | (3/3) Accurately ripped
15 | (3/3) Accurately ripped
16 | (3/3) Accurately ripped
17 | (3/3) Accurately ripped
18 | (3/3) Accurately ripped
19 | (3/3) Accurately ripped
20 | (3/3) Accurately ripped
21 | (3/3) Accurately ripped
22 | (3/3) Accurately ripped
23 | (3/3) Accurately ripped
24 | (3/3) Accurately ripped

Exact Audio Copy V1.3 from 2. September 2016

EAC extraction logfile from 6. April 2020, 20:22

Various / Ultimate Seventies - The Classics - CD5

Used drive : ASUS DRW-24D5MT Adapter: 1 ID: 0

Read mode : Secure
Utilize accurate stream : Yes
Defeat audio cache : No
Make use of C2 pointers : Yes

Read offset correction : 6
Overread into Lead-In and Lead-Out : No
Fill up missing offset samples with silence : Yes
Delete leading and trailing silent blocks : No
Null samples used in CRC calculations : Yes
Used interface : Native Win32 interface for Win NT & 2000
Gap handling : Not detected, thus appended to previous track

Used output format : User Defined Encoder
Selected bitrate : 896 kBit/s
Quality : High
Add ID3 tag : No
Command line compressor : C:\Program Files (x86)\Exact Audio Copy\FLAC\FLAC.EXE
Additional command line options : -6 -V -T "ARTIST=%artist%" -T "TITLE=%title%" -T "ALBUM=%albumtitle%" -T "DATE=%year%" -T "TRACKNUMBER=%tracknr%" -T "GENRE=%genre%" -T "COMMENT=%comment%" -T "BAND=%albuminterpret%" -T "ALBUMARTIST=%albuminterpret%" -T "COMPOSER=%composer%" %haslyrics%–tag-from-file=LYRICS="%lyricsfile%"%haslyrics% -T "DISCNUMBER=%cdnumber%" -T "TOTALDISCS=%totalcds%" -T "TOTALTRACKS=%numtracks%" %hascover%–picture="%coverfile%"%hascover% %source% -o %dest%


TOC of the extracted CD

Track | Start | Length | Start sector | End sector
––––––––––––––––––––––––––––-
1 | 0:00.00 | 3:46.39 | 0 | 16988
2 | 3:46.39 | 4:21.02 | 16989 | 36565
3 | 8:07.41 | 3:24.18 | 36566 | 51883
4 | 11:31.59 | 3:24.62 | 51884 | 67245
5 | 14:56.46 | 2:35.62 | 67246 | 78932
6 | 17:32.33 | 4:00.39 | 78933 | 96971
7 | 21:32.72 | 3:42.74 | 96972 | 113695
8 | 25:15.71 | 5:19.21 | 113696 | 137641
9 | 30:35.17 | 4:57.23 | 137642 | 159939
10 | 35:32.40 | 4:51.71 | 159940 | 181835
11 | 40:24.36 | 3:55.06 | 181836 | 199466
12 | 44:19.42 | 3:48.09 | 199467 | 216575
13 | 48:07.51 | 4:34.28 | 216576 | 237153
14 | 52:42.04 | 4:00.06 | 237154 | 255159
15 | 56:42.10 | 3:28.37 | 255160 | 270796
16 | 60:10.47 | 4:48.61 | 270797 | 292457
17 | 64:59.33 | 4:38.50 | 292458 | 313357


Track 1

Filename A:\PsPBuRnOuT's MUSIC\SORTED BY YEAR\1970s\Ultimate Seventies - The Classics\Ultimate Seventies - The Classics - CD5\01.The Doobie Brothers - Listen To The Music.wav

Peak level 92.6 %
Extraction speed 13.0 X
Track quality 100.0 %
Copy CRC FDF883F3
Accurately ripped (confidence 1) [E780553E] (AR v2)
Copy OK

Track 2

Filename A:\PsPBuRnOuT's MUSIC\SORTED BY YEAR\1970s\Ultimate Seventies - The Classics\Ultimate Seventies - The Classics - CD5\02.Andrew Gold - Lonely Boy.wav

Peak level 100.0 %
Extraction speed 20.0 X
Track quality 100.0 %
Copy CRC 4A9C1978
Accurately ripped (confidence 1) [93A24DEE] (AR v2)
Copy OK

Track 3

Filename A:\PsPBuRnOuT's MUSIC\SORTED BY YEAR\1970s\Ultimate Seventies - The Classics\Ultimate Seventies - The Classics - CD5\03.Daryl Hall & John Oates - She's Gone.wav

Peak level 100.0 %
Extraction speed 19.9 X
Track quality 100.0 %
Copy CRC 202A0846
Accurately ripped (confidence 2) [7557004C] (AR v2)
Copy OK

Track 4

Filename A:\PsPBuRnOuT's MUSIC\SORTED BY YEAR\1970s\Ultimate Seventies - The Classics\Ultimate Seventies - The Classics - CD5\04.Gary Wright - Dream Weaver.wav

Peak level 100.0 %
Extraction speed 21.3 X
Track quality 100.0 %
Copy CRC 3413DCEB
Accurately ripped (confidence 2) [4E2EBE58] (AR v2)
Copy OK

Track 5

Filename A:\PsPBuRnOuT's MUSIC\SORTED BY YEAR\1970s\Ultimate Seventies - The Classics\Ultimate Seventies - The Classics - CD5\05.England Dan & John Ford Coley - I'd Really Love To See You Tonight.wav

Peak level 100.0 %
Extraction speed 21.8 X
Track quality 99.8 %
Copy CRC 97CFEBAD
Accurately ripped (confidence 1) [6B29DFAC] (AR v2)
Copy OK

Track 6

Filename A:\PsPBuRnOuT's MUSIC\SORTED BY YEAR\1970s\Ultimate Seventies - The Classics\Ultimate Seventies - The Classics - CD5\06.Randy Vanwarmer - Just When I Needed You Most.wav

Peak level 99.9 %
Extraction speed 22.8 X
Track quality 100.0 %
Copy CRC FD710C72
Accurately ripped (confidence 2) [8758D7EC] (AR v2)
Copy OK

Track 7

Filename A:\PsPBuRnOuT's MUSIC\SORTED BY YEAR\1970s\Ultimate Seventies - The Classics\Ultimate Seventies - The Classics - CD5\07.Bread - The Guitar Man.wav

Peak level 78.5 %
Extraction speed 23.1 X
Track quality 100.0 %
Copy CRC 654C4ADD
Accurately ripped (confidence 1) [17DE4905] (AR v2)
Copy OK

Track 8

Filename A:\PsPBuRnOuT's MUSIC\SORTED BY YEAR\1970s\Ultimate Seventies - The Classics\Ultimate Seventies - The Classics - CD5\08.Crazy Horse - I Don't Want To Take About It.wav

Peak level 100.0 %
Extraction speed 23.9 X
Track quality 99.9 %
Copy CRC 8B6449C5
Accurately ripped (confidence 1) [07C91C97] (AR v2)
Copy OK

Track 9

Filename A:\PsPBuRnOuT's MUSIC\SORTED BY YEAR\1970s\Ultimate Seventies - The Classics\Ultimate Seventies - The Classics - CD5\09.Gram Parsons - She.wav

Peak level 100.0 %
Extraction speed 23.3 X
Track quality 99.9 %
Copy CRC B0D9D81B
Accurately ripped (confidence 1) [039725E9] (AR v2)
Copy OK

Track 10

Filename A:\PsPBuRnOuT's MUSIC\SORTED BY YEAR\1970s\Ultimate Seventies - The Classics\Ultimate Seventies - The Classics - CD5\10.Gene Clark - Silver Raven.wav

Peak level 100.0 %
Extraction speed 24.9 X
Track quality 100.0 %
Copy CRC B6C9170C
Accurately ripped (confidence 1) [BFEA1C7C] (AR v2)
Copy OK

Track 11

Filename A:\PsPBuRnOuT's MUSIC\SORTED BY YEAR\1970s\Ultimate Seventies - The Classics\Ultimate Seventies - The Classics - CD5\11.Linda Ronstadt - Blue Bayou.wav

Peak level 100.0 %
Extraction speed 26.0 X
Track quality 100.0 %
Copy CRC C47B4B22
Accurately ripped (confidence 1) [8A2BC292] (AR v2)
Copy OK

Track 12

Filename A:\PsPBuRnOuT's MUSIC\SORTED BY YEAR\1970s\Ultimate Seventies - The Classics\Ultimate Seventies - The Classics - CD5\12.Jimmy Webb - The Highwayman.wav

Peak level 87.0 %
Extraction speed 25.4 X
Track quality 100.0 %
Copy CRC 178E0D90
Accurately ripped (confidence 1) [C25D5764] (AR v2)
Copy OK

Track 13

Filename A:\PsPBuRnOuT's MUSIC\SORTED BY YEAR\1970s\Ultimate Seventies - The Classics\Ultimate Seventies - The Classics - CD5\13.Judee Sill - The Kiss.wav

Peak level 94.6 %
Extraction speed 24.3 X
Track quality 99.9 %
Copy CRC 85368254
Accurately ripped (confidence 1) [3A97BCF2] (AR v2)
Copy OK

Track 14

Filename A:\PsPBuRnOuT's MUSIC\SORTED BY YEAR\1970s\Ultimate Seventies - The Classics\Ultimate Seventies - The Classics - CD5\14.Judy Collins - Send In The Clowns.wav

Peak level 94.5 %
Extraction speed 27.9 X
Track quality 100.0 %
Copy CRC CFFE4C6C
Accurately ripped (confidence 2) [58EB0855] (AR v2)
Copy OK

Track 15

Filename A:\PsPBuRnOuT's MUSIC\SORTED BY YEAR\1970s\Ultimate Seventies - The Classics\Ultimate Seventies - The Classics - CD5\15.Rickie Lee Jones - Chuck E's In Love.wav

Peak level 99.8 %
Extraction speed 26.8 X
Track quality 100.0 %
Copy CRC A822678E
Accurately ripped (confidence 1) [CC3676BD] (AR v2)
Copy OK

Track 16

Filename A:\PsPBuRnOuT's MUSIC\SORTED BY YEAR\1970s\Ultimate Seventies - The Classics\Ultimate Seventies - The Classics - CD5\16.First Class - Beach Baby.wav

Peak level 87.1 %
Extraction speed 27.8 X
Track quality 100.0 %
Copy CRC EC8D5566
Accurately ripped (confidence 1) [EC8DF20B] (AR v2)
Copy OK

Track 17

Filename A:\PsPBuRnOuT's MUSIC\SORTED BY YEAR\1970s\Ultimate Seventies - The Classics\Ultimate Seventies - The Classics - CD5\17.Joe Walsh - Life's Been Good.wav

Peak level 88.1 %
Extraction speed 28.1 X
Track quality 100.0 %
Copy CRC 0EA6778E
Accurately ripped (confidence 1) [3A9C48EC] (AR v2)
Copy OK


All tracks accurately ripped

No errors occurred

End of status report

–– CUETools DB Plugin V2.1.6

[CTDB TOCID: ncTxyVDR5.YAY8RkNhnnbsbu5f0-] found
Submit result: ncTxyVDR5.YAY8RkNhnnbsbu5f0- has been confirmed
Track | CTDB Status
1 | (3/3) Accurately ripped
2 | (3/3) Accurately ripped
3 | (3/3) Accurately ripped
4 | (3/3) Accurately ripped
5 | (3/3) Accurately ripped
6 | (3/3) Accurately ripped
7 | (3/3) Accurately ripped
8 | (3/3) Accurately ripped
9 | (3/3) Accurately ripped
10 | (3/3) Accurately ripped
11 | (3/3) Accurately ripped
12 | (3/3) Accurately ripped
13 | (3/3) Accurately ripped
14 | (3/3) Accurately ripped
15 | (3/3) Accurately ripped
16 | (3/3) Accurately ripped
17 | (3/3) Accurately ripped