Tags
Language
Tags

VA - ABC Of The Blues: The Ultimate Collection From The Delta To The Big Cities (2010) {Vol. 29-32, 52CD Box Set} * RE-UP *

Posted By: popsakov
VA - ABC Of The Blues: The Ultimate Collection From The Delta To The Big Cities (2010) {Vol. 29-32, 52CD Box Set} * RE-UP *

VA - ABC Of The Blues: The Ultimate Collection From The Delta To The Big Cities (2010) {Vol. 29-32, 52CD Box Set}
4CD | EAC Rip | FLAC (Img) + Cue + Log ~ 922 Mb (203+228+211+278 Mb)
Scans Included (JPG, 300 dpi) | RAR 5% Recovery
Blues, R&B | Stereo/Mono | M.A.T. Music and Theme Licensing Ltd. #233168

This 52-disc (no, that is not a typo) comp, ABC of the Blues: The Ultimate Collection from the Delta to the Big Cities, may just indeed live up to its name. There are 98 artists represented , performing 1,040 tracks. The music begins at the beginning (though the set is not sequenced chronologically) with Charlie Patton, Son House, and Robert Johnson, and moves all the way through the vintage Chicago years of Muddy Waters and Howlin' Wolf, with stops along the way in Texas, Louisiana, Florida, Georgia, Mississippi, Tennessee, New York, and all points in between. Certainly, some of these artists are considered more rhythm & blues than purely blues artists: the inclusion of music by Johnny Otis, Wynonie Harris, Bo Diddley, and others makes that clear. That said, along with all the well-known acts are some startling – and wonderfully considered – selections by Magic Sam, Barbeque Bob, Professor Longhair, Jimmy Witherspoon, and many others. This is an exhaustive set that most aficionados will enjoy, even if they find choices to quibble with. Add to this its super budget price tag: it lists for $99.98 and sells for as little as $75.00 in various places on the internet. This is a steal, as well as a blues freak's dream come true.
~ Thom Jurek, All Music Guide
***************

VA - ABC Of The Blues: The Ultimate Collection From The Delta To The Big Cities (2010) {Vol. 29-32, 52CD Box Set} * RE-UP *

Track List CD29 - Memphis Minnie, Big Maybelle:

01. Memphis Minnie - Frisco Town [02:56]
02. Memphis Minnie - Moonshine [02:48]
03. Memphis Minnie - Nothing In Rambling [02:45]
04. Memphis Minnie - I'm Talking About You [02:43]
05. Memphis Minnie - Joe Louis Strut [02:53]
06. Memphis Minnie - Me And My Chauffeur Blues [02:47]
07. Memphis Minnie - My Baby Don't Want Me No More [02:54]
08. Memphis Minnie - Bumble Bee [03:19]
09. Memphis Minnie - Boy Friend Blues [02:48]
10. Memphis Minnie - In My Girlish Days [02:36]
11. Big Maybelle - Gabbin' Blues (Don't Run My Business) [02:42]
12. Big Maybelle - Rain Down Rain [03:06]
13. Big Maybelle - Way Back Home [02:46]
14. Big Maybelle - Please Stay Away From My Sam [02:35]
15. Big Maybelle - Jinny Mule [02:47]
16. Big Maybelle - I've Got A Feelin' [02:58]
17. Big Maybelle - One Monkey Don't Stop No Show [02:53]
18. Big Maybelle - Hair Dressin' Women [03:26]
19. Big Maybelle - Don't Leave Poor Me [02:38]
20. Big Maybelle - No More Trouble Out Of Me [03:27]

Exact Audio Copy V1.0 beta 3 from 29. August 2011

EAC extraction logfile from 5. April 2015, 8:01

Various / ABC Of The Blues CD29

Used drive : MATSHITABD-CMB UJ242AS Adapter: 0 ID: 1

Read mode : Secure
Utilize accurate stream : Yes
Defeat audio cache : Yes
Make use of C2 pointers : No

Read offset correction : 103
Overread into Lead-In and Lead-Out : No
Fill up missing offset samples with silence : Yes
Delete leading and trailing silent blocks : No
Null samples used in CRC calculations : Yes
Used interface : Installed external ASPI interface

Used output format : User Defined Encoder
Selected bitrate : 1024 kBit/s
Quality : High
Add ID3 tag : Yes
Command line compressor : C:\Program Files (x86)\Exact Audio Copy\Flac\flac.exe
Additional command line options : -V -8 -T "Date=%year%" -T "Genre=%genre%" %source%


TOC of the extracted CD

Track | Start | Length | Start sector | End sector
––––––––––––––––––––––––––––-
1 | 0:00.00 | 2:55.16 | 0 | 13140
2 | 2:55.16 | 2:47.74 | 13141 | 25739
3 | 5:43.15 | 2:44.31 | 25740 | 38070
4 | 8:27.46 | 2:42.48 | 38071 | 50268
5 | 11:10.19 | 2:52.23 | 50269 | 63191
6 | 14:02.42 | 2:46.27 | 63192 | 75668
7 | 16:48.69 | 2:53.10 | 75669 | 88653
8 | 19:42.04 | 3:18.32 | 88654 | 103535
9 | 23:00.36 | 2:47.73 | 103536 | 116133
10 | 25:48.34 | 2:35.62 | 116134 | 127820
11 | 28:24.21 | 2:41.10 | 127821 | 139905
12 | 31:05.31 | 3:05.25 | 139906 | 153805
13 | 34:10.56 | 2:45.63 | 153806 | 166243
14 | 36:56.44 | 2:34.51 | 166244 | 177844
15 | 39:31.20 | 2:46.15 | 177845 | 190309
16 | 42:17.35 | 2:57.65 | 190310 | 203649
17 | 45:15.25 | 2:52.66 | 203650 | 216615
18 | 48:08.16 | 3:25.50 | 216616 | 232040
19 | 51:33.66 | 2:37.23 | 232041 | 243838
20 | 54:11.14 | 3:26.10 | 243839 | 259298


Range status and errors

Selected range

Filename C:\EACrip\Various - ABC Of The Blues CD29.wav

Peak level 100.0 %
Extraction speed 4.4 X
Range quality 100.0 %
Test CRC B86D025C
Copy CRC B86D025C
Copy OK

No errors occurred


AccurateRip summary

Track 1 accurately ripped (confidence 11) [62BEA117] (AR v2)
Track 2 accurately ripped (confidence 11) [8868D467] (AR v2)
Track 3 accurately ripped (confidence 11) [8ADDB386] (AR v2)
Track 4 accurately ripped (confidence 11) [1774374C] (AR v2)
Track 5 accurately ripped (confidence 11) [78B1C6E7] (AR v2)
Track 6 accurately ripped (confidence 11) [0CEAA13F] (AR v2)
Track 7 accurately ripped (confidence 11) [9EE59FF7] (AR v2)
Track 8 accurately ripped (confidence 11) [563267D5] (AR v2)
Track 9 accurately ripped (confidence 11) [72FBC64E] (AR v2)
Track 10 accurately ripped (confidence 11) [E4901012] (AR v2)
Track 11 accurately ripped (confidence 11) [D7764D1B] (AR v2)
Track 12 accurately ripped (confidence 11) [FA9D97A1] (AR v2)
Track 13 accurately ripped (confidence 11) [29879693] (AR v2)
Track 14 accurately ripped (confidence 11) [56ABACFD] (AR v2)
Track 15 accurately ripped (confidence 11) [461299E8] (AR v2)
Track 16 accurately ripped (confidence 11) [B5878140] (AR v2)
Track 17 accurately ripped (confidence 11) [88DD5AA0] (AR v2)
Track 18 accurately ripped (confidence 11) [1155314C] (AR v2)
Track 19 accurately ripped (confidence 11) [B70F7971] (AR v2)
Track 20 accurately ripped (confidence 11) [95CF19F3] (AR v2)

All tracks accurately ripped

End of status report

==== Log checksum 59243DE58DCC36C1EB7D42E9B5EA5DE3921BE89F9BA90E9AC35749003A0BC6FC ====

foobar2000 1.2.6 / Dynamic Range Meter 1.1.1
log date: 2015-05-01 00:11:56

––––––––––––––––––––––––––––––––––––––––
Analyzed: Big Maybelle / ABC Of The Blues CD29
––––––––––––––––––––––––––––––––––––––––

DR Peak RMS Duration Track
––––––––––––––––––––––––––––––––––––––––
DR9 0.00 dB -11.66 dB 2:41 11-Gabbin' Blues (Don't Run My Business)
DR11 0.00 dB -13.17 dB 3:05 12-Rain Down Rain
DR12 0.00 dB -13.68 dB 2:46 13-Way Back Home
DR11 0.00 dB -13.31 dB 2:35 14-Please Stay Away From My Sam
DR11 0.00 dB -13.27 dB 2:46 15-Jinny Mule
DR11 0.00 dB -12.34 dB 2:58 16-I've Got A Feelin'
DR9 0.00 dB -9.97 dB 2:53 17-One Monkey Don't Stop No Show
DR12 0.00 dB -15.13 dB 3:26 18-Hair Dressin' Women
DR9 0.00 dB -10.54 dB 2:37 19-Don't Leave Poor Me
DR11 0.00 dB -13.13 dB 3:26 20-No More Trouble Out Of Me
––––––––––––––––––––––––––––––––––––––––

Number of tracks: 10
Official DR value: DR11

Samplerate: 44100 Hz
Channels: 2
Bits per sample: 16
Bitrate: 464 kbps
Codec: FLAC
================================================================================

––––––––––––––––––––––––––––––––––––––––
Analyzed: Memphis Minnie / ABC Of The Blues CD29
––––––––––––––––––––––––––––––––––––––––

DR Peak RMS Duration Track
––––––––––––––––––––––––––––––––––––––––
DR11 -0.32 dB -13.72 dB 2:55 01-Frisco Town
DR11 0.00 dB -13.18 dB 2:48 02-Moonshine
DR11 -0.25 dB -14.09 dB 2:44 03-Nothing In Rambling
DR12 -0.83 dB -16.85 dB 2:43 04-I'm Talking About You
DR13 -0.12 dB -15.18 dB 2:52 05-Joe Louis Strut
DR13 -1.63 dB -17.51 dB 2:46 06-Me And My Chauffeur Blues
DR12 -1.50 dB -15.93 dB 2:53 07-My Baby Don't Want Me No More
DR13 -3.30 dB -18.95 dB 3:18 08-Bumble Bee
DR12 -0.36 dB -15.26 dB 2:48 09-Boy Friend Blues
DR13 -0.25 dB -16.44 dB 2:36 10-In My Girlish Days
––––––––––––––––––––––––––––––––––––––––

Number of tracks: 10
Official DR value: DR12

Samplerate: 44100 Hz
Channels: 2
Bits per sample: 16
Bitrate: 464 kbps
Codec: FLAC
================================================================================

[CUETools log; Date: 01.05.2015 0:09:01; Version: 2.1.5]
[CTDB TOCID: fREidG6jnislTUOQoEE0QU5Uji0-] found.
Track | CTDB Status
1 | (15/15) Accurately ripped
2 | (15/15) Accurately ripped
3 | (15/15) Accurately ripped
4 | (15/15) Accurately ripped
5 | (15/15) Accurately ripped
6 | (15/15) Accurately ripped
7 | (15/15) Accurately ripped
8 | (15/15) Accurately ripped
9 | (15/15) Accurately ripped
10 | (15/15) Accurately ripped
11 | (15/15) Accurately ripped
12 | (15/15) Accurately ripped
13 | (15/15) Accurately ripped
14 | (15/15) Accurately ripped
15 | (15/15) Accurately ripped
16 | (15/15) Accurately ripped
17 | (15/15) Accurately ripped
18 | (15/15) Accurately ripped
19 | (15/15) Accurately ripped
20 | (15/15) Accurately ripped
[AccurateRip ID: 0028fb57-0259ba13-120d8114] found.
Track [ CRC | V2 ] Status
01 [e8d33720|62bea117] (00+11/23) Accurately ripped
02 [0f51c251|8868d467] (00+11/23) Accurately ripped
03 [0a4e0bbf|8addb386] (00+11/23) Accurately ripped
04 [a3d96101|1774374c] (00+11/23) Accurately ripped
05 [fdec0719|78b1c6e7] (00+11/23) Accurately ripped
06 [0cef52da|0ceaa13f] (00+11/24) Accurately ripped
07 [b0711fee|9ee59ff7] (00+11/23) Accurately ripped
08 [83ff14c0|563267d5] (00+11/23) Accurately ripped
09 [df5acd3c|72fbc64e] (00+11/23) Accurately ripped
10 [2b1118a8|e4901012] (00+11/23) Accurately ripped
11 [98eb77f1|d7764d1b] (00+11/23) Accurately ripped
12 [ff02de01|fa9d97a1] (00+11/23) Accurately ripped
13 [e6324336|29879693] (00+11/23) Accurately ripped
14 [897b017d|56abacfd] (00+11/23) Accurately ripped
15 [7cb23062|461299e8] (00+11/23) Accurately ripped
16 [cc5a0304|b5878140] (00+11/23) Accurately ripped
17 [93071efb|88dd5aa0] (00+11/24) Accurately ripped
18 [e5658505|1155314c] (00+11/23) Accurately ripped
19 [946ac21c|b70f7971] (00+11/23) Accurately ripped
20 [7f65a8c1|95cf19f3] (00+11/23) Accurately ripped
Offsetted by 628:
01 [a84c0112] (02/23) Accurately ripped
02 [2bd52b7d] (02/23) Accurately ripped
03 [97a5ba0b] (02/23) Accurately ripped
04 [557ea249] (02/23) Accurately ripped
05 [81c87281] (02/23) Accurately ripped
06 [b36221da] (02/24) Accurately ripped
07 [0ff34d1a] (02/23) Accurately ripped
08 [d7612164] (02/23) Accurately ripped
09 [9f72abf0] (02/23) Accurately ripped
10 [dfa3ad5c] (02/23) Accurately ripped
11 [ea7c8581] (02/23) Accurately ripped
12 [ba2e0621] (02/23) Accurately ripped
13 [ee7599aa] (02/23) Accurately ripped
14 [770f64c9] (02/23) Accurately ripped
15 [9daa4f92] (02/23) Accurately ripped
16 [1670391c] (02/23) Accurately ripped
17 [dccc3063] (02/24) Accurately ripped
18 [e819792d] (02/23) Accurately ripped
19 [007eb67c] (02/23) Accurately ripped
20 [caa27961] (02/23) Accurately ripped
Offsetted by 664:
01 [1b6d72f7] (03/23) Accurately ripped
02 [4e142479] (03/23) Accurately ripped
03 [4c972fa7] (03/23) Accurately ripped
04 [957cb171] (03/23) Accurately ripped
05 [bd852f49] (03/23) Accurately ripped
06 [57d454da] (03/24) Accurately ripped
07 [13cb7a16] (03/23) Accurately ripped
08 [3dfe64f8] (03/23) Accurately ripped
09 [fd9e6f54] (03/23) Accurately ripped
10 [17a58ec0] (03/23) Accurately ripped
11 [cb4a22d1] (03/23) Accurately ripped
12 [7d29f9c1] (03/23) Accurately ripped
13 [0aa71dce] (03/23) Accurately ripped
14 [969d9b65] (03/23) Accurately ripped
15 [667c3402] (03/23) Accurately ripped
16 [e9c4a7d4] (03/23) Accurately ripped
17 [461f3b2b] (03/24) Accurately ripped
18 [e84123b5] (03/23) Accurately ripped
19 [155d9d5c] (03/23) Accurately ripped
20 [69da2381] (03/23) Accurately ripped

Track Peak [ CRC32 ] [W/O NULL] [ LOG ]
– 100,0 [B86D025C] [8907335C] CRC32
01 96,3 [67F51897] [6B96EEF3]
02 99,9 [05A77378] [FCDA34A5]
03 97,1 [E1941491] [6CFE70FA]
04 90,8 [225C1048] [C2FE762F]
05 98,5 [FA64B577] [FE7135E4]
06 82,9 [4738B415] [1460C96C]
07 84,1 [CCB59D95] [899BA38F]
08 68,4 [037B9C10] [4501E58C]
09 95,9 [18E9EA22] [DA3F381E]
10 97,1 [88CC3496] [4E220D2B]
11 99,9 [A384A1E8] [C4E7F8D5]
12 100,0 [9F7F2D36] [ED3D665C]
13 100,0 [1453F4BE] [6ED45756]
14 99,9 [7F166B8C] [B0986EA0]
15 99,9 [C39A4451] [5837A15F]
16 100,0 [8AE82B26] [9E740D01]
17 99,9 [C98F9FDA] [362AD506]
18 100,0 [8A01EC7A] [7E042018]
19 100,0 [EBACC3FE] [9879E998]
20 99,9 [7875A5B8] [B10098EE]

VA - ABC Of The Blues: The Ultimate Collection From The Delta To The Big Cities (2010) {Vol. 29-32, 52CD Box Set} * RE-UP *

Track List CD30 - Roy Milton, Amos Milburn:

01. Roy Milton - Cryin' And Singin' The Blues [02:35]
02. Roy Milton - I Want A Little Girl [02:47]
03. Roy Milton - My Blue Heaven [02:32]
04. Roy Milton - 'Taint Me [02:35]
05. Roy Milton - Groovy Blues [02:38]
06. Roy Milton - Waking Up Blues [02:37]
07. Roy Milton - Sympathetic Blues [02:45]
08. Roy Milton - Playboy Blues [02:35]
09. Roy Milton - Rhythm Cocktail [02:24]
10. Roy Milton - Bye Bye Blues [03:03]
11. Amos Milburn - Chicken shack boogie [02:30]
12. Amos Milburn - I'm Still A Fool For You [02:23]
13. Amos Milburn - All Is Well [02:33]
14. Amos Milburn - My Happiness Depends On You [02:10]
15. Amos Milburn - I Know You Love Me [03:00]
16. Amos Milburn - One Scotch, One Bourbon, One Beer [02:53]
17. Amos Milburn - Bad Bad Whiskey [02:56]
18. Amos Milburn - Let's Have A Party [02:32]
19. Amos Milburn - Down The Road Apiece [02:57]
20. Amos Milburn - Trouble In Mind [02:34]

Exact Audio Copy V1.0 beta 3 from 29. August 2011

EAC extraction logfile from 5. April 2015, 8:07

Various / ABC Of The Blues CD30

Used drive : PLEXTOR DVDR PX-860A Adapter: 4 ID: 0

Read mode : Secure
Utilize accurate stream : Yes
Defeat audio cache : Yes
Make use of C2 pointers : No

Read offset correction : 96
Overread into Lead-In and Lead-Out : No
Fill up missing offset samples with silence : Yes
Delete leading and trailing silent blocks : No
Null samples used in CRC calculations : Yes
Used interface : Installed external ASPI interface

Used output format : User Defined Encoder
Selected bitrate : 128 kBit/s
Quality : High
Add ID3 tag : Yes
Command line compressor : G:\Program Files (x86)\Exact Audio Copy\Flac\flac.exe
Additional command line options : -V -8 -T "Date=%year%" -T "Genre=%genre%" %source%


TOC of the extracted CD

Track | Start | Length | Start sector | End sector
––––––––––––––––––––––––––––-
1 | 0:00.00 | 2:34.64 | 0 | 11613
2 | 2:34.64 | 2:46.62 | 11614 | 24125
3 | 5:21.51 | 2:31.18 | 24126 | 35468
4 | 7:52.69 | 2:34.25 | 35469 | 47043
5 | 10:27.19 | 2:37.74 | 47044 | 58892
6 | 13:05.18 | 2:36.37 | 58893 | 70629
7 | 15:41.55 | 2:44.24 | 70630 | 82953
8 | 18:26.04 | 2:34.74 | 82954 | 94577
9 | 21:01.03 | 2:23.49 | 94578 | 105351
10 | 23:24.52 | 3:02.62 | 105352 | 119063
11 | 26:27.39 | 2:29.05 | 119064 | 130243
12 | 28:56.44 | 2:22.72 | 130244 | 140965
13 | 31:19.41 | 2:32.27 | 140966 | 152392
14 | 33:51.68 | 2:09.24 | 152393 | 162091
15 | 36:01.17 | 2:59.61 | 162092 | 175577
16 | 39:01.03 | 2:52.41 | 175578 | 188518
17 | 41:53.44 | 2:55.42 | 188519 | 201685
18 | 44:49.11 | 2:31.47 | 201686 | 213057
19 | 47:20.58 | 2:56.22 | 213058 | 226279
20 | 50:17.05 | 2:33.26 | 226280 | 237780


Range status and errors

Selected range

Filename D:\MUSIC\Various - ABC Of The Blues CD30.wav

Peak level 100.0 %
Extraction speed 7.5 X
Range quality 100.0 %
Test CRC BAC4335D
Copy CRC BAC4335D
Copy OK

No errors occurred


AccurateRip summary

Track 1 accurately ripped (confidence 11) [A3FBE701] (AR v2)
Track 2 accurately ripped (confidence 11) [708FA4FE] (AR v2)
Track 3 accurately ripped (confidence 11) [BA1E1723] (AR v2)
Track 4 accurately ripped (confidence 11) [B9DFD1D7] (AR v2)
Track 5 accurately ripped (confidence 11) [55001FDC] (AR v2)
Track 6 accurately ripped (confidence 11) [0E444209] (AR v2)
Track 7 accurately ripped (confidence 11) [D85EA13A] (AR v2)
Track 8 accurately ripped (confidence 11) [E2EDC0E8] (AR v2)
Track 9 accurately ripped (confidence 11) [1DBF6FEC] (AR v2)
Track 10 accurately ripped (confidence 11) [74C490AE] (AR v2)
Track 11 accurately ripped (confidence 11) [6D691495] (AR v2)
Track 12 accurately ripped (confidence 11) [621F9C04] (AR v2)
Track 13 accurately ripped (confidence 11) [A18678AF] (AR v2)
Track 14 accurately ripped (confidence 11) [ECBC14B1] (AR v2)
Track 15 accurately ripped (confidence 11) [5C18A64F] (AR v2)
Track 16 accurately ripped (confidence 11) [3FA69DBC] (AR v2)
Track 17 accurately ripped (confidence 11) [167E4012] (AR v2)
Track 18 accurately ripped (confidence 11) [5E925B35] (AR v2)
Track 19 accurately ripped (confidence 11) [B8C12050] (AR v2)
Track 20 accurately ripped (confidence 11) [4CF4F0E7] (AR v2)

All tracks accurately ripped

End of status report

==== Log checksum 2EFCC3528903711E3E9D6F93DE4A68371313D1167CA3E6CF355402E8AC34A27D ====

foobar2000 1.2.6 / Dynamic Range Meter 1.1.1
log date: 2015-05-01 00:11:32

––––––––––––––––––––––––––––––––––––––––
Analyzed: Amos Milburn / ABC Of The Blues CD30
––––––––––––––––––––––––––––––––––––––––

DR Peak RMS Duration Track
––––––––––––––––––––––––––––––––––––––––
DR12 0.00 dB -13.73 dB 2:29 11-Chicken shack boogie
DR12 0.00 dB -13.22 dB 2:23 12-I'm Still A Fool For You
DR13 0.00 dB -15.51 dB 2:32 13-All Is Well
DR13 0.00 dB -14.08 dB 2:09 14-My Happiness Depends On You
DR12 0.00 dB -13.85 dB 3:00 15-I Know You Love Me
DR14 0.00 dB -15.37 dB 2:53 16-One Scotch, One Bourbon, One Beer
DR13 0.00 dB -15.48 dB 2:56 17-Bad Bad Whiskey
DR12 0.00 dB -13.59 dB 2:32 18-Let's Have A Party
DR10 0.00 dB -12.53 dB 2:56 19-Down The Road Apiece
DR13 0.00 dB -16.41 dB 2:33 20-Trouble In Mind
––––––––––––––––––––––––––––––––––––––––

Number of tracks: 10
Official DR value: DR12

Samplerate: 44100 Hz
Channels: 2
Bits per sample: 16
Bitrate: 569 kbps
Codec: FLAC
================================================================================

––––––––––––––––––––––––––––––––––––––––
Analyzed: Roy Milton / ABC Of The Blues CD30
––––––––––––––––––––––––––––––––––––––––

DR Peak RMS Duration Track
––––––––––––––––––––––––––––––––––––––––
DR12 0.00 dB -14.15 dB 2:35 01-Cryin' And Singin' The Blues
DR12 0.00 dB -14.28 dB 2:47 02-I Want A Little Girl
DR13 0.00 dB -16.49 dB 2:31 03-My Blue Heaven
DR11 0.00 dB -13.41 dB 2:34 04-'Taint Me
DR10 0.00 dB -12.29 dB 2:38 05-Groovy Blues
DR9 0.00 dB -11.36 dB 2:36 06-Waking Up Blues
DR11 0.00 dB -13.54 dB 2:44 07-Sympathetic Blues
DR10 0.00 dB -12.56 dB 2:35 08-Playboy Blues
DR12 0.00 dB -14.64 dB 2:24 09-Rhythm Cocktail
DR13 0.00 dB -15.19 dB 3:03 10-Bye Bye Blues
––––––––––––––––––––––––––––––––––––––––

Number of tracks: 10
Official DR value: DR11

Samplerate: 44100 Hz
Channels: 2
Bits per sample: 16
Bitrate: 569 kbps
Codec: FLAC
================================================================================

[CUETools log; Date: 01.05.2015 0:09:22; Version: 2.1.5]
[CTDB TOCID: syt7b.O4lIkpq0l0Rmu8iOgANF8-] found.
Track | CTDB Status
1 | (16/16) Accurately ripped
2 | (16/16) Accurately ripped
3 | (16/16) Accurately ripped
4 | (16/16) Accurately ripped
5 | (16/16) Accurately ripped
6 | (16/16) Accurately ripped
7 | (16/16) Accurately ripped
8 | (16/16) Accurately ripped
9 | (16/16) Accurately ripped
10 | (16/16) Accurately ripped
11 | (16/16) Accurately ripped
12 | (16/16) Accurately ripped
13 | (16/16) Accurately ripped
14 | (16/16) Accurately ripped
15 | (16/16) Accurately ripped
16 | (16/16) Accurately ripped
17 | (16/16) Accurately ripped
18 | (16/16) Accurately ripped
19 | (16/16) Accurately ripped
20 | (16/16) Accurately ripped
[AccurateRip ID: 0025d0f1-022af7f3-160c6214] found.
Track [ CRC | V2 ] Status
01 [a0c1e582|a3fbe701] (00+11/23) Accurately ripped
02 [856585e7|708fa4fe] (00+11/23) Accurately ripped
03 [bedd4850|ba1e1723] (00+11/23) Accurately ripped
04 [90bc1d91|b9dfd1d7] (00+11/23) Accurately ripped
05 [62d3c416|55001fdc] (00+11/23) Accurately ripped
06 [efbda25d|0e444209] (00+11/23) Accurately ripped
07 [ebc030b7|d85ea13a] (00+11/23) Accurately ripped
08 [f9c768be|e2edc0e8] (00+11/23) Accurately ripped
09 [cd84e1bc|1dbf6fec] (00+11/23) Accurately ripped
10 [f98c5a81|74c490ae] (00+11/23) Accurately ripped
11 [9de2f65a|6d691495] (00+11/23) Accurately ripped
12 [1a51a30b|621f9c04] (00+11/23) Accurately ripped
13 [dd90d7ad|a18678af] (00+11/23) Accurately ripped
14 [55eb76d5|ecbc14b1] (00+11/23) Accurately ripped
15 [c72b0bab|5c18a64f] (00+11/23) Accurately ripped
16 [b4b07470|3fa69dbc] (00+11/23) Accurately ripped
17 [23c62d71|167e4012] (00+11/23) Accurately ripped
18 [bdb7332c|5e925b35] (00+11/23) Accurately ripped
19 [73bb521e|b8c12050] (00+11/23) Accurately ripped
20 [ceaa2b62|4cf4f0e7] (00+11/23) Accurately ripped
Offsetted by 628:
01 [ab974fa6] (02/23) Accurately ripped
02 [e2cb51bf] (02/23) Accurately ripped
03 [8fc9aab2] (02/23) Accurately ripped
04 [a5a0528e] (02/23) Accurately ripped
05 [780176a5] (02/23) Accurately ripped
06 [61c548ff] (02/23) Accurately ripped
07 [31ba668f] (02/23) Accurately ripped
08 [2b44d6a9] (02/23) Accurately ripped
09 [cd666b04] (02/23) Accurately ripped
10 [c8403930] (02/23) Accurately ripped
11 [7962a316] (02/23) Accurately ripped
12 [7634fe1f] (02/23) Accurately ripped
13 [1237a205] (02/23) Accurately ripped
14 [84bf56f5] (02/23) Accurately ripped
15 [7aaefd6b] (02/23) Accurately ripped
16 [9be8405c] (02/23) Accurately ripped
17 [1fca5fed] (02/23) Accurately ripped
18 [e8b4e484] (02/23) Accurately ripped
19 [d8035966] (02/23) Accurately ripped
20 [4e628c9c] (02/23) Accurately ripped
Offsetted by 664:
01 [921eda54] (03/23) Accurately ripped
02 [4d3e673d] (03/23) Accurately ripped
03 [a0a7bf9c] (03/23) Accurately ripped
04 [f1d66a2e] (03/23) Accurately ripped
05 [c0f6f5f5] (03/23) Accurately ripped
06 [80c44689] (03/23) Accurately ripped
07 [d5c79b63] (03/23) Accurately ripped
08 [a5d4ccb7] (03/23) Accurately ripped
09 [f2aa7bc6] (03/23) Accurately ripped
10 [c229c0de] (03/23) Accurately ripped
11 [6f23d762] (03/23) Accurately ripped
12 [63041063] (03/23) Accurately ripped
13 [ca3aabfd] (03/23) Accurately ripped
14 [f4ae2295] (03/23) Accurately ripped
15 [b927102b] (03/23) Accurately ripped
16 [e23b5918] (03/23) Accurately ripped
17 [dcb56af9] (03/23) Accurately ripped
18 [37ced97c] (03/23) Accurately ripped
19 [a995568e] (03/23) Accurately ripped
20 [a4cc3e50] (03/23) Accurately ripped

Track Peak [ CRC32 ] [W/O NULL] [ LOG ]
– 100,0 [BAC4335D] [C2F288F4] CRC32
01 99,9 [629ABF81] [429F4AC3]
02 99,9 [382B587B] [1726676F]
03 99,9 [18C06E8A] [7B40B4B1]
04 99,9 [36C58B7C] [11AE2FD3]
05 99,9 [02632B0D] [B02A91AB]
06 99,9 [7D28C05A] [EC84A9B6]
07 99,9 [9981DD2C] [7FD705D2]
08 100,0 [0254FBD7] [85BB9A58]
09 99,9 [EDB8316A] [10D7BAAB]
10 100,0 [A68BDF9B] [68520895]
11 100,0 [6D17FC8D] [DBA52CAC]
12 99,9 [4627A75A] [93D15451]
13 100,0 [3992D915] [76102A7A]
14 100,0 [34CF266C] [67F7031C]
15 100,0 [FAC68F06] [284A68BD]
16 100,0 [54EAFF5F] [DBE09D66]

VA - ABC Of The Blues: The Ultimate Collection From The Delta To The Big Cities (2010) {Vol. 29-32, 52CD Box Set} * RE-UP *

Track List CD31 - Big Maceo, Blind Willie McTell:

01. Big Maceo - Worried Life Blues [02:57]
02. Big Maceo - County Jail Blues [02:57]
03. Big Maceo - Can't You Read [03:13]
04. Big Maceo - Tuff Luck Blues [03:04]
05. Big Maceo - It's All Up To You [03:11]
06. Big Maceo - Poor Kelly Blues [03:20]
07. Big Maceo - My Last Go Round [03:04]
08. Big Maceo - I Got The Blues [02:52]
09. Big Maceo - Ramblin' Mind Blues [03:12]
10. Big Maceo - Why Should I Hang Around [03:14]
11. Blind Willie McTell - Georgia Rag [03:05]
12. Blind Willie McTell - Rough Alley Blues [03:18]
13. Blind Willie McTell - Low Rider's Blues [03:17]
14. Blind Willie McTell - Painful Blues [02:54]
15. Blind Willie McTell - Experience Blues [03:13]
16. Blind Willie McTell - Low Down Blues [03:14]
17. Blind Willie McTell - Lonesome Day Blues [03:14]
18. Blind Willie McTell - Mama, Let Me Scoop For You [03:10]
19. Blind Willie McTell - Rollin' Mama Blues [03:05]
20. Blind Willie McTell - Searching The Desert For The Blues [03:08]

Exact Audio Copy V1.0 beta 3 from 29. August 2011

EAC extraction logfile from 5. April 2015, 8:13

Various / ABC Of The Blues CD31

Used drive : PLEXTOR BD-R PX-B940SA Adapter: 5 ID: 0

Read mode : Secure
Utilize accurate stream : Yes
Defeat audio cache : Yes
Make use of C2 pointers : No

Read offset correction : 667
Overread into Lead-In and Lead-Out : No
Fill up missing offset samples with silence : Yes
Delete leading and trailing silent blocks : No
Null samples used in CRC calculations : Yes
Used interface : Installed external ASPI interface

Used output format : User Defined Encoder
Selected bitrate : 128 kBit/s
Quality : High
Add ID3 tag : Yes
Command line compressor : G:\Program Files (x86)\Exact Audio Copy\Flac\flac.exe
Additional command line options : -V -8 -T "Date=%year%" -T "Genre=%genre%" %source%


TOC of the extracted CD

Track | Start | Length | Start sector | End sector
––––––––––––––––––––––––––––-
1 | 0:00.00 | 2:56.59 | 0 | 13258
2 | 2:56.59 | 2:56.22 | 13259 | 26480
3 | 5:53.06 | 3:12.10 | 26481 | 40890
4 | 9:05.16 | 3:03.23 | 40891 | 54638
5 | 12:08.39 | 3:10.12 | 54639 | 68900
6 | 15:18.51 | 3:19.32 | 68901 | 83857
7 | 18:38.08 | 3:03.40 | 83858 | 97622
8 | 21:41.48 | 2:51.70 | 97623 | 110517
9 | 24:33.43 | 3:11.54 | 110518 | 124896
10 | 27:45.22 | 3:13.09 | 124897 | 139380
11 | 30:58.31 | 3:04.68 | 139381 | 153248
12 | 34:03.24 | 3:17.18 | 153249 | 168041
13 | 37:20.42 | 3:16.19 | 168042 | 182760
14 | 40:36.61 | 2:53.50 | 182761 | 195785
15 | 43:30.36 | 3:12.23 | 195786 | 210208
16 | 46:42.59 | 3:13.06 | 210209 | 224689
17 | 49:55.65 | 3:13.60 | 224690 | 239224
18 | 53:09.50 | 3:09.01 | 239225 | 253400
19 | 56:18.51 | 3:04.71 | 253401 | 267271
20 | 59:23.47 | 3:07.70 | 267272 | 281366


Range status and errors

Selected range

Filename D:\MUSIC\Various - ABC Of The Blues CD31.wav

Peak level 100.0 %
Extraction speed 4.8 X
Range quality 100.0 %
Test CRC 99C7E1B8
Copy CRC 99C7E1B8
Copy OK

No errors occurred


AccurateRip summary

Track 1 accurately ripped (confidence 15) [F940AF99] (AR v2)
Track 2 accurately ripped (confidence 15) [44C9AAE5] (AR v2)
Track 3 accurately ripped (confidence 15) [5DCFB1C3] (AR v2)
Track 4 accurately ripped (confidence 15) [FF026AED] (AR v2)
Track 5 accurately ripped (confidence 15) [468A8322] (AR v2)
Track 6 accurately ripped (confidence 15) [E49BCE11] (AR v2)
Track 7 accurately ripped (confidence 15) [EAA73DF0] (AR v2)
Track 8 accurately ripped (confidence 15) [00571F17] (AR v2)
Track 9 accurately ripped (confidence 15) [840473F4] (AR v2)
Track 10 accurately ripped (confidence 15) [BCECD18F] (AR v2)
Track 11 accurately ripped (confidence 15) [959E5BDD] (AR v2)
Track 12 accurately ripped (confidence 15) [1B05000F] (AR v2)
Track 13 accurately ripped (confidence 15) [E11E6A14] (AR v2)
Track 14 accurately ripped (confidence 15) [0A94B5E1] (AR v2)
Track 15 accurately ripped (confidence 15) [C4A3C6B2] (AR v2)
Track 16 accurately ripped (confidence 15) [55C583BC] (AR v2)
Track 17 accurately ripped (confidence 15) [8C4E5770] (AR v2)
Track 18 accurately ripped (confidence 15) [0872A8EE] (AR v2)
Track 19 accurately ripped (confidence 15) [5FDD6535] (AR v2)
Track 20 accurately ripped (confidence 15) [2BF0DA54] (AR v2)

All tracks accurately ripped

End of status report

==== Log checksum B51B8B5D41988C9BFE13A440C56F3589D7529CDD4FADF6F62369E108CE57A741 ====

foobar2000 1.2.6 / Dynamic Range Meter 1.1.1
log date: 2015-05-01 00:11:13

––––––––––––––––––––––––––––––––––––––––
Analyzed: Big Maceo / ABC Of The Blues CD31 (1-10)
Blind Willie McTell / ABC Of The Blues CD31 (11-20)
––––––––––––––––––––––––––––––––––––––––

DR Peak RMS Duration Track
––––––––––––––––––––––––––––––––––––––––
DR12 0.00 dB -14.86 dB 2:57 01-Worried Life Blues
DR12 0.00 dB -14.37 dB 2:56 02-County Jail Blues
DR14 0.00 dB -15.02 dB 3:12 03-Can't You Read
DR11 0.00 dB -12.66 dB 3:03 04-Tuff Luck Blues
DR11 0.00 dB -15.12 dB 3:10 05-It's All Up To You
DR11 0.00 dB -12.97 dB 3:19 06-Poor Kelly Blues
DR14 0.00 dB -16.04 dB 3:04 07-My Last Go Round
DR12 0.00 dB -14.39 dB 2:52 08-I Got The Blues
DR13 0.00 dB -14.98 dB 3:12 09-Ramblin' Mind Blues
DR11 0.00 dB -14.40 dB 3:13 10-Why Should I Hang Around
DR13 0.00 dB -15.49 dB 3:05 11-Georgia Rag
DR10 -1.22 dB -14.97 dB 3:17 12-Rough Alley Blues
DR13 -0.23 dB -16.48 dB 3:16 13-Low Rider's Blues
DR12 0.00 dB -15.56 dB 2:54 14-Painful Blues
DR11 -2.11 dB -17.10 dB 3:12 15-Experience Blues
DR13 0.00 dB -16.77 dB 3:13 16-Low Down Blues
DR13 -1.78 dB -16.75 dB 3:14 17-Lonesome Day Blues
DR12 -0.96 dB -15.67 dB 3:09 18-Mama, Let Me Scoop For You
DR11 -3.24 dB -16.45 dB 3:05 19-Rollin' Mama Blues
DR13 -0.91 dB -15.88 dB 3:08 20-Searching The Desert For The Blues
––––––––––––––––––––––––––––––––––––––––

Number of tracks: 20
Official DR value: DR12

Samplerate: 44100 Hz
Channels: 2
Bits per sample: 16
Bitrate: 443 kbps
Codec: FLAC
================================================================================

[CUETools log; Date: 01.05.2015 0:09:53; Version: 2.1.5]
[CTDB TOCID: GiuEEKM3fr3SK2SCypEv3EYE3gY-] found.
Track | CTDB Status
1 | (15/15) Accurately ripped
2 | (15/15) Accurately ripped
3 | (15/15) Accurately ripped
4 | (15/15) Accurately ripped
5 | (15/15) Accurately ripped
6 | (15/15) Accurately ripped
7 | (15/15) Accurately ripped
8 | (15/15) Accurately ripped
9 | (15/15) Accurately ripped
10 | (15/15) Accurately ripped
11 | (15/15) Accurately ripped
12 | (15/15) Accurately ripped
13 | (15/15) Accurately ripped
14 | (15/15) Accurately ripped
15 | (15/15) Accurately ripped
16 | (15/15) Accurately ripped
17 | (15/15) Accurately ripped
18 | (15/15) Accurately ripped
19 | (15/15) Accurately ripped
20 | (15/15) Accurately ripped
[AccurateRip ID: 002cce82-0292d750-0d0ea714] found.
Track [ CRC | V2 ] Status
01 [35b27352|f940af99] (02+15/23) Accurately ripped
02 [1cf7cd36|44c9aae5] (02+15/23) Accurately ripped
03 [1fd3b5c8|5dcfb1c3] (02+15/23) Accurately ripped
04 [c6ccfb5f|ff026aed] (02+15/23) Accurately ripped
05 [5b1e6b73|468a8322] (02+15/23) Accurately ripped
06 [ef5f4fab|e49bce11] (02+15/23) Accurately ripped
07 [ff5f58b0|eaa73df0] (02+15/23) Accurately ripped
08 [594e619c|00571f17] (02+15/23) Accurately ripped
09 [3b9edf3a|840473f4] (02+15/23) Accurately ripped
10 [7b7eb235|bcecd18f] (02+15/23) Accurately ripped
11 [6cfab367|959e5bdd] (02+15/23) Accurately ripped
12 [2f4a4081|1b05000f] (02+15/23) Accurately ripped
13 [b9e2ee4c|e11e6a14] (02+15/23) Accurately ripped
14 [07c000eb|0a94b5e1] (02+15/23) Accurately ripped
15 [2ca6d0f6|c4a3c6b2] (02+15/23) Accurately ripped
16 [e89c5128|55c583bc] (02+15/23) Accurately ripped
17 [102f590a|8c4e5770] (02+15/23) Accurately ripped
18 [df43f3f1|0872a8ee] (02+15/23) Accurately ripped
19 [bc974bce|5fdd6535] (02+15/23) Accurately ripped
20 [644b8a43|2bf0da54] (02+15/23) Accurately ripped
Offsetted by 664:
01 [9060cada] (03/23) Accurately ripped
02 [e45ae6e6] (03/23) Accurately ripped
03 [1a97edf8] (03/23) Accurately ripped
04 [21635b2f] (03/23) Accurately ripped
05 [1be6bb3b] (03/23) Accurately ripped
06 [69a6a2a3] (03/23) Accurately ripped
07 [4464bc10] (03/23) Accurately ripped
08 [65f99c14] (03/23) Accurately ripped
09 [4fe76b42] (03/23) Accurately ripped
10 [a49fb1dd] (03/23) Accurately ripped
11 [9ffc051f] (03/23) Accurately ripped
12 [48ea7769] (03/23) Accurately ripped
13 [9baf5ab4] (03/23) Accurately ripped
14 [15566703] (03/23) Accurately ripped
15 [23855cbe] (03/23) Accurately ripped
16 [c1f4ccf8] (03/23) Accurately ripped
17 [3ecdc472] (03/23) Accurately ripped
18 [43bff211] (03/23) Accurately ripped
19 [0af0498e] (03/23) Accurately ripped
20 [61fc8583] (03/23) Accurately ripped

Track Peak [ CRC32 ] [W/O NULL] [ LOG ]
– 100,0 [99C7E1B8] [778CBF6F] CRC32
01 100,0 [99768B70] [4FCCCC75]
02 100,0 [AC8E49CE] [26BA772D]
03 100,0 [B5CF5BBF] [73BE9641]
04 100,0 [5D353326] [21C371F6]
05 99,9 [8AA1B09D] [AB696634]
06 99,9 [3D5ADA5F] [F9E83640]
07 100,0 [4033197F] [D4C9BF3C]
08 99,9 [C6D79CEA] [846D0198]
09 100,0 [9F688E98] [964A3ED0]
10 99,9 [117AC7D3] [33456949]
11 100,0 [13797CFB] [62B56BA6]
12 86,9 [E6A6A549] [0BB272EE]
13 97,4 [AA68EDA1] [620BC44B]
14 99,9 [B29F9306] [E7B399FC]
15 78,4 [9A1620CC] [F82747F3]
16 100,0 [A483CC84] [F74466E2]
17 81,4 [F49C462A] [1E95FAE3]
18 89,4 [05A8295C] [A4DF6129]
19 68,8 [C6CEDB6F] [37782368]
20 90,0 [6DF2949D] [9B93B730]

VA - ABC Of The Blues: The Ultimate Collection From The Delta To The Big Cities (2010) {Vol. 29-32, 52CD Box Set} * RE-UP *

Track List CD32 - Memphis Slim, Tommy McClennan:

01. Memphis Slim - Really Got The Blues [02:39]
02. Memphis Slim - Mother Earth [02:42]
03. Memphis Slim - I Guess I'm A Fool [03:03]
04. Memphis Slim - Havin' Fun [02:23]
05. Memphis Slim - Marack [02:33]
06. Memphis Slim - Tia Juana [02:53]
07. Memphis Slim - Reverend Bounce [02:38]
08. Memphis Slim - I'm Crying [03:17]
09. Memphis Slim - Blues For My Baby [02:42]
10. Memphis Slim - Slim's Blues [03:01]
11. Tommy McClennan - Baby, Don't You Want To Go [02:57]
12. Tommy McClennan - You Can't Mistreat Me [02:43]
13. Tommy McClennan - Shake 'Em On Down [03:09]
14. Tommy McClennan - Bottle It Up And Go [02:48]
15. Tommy McClennan - Brown Skin Girl [02:44]
16. Tommy McClennan - I'm Going Don't You Know [02:43]
17. Tommy McClennan - My Baby's Gone [02:44]
18. Tommy McClennan - Whiskey Headed Woman [02:59]
19. Tommy McClennan - It's Hard To Be Lonesome [02:37]
20. Tommy McClennan - Highway 51 [02:49]

Exact Audio Copy V1.0 beta 3 from 29. August 2011

EAC extraction logfile from 5. April 2015, 8:30

Various / ABC Of The Blues CD32

Used drive : MATSHITABD-CMB UJ242AS Adapter: 0 ID: 1

Read mode : Secure
Utilize accurate stream : Yes
Defeat audio cache : Yes
Make use of C2 pointers : No

Read offset correction : 103
Overread into Lead-In and Lead-Out : No
Fill up missing offset samples with silence : Yes
Delete leading and trailing silent blocks : No
Null samples used in CRC calculations : Yes
Used interface : Installed external ASPI interface

Used output format : User Defined Encoder
Selected bitrate : 1024 kBit/s
Quality : High
Add ID3 tag : Yes
Command line compressor : C:\Program Files (x86)\Exact Audio Copy\Flac\flac.exe
Additional command line options : -V -8 -T "Date=%year%" -T "Genre=%genre%" %source%


TOC of the extracted CD

Track | Start | Length | Start sector | End sector
––––––––––––––––––––––––––––-
1 | 0:00.00 | 2:38.16 | 0 | 11865
2 | 2:38.16 | 2:41.66 | 11866 | 24006
3 | 5:20.07 | 3:02.58 | 24007 | 37714
4 | 8:22.65 | 2:22.23 | 37715 | 48387
5 | 10:45.13 | 2:32.03 | 48388 | 59790
6 | 13:17.16 | 2:52.26 | 59791 | 72716
7 | 16:09.42 | 2:37.36 | 72717 | 84527
8 | 18:47.03 | 3:16.25 | 84528 | 99252
9 | 22:03.28 | 2:41.25 | 99253 | 111352
10 | 24:44.53 | 3:00.14 | 111353 | 124866
11 | 27:44.67 | 2:56.20 | 124867 | 138086
12 | 30:41.12 | 2:42.74 | 138087 | 150310
13 | 33:24.11 | 3:08.23 | 150311 | 164433
14 | 36:32.34 | 2:47.13 | 164434 | 176971
15 | 39:19.47 | 2:43.41 | 176972 | 189237
16 | 42:03.13 | 2:42.23 | 189238 | 201410
17 | 44:45.36 | 2:43.37 | 201411 | 213672
18 | 47:28.73 | 2:58.62 | 213673 | 227084
19 | 50:27.60 | 2:36.64 | 227085 | 238848
20 | 53:04.49 | 2:48.20 | 238849 | 251468


Range status and errors

Selected range

Filename C:\EACrip\Various - ABC Of The Blues CD32.wav

Peak level 100.0 %
Extraction speed 4.3 X
Range quality 100.0 %
Test CRC 4C881DB4
Copy CRC 4C881DB4
Copy OK

No errors occurred


AccurateRip summary

Track 1 accurately ripped (confidence 11) [077A8401] (AR v2)
Track 2 accurately ripped (confidence 11) [B1AF3DE8] (AR v2)
Track 3 accurately ripped (confidence 11) [2BBB9AB0] (AR v2)
Track 4 accurately ripped (confidence 11) [1BB37AC8] (AR v2)
Track 5 accurately ripped (confidence 11) [C546195D] (AR v2)
Track 6 accurately ripped (confidence 11) [ACBDFF3D] (AR v2)
Track 7 accurately ripped (confidence 11) [B5B6983A] (AR v2)
Track 8 accurately ripped (confidence 11) [4993DBE8] (AR v2)
Track 9 accurately ripped (confidence 11) [4CD273C4] (AR v2)
Track 10 accurately ripped (confidence 11) [98A47873] (AR v2)
Track 11 accurately ripped (confidence 11) [9DC0709D] (AR v2)
Track 12 accurately ripped (confidence 11) [96793772] (AR v2)
Track 13 accurately ripped (confidence 11) [A777B6B5] (AR v2)
Track 14 accurately ripped (confidence 11) [B9886CD0] (AR v2)
Track 15 accurately ripped (confidence 11) [EE834748] (AR v2)
Track 16 accurately ripped (confidence 11) [3A35EE17] (AR v2)
Track 17 accurately ripped (confidence 11) [49BFB79C] (AR v2)
Track 18 accurately ripped (confidence 11) [46C4B91B] (AR v2)
Track 19 accurately ripped (confidence 11) [5CD25D92] (AR v2)
Track 20 accurately ripped (confidence 11) [75544BE4] (AR v2)

All tracks accurately ripped

End of status report

==== Log checksum ECFD73070E538CF3C2612F3C40D22C10A963ACD6B2C3F35FBC1422283CFEE649 ====

foobar2000 1.2.6 / Dynamic Range Meter 1.1.1
log date: 2015-05-01 00:10:46

––––––––––––––––––––––––––––––––––––––––
Analyzed: Memphis Slim / ABC Of The Blues CD32 (1-10)
Tommy McClennan / ABC Of The Blues CD32 (11-20)
––––––––––––––––––––––––––––––––––––––––

DR Peak RMS Duration Track
––––––––––––––––––––––––––––––––––––––––
DR12 -0.83 dB -16.21 dB 2:38 01-Really Got The Blues
DR11 -0.98 dB -15.54 dB 2:42 02-Mother Earth
DR13 0.00 dB -16.33 dB 3:03 03-I Guess I'm A Fool
DR12 0.00 dB -15.00 dB 2:22 04-Havin' Fun
DR12 0.00 dB -15.47 dB 2:32 05-Marack
DR10 0.00 dB -12.45 dB 2:52 06-Tia Juana
DR11 0.00 dB -13.74 dB 2:37 07-Reverend Bounce
DR12 0.00 dB -14.48 dB 3:16 08-I'm Crying
DR13 0.00 dB -15.45 dB 2:41 09-Blues For My Baby
DR12 0.00 dB -14.27 dB 3:00 10-Slim's Blues
DR11 -0.26 dB -14.22 dB 2:56 11-Baby, Don't You Want To Go
DR11 0.00 dB -14.18 dB 2:43 12-You Can't Mistreat Me
DR12 -0.21 dB -15.59 dB 3:08 13-Shake 'Em On Down
DR12 -0.12 dB -15.56 dB 2:47 14-Bottle It Up And Go
DR12 -0.02 dB -14.34 dB 2:44 15-Brown Skin Girl
DR12 -0.43 dB -15.53 dB 2:42 16-I'm Going Don't You Know
DR14 -0.78 dB -18.95 dB 2:43 17-My Baby's Gone
DR12 -0.44 dB -15.29 dB 2:59 18-Whiskey Headed Woman
DR12 0.00 dB -15.95 dB 2:37 19-It's Hard To Be Lonesome
DR13 -0.48 dB -16.30 dB 2:48 20-Highway 51
––––––––––––––––––––––––––––––––––––––––

Number of tracks: 20
Official DR value: DR12

Samplerate: 44100 Hz
Channels: 2
Bits per sample: 16
Bitrate: 657 kbps
Codec: FLAC
================================================================================

[CUETools log; Date: 01.05.2015 0:10:16; Version: 2.1.5]
[CTDB TOCID: 0dOjXxbFbI6s9y352SdDJGfQpAI-] found.
Track | CTDB Status
1 | (15/15) Accurately ripped
2 | (15/15) Accurately ripped
3 | (15/15) Accurately ripped
4 | (15/15) Accurately ripped
5 | (15/15) Accurately ripped
6 | (15/15) Accurately ripped
7 | (15/15) Accurately ripped
8 | (15/15) Accurately ripped
9 | (15/15) Accurately ripped
10 | (15/15) Accurately ripped
11 | (15/15) Accurately ripped
12 | (15/15) Accurately ripped
13 | (15/15) Accurately ripped
14 | (15/15) Accurately ripped
15 | (15/15) Accurately ripped
16 | (15/15) Accurately ripped
17 | (15/15) Accurately ripped
18 | (15/15) Accurately ripped
19 | (15/15) Accurately ripped
20 | (15/15) Accurately ripped
[AccurateRip ID: 002811de-024dc467-1b0d1814] found.
Track [ CRC | V2 ] Status
01 [fd9ecc90|077a8401] (00+11/24) Accurately ripped
02 [da3b26c3|b1af3de8] (00+11/24) Accurately ripped
03 [47e4e71b|2bbb9ab0] (00+11/24) Accurately ripped
04 [646c94d8|1bb37ac8] (00+11/24) Accurately ripped
05 [e7dc17b8|c546195d] (00+11/24) Accurately ripped
06 [42d5b585|acbdff3d] (00+11/24) Accurately ripped
07 [f383222c|b5b6983a] (00+11/24) Accurately ripped
08 [a90e83a7|4993dbe8] (00+11/24) Accurately ripped
09 [bb5ce61a|4cd273c4] (00+11/24) Accurately ripped
10 [b597743f|98a47873] (00+11/24) Accurately ripped
11 [678b8918|9dc0709d] (00+11/24) Accurately ripped
12 [de18b3a1|96793772] (00+11/24) Accurately ripped
13 [8c06ca9c|a777b6b5] (00+11/24) Accurately ripped
14 [d9af99bd|b9886cd0] (00+11/24) Accurately ripped
15 [da8b0db8|ee834748] (00+11/24) Accurately ripped
16 [4978d953|3a35ee17] (00+11/24) Accurately ripped
17 [f24ec4d1|49bfb79c] (00+11/24) Accurately ripped
18 [a0132356|46c4b91b] (00+11/24) Accurately ripped
19 [a922b26d|5cd25d92] (00+11/24) Accurately ripped
20 [4be69789|75544be4] (00+11/24) Accurately ripped
Offsetted by 628:
01 [09ad1c1e] (02/24) Accurately ripped
02 [785d27fa] (02/24) Accurately ripped
03 [38e175bd] (02/24) Accurately ripped
04 [a4532e1a] (02/24) Accurately ripped
05 [8d7c2913] (02/24) Accurately ripped
06 [15cbc0a0] (02/24) Accurately ripped
07 [af2f52f3] (02/24) Accurately ripped
08 [29cc3502] (02/24) Accurately ripped
09 [c3dbab12] (02/24) Accurately ripped
10 [0206b33d] (02/24) Accurately ripped
11 [96bf8db8] (02/24) Accurately ripped
12 [29938021] (02/24) Accurately ripped
13 [8cd0b550] (02/24) Accurately ripped
14 [7eeba235] (02/24) Accurately ripped
15 [45517a6c] (02/24) Accurately ripped
16 [d23ac01b] (02/24) Accurately ripped
17 [33c3d761] (02/24) Accurately ripped
18 [610e2a5a] (02/24) Accurately ripped
19 [6e125159] (02/24) Accurately ripped
20 [c4246f49] (02/24) Accurately ripped
Offsetted by 664:
01 [52b1f52b] (03/24) Accurately ripped
02 [42ce2a96] (03/24) Accurately ripped
03 [d7dffc13] (03/24) Accurately ripped
04 [d98c22ee] (03/24) Accurately ripped
05 [5d8ffdaa] (03/24) Accurately ripped
06 [299e7e67] (03/24) Accurately ripped
07 [299f8295] (03/24) Accurately ripped
08 [ce195736] (03/24) Accurately ripped
09 [09fff57b] (03/24) Accurately ripped
10 [efa46e89] (03/24) Accurately ripped
11 [a8211bd8] (03/24) Accurately ripped
12 [c72d4aa1] (03/24) Accurately ripped
13 [a20ed4b4] (03/24) Accurately ripped
14 [0ad69dcd] (03/24) Accurately ripped
15 [de30d3d0] (03/24) Accurately ripped
16 [be596ec3] (03/24) Accurately ripped
17 [cbe645b1] (03/24) Accurately ripped
18 [c90f82ce] (03/24) Accurately ripped
19 [96b61115] (03/24) Accurately ripped
20 [91f71009] (03/24) Accurately ripped

Track Peak [ CRC32 ] [W/O NULL] [ LOG ]
– 100,0 [4C881DB4] [1DCB9E30] CRC32
01 90,9 [CC9AB320] [8CD631DE]
02 89,3 [99018047] [2A3A154C]
03 99,9 [381BD9FC] [E6A50AF4]
04 99,9 [583613EC] [D50B4335]
05 99,9 [43C81DE9] [FFE84AFF]
06 100,0 [3ADDC47B] [C8893BCE]
07 100,0 [FCD78887] [CF6C7BCB]
08 100,0 [ABF13774] [2880BC6F]
09 100,0 [98F917EF] [09CE8F8F]
10 99,9 [F33525DC] [D63B07B7]
11 97,1 [2A9E882A] [BC02094B]
12 99,9 [EDD40094] [C7D62A0A]
13 97,6 [FAECEBC0] [55B26E39]
14 98,6 [F31D866B] [279A0568]
15 99,7 [3807A079] [C8DF5AAC]
16 95,1 [1325414F] [7B6C2FFA]
17 91,3 [34574F6A] [B6B371F7]
18 95,0 [5EA3C518] [4341B7D2]
19 100,0 [C11E0F22] [7D65CA87]
20 94,6 [51AD6340] [C415B265]

VA - ABC Of The Blues: The Ultimate Collection From The Delta To The Big Cities (2010) {Vol. 29-32, 52CD Box Set} * RE-UP *

All thanks go to rd

>>> My Blog <<<

Download from icerbox.com: