Tags
Language
Tags

V.A. - Ibiza Sundowner (presented by Jose Padilla) (2012)

Posted By: gribovar
V.A. - Ibiza Sundowner (presented by Jose Padilla) (2012)

V.A. - Ibiza Sundowner (presented by Jose Padilla) (2012)
EAC Rip | FLAC (tracks+.cue+log) - 871 MB | MP3 CBR 320 kbps (LAME 3.93) - 326 MB | Covers - 53 MB
Genre: Chillout, Downtempo | RAR 3% Rec. | Label: EMI Music (50999 6 24118 2 0)

Ibiza stands for the ocean, beaches, world-class DJs and - of course - the legendary Cafee del Mar. The latter is well known for the breathtaking sunset down by the bay of Cala des Moro. Josee Padilla, resident DJ at Cafe del Mar and the man behind the legendary compilation-series, is now working on "Ibiza Sundowner presented by Jose Padilla", in where he presents the very best of chill-out music on two CDs. Not only featuring artists such as Silent Poets with their "(There's Always) Meaning In The Tone" and Peter Broderick with his "Solace In Gala", but also with the exclusive track "Ocean Drum" from Jose Padillas' latest album.
CD 1 Tracklist:
01. Lazar Cezar - Fri1911
02. Silent Poets - (There's Always) Meaning In The Tone
03. Jose Padilla - Ocean Drum
04. Commodity Place - Chenini
05. Chris Zippel - Voyage To Arcturus
06. Seigen Ono - Julia
07. Tha Analog Roland Orchestra - 1984
08. Robert Glasper - Smells Like Teen Spirit
09. Lems - Siki (Tsunenori Remix)
10. Ino Hidefumi - Spartacus
11. Gro-Magnon - Fading Echo Dub
12. Peter Broderick - Solace In Gala

Total time: 01:14:57

CD 2 Tracklist:
01. Joaquin Joe Claussell - Omamiuda
02. Antonio Adolfo - Noticias Do Verao
03. Nobuyuki Nakajima - Thinking Of You (NN's Dreamy Mix)
04. Craig Armstrong - Starless
05. Spase Dimension Controller - Kaleidoscopic Ecstasy
06. Portico Quartet - Ruins
07. Mich Gerber - Zumurud (Oriinal)
08. Finis Africae - El Secreto De Las 12
09. Kroke - Usual Happiness
10. Jose Padilla Feat. Kirsty Keatch - Helios
11. Ada - Likely (Instrumental)
12. Adem - God Only Knows
13. Villa Nah - Time For Tea

Total time: 01:03:30

Exact Audio Copy V1.0 beta 1 from 15. November 2010

EAC extraction logfile from 5. October 2012, 22:47

Various / Jose Padilla - Ibiza Sundowner CD1

Used drive : ASUS DRW-24B3ST Adapter: 3 ID: 0

Read mode : Secure
Utilize accurate stream : Yes
Defeat audio cache : Yes
Make use of C2 pointers : No

Read offset correction : 6
Overread into Lead-In and Lead-Out : No
Fill up missing offset samples with silence : Yes
Delete leading and trailing silent blocks : No
Null samples used in CRC calculations : Yes
Used interface : Native Win32 interface for Win NT & 2000
Gap handling : Appended to previous track

Used output format : User Defined Encoder
Selected bitrate : 1024 kBit/s
Quality : High
Add ID3 tag : No
Command line compressor : C:\Program Files\Exact Audio Copy\Flac\flac.exe
Additional command line options : -8 -V -T "ARTIST=%a" -T "TITLE=%t" -T "ALBUM=%g" -T "DATE=%y" -T "TRACKNUMBER=%n" -T "GENRE=%m" -T "COMMENT=ripped by Oleandris" %s


TOC of the extracted CD

Track | Start | Length | Start sector | End sector
––––––––––––––––––––––––––––-
1 | 0:00.00 | 13:40.74 | 0 | 61573
2 | 13:40.74 | 7:07.66 | 61574 | 93664
3 | 20:48.65 | 5:02.41 | 93665 | 116355
4 | 25:51.31 | 6:07.69 | 116356 | 143949
5 | 31:59.25 | 7:43.48 | 143950 | 178722
6 | 39:42.73 | 4:34.47 | 178723 | 199319
7 | 44:17.45 | 4:47.15 | 199320 | 220859
8 | 49:04.60 | 7:09.53 | 220860 | 253087
9 | 56:14.38 | 4:46.43 | 253088 | 274580
10 | 61:01.06 | 4:03.69 | 274581 | 292874
11 | 65:05.00 | 6:09.72 | 292875 | 320621
12 | 71:14.72 | 3:42.21 | 320622 | 337292


Track 1

Filename F:\ЗАГРУЗКИ\ Jose Padilla - Ibiza Sundowner (2012)\CD1\01. Lazar Cezar - Fri1911.wav

Pre-gap length 0:00:02.00

Peak level 94.2 %
Extraction speed 4.5 X
Track quality 100.0 %
Test CRC 73CD6375
Copy CRC 73CD6375
Track not present in AccurateRip database
Copy OK

Track 2

Filename F:\ЗАГРУЗКИ\ Jose Padilla - Ibiza Sundowner (2012)\CD1\02. Silent Poets - (There's Always) Meaning In The Tone.wav

Peak level 97.4 %
Extraction speed 5.2 X
Track quality 100.0 %
Test CRC 40037733
Copy CRC 40037733
Track not present in AccurateRip database
Copy OK

Track 3

Filename F:\ЗАГРУЗКИ\ Jose Padilla - Ibiza Sundowner (2012)\CD1\03. Jose Padilla - Ocean Drum.wav

Peak level 97.4 %
Extraction speed 5.5 X
Track quality 100.0 %
Test CRC 319B297A
Copy CRC 319B297A
Track not present in AccurateRip database
Copy OK

Track 4

Filename F:\ЗАГРУЗКИ\ Jose Padilla - Ibiza Sundowner (2012)\CD1\04. Commodity Place - Chenini.wav

Peak level 97.4 %
Extraction speed 5.1 X
Track quality 99.9 %
Test CRC CBF536BE
Copy CRC CBF536BE
Track not present in AccurateRip database
Copy OK

Track 5

Filename F:\ЗАГРУЗКИ\ Jose Padilla - Ibiza Sundowner (2012)\CD1\05. Chris Zippel - Voyage To Arcturus.wav

Peak level 97.4 %
Extraction speed 6.4 X
Track quality 100.0 %
Test CRC 39E954BD
Copy CRC 39E954BD
Track not present in AccurateRip database
Copy OK

Track 6

Filename F:\ЗАГРУЗКИ\ Jose Padilla - Ibiza Sundowner (2012)\CD1\06. Seigen Ono - Julia.wav

Peak level 91.0 %
Extraction speed 5.1 X
Track quality 99.9 %
Test CRC 79ABC2CD
Copy CRC 79ABC2CD
Track not present in AccurateRip database
Copy OK

Track 7

Filename F:\ЗАГРУЗКИ\ Jose Padilla - Ibiza Sundowner (2012)\CD1\07. Tha Analog Roland Orchestra - 1984.wav

Peak level 73.8 %
Extraction speed 5.4 X
Track quality 99.9 %
Test CRC FECFC1D2
Copy CRC FECFC1D2
Track not present in AccurateRip database
Copy OK

Track 8

Filename F:\ЗАГРУЗКИ\ Jose Padilla - Ibiza Sundowner (2012)\CD1\08. Robert Glasper - Smells Like Teen Spirit.wav

Peak level 97.4 %
Extraction speed 6.4 X
Track quality 99.9 %
Test CRC 394A4480
Copy CRC 394A4480
Track not present in AccurateRip database
Copy OK

Track 9

Filename F:\ЗАГРУЗКИ\ Jose Padilla - Ibiza Sundowner (2012)\CD1\09. Lems - Siki (Tsunenori Remix).wav

Peak level 97.4 %
Extraction speed 5.9 X
Track quality 99.9 %
Test CRC 41ECD892
Copy CRC 41ECD892
Track not present in AccurateRip database
Copy OK

Track 10

Filename F:\ЗАГРУЗКИ\ Jose Padilla - Ibiza Sundowner (2012)\CD1\10. Ino Hidefumi - Spartacus.wav

Peak level 81.6 %
Extraction speed 7.3 X
Track quality 100.0 %
Test CRC C6B9D948
Copy CRC C6B9D948
Track not present in AccurateRip database
Copy OK

Track 11

Filename F:\ЗАГРУЗКИ\ Jose Padilla - Ibiza Sundowner (2012)\CD1\11. Gro-Magnon - Fading Echo Dub.wav

Peak level 97.4 %
Extraction speed 7.9 X
Track quality 100.0 %
Test CRC 3085D856
Copy CRC 3085D856
Track not present in AccurateRip database
Copy OK

Track 12

Filename F:\ЗАГРУЗКИ\ Jose Padilla - Ibiza Sundowner (2012)\CD1\12. Peter Broderick - Solace In Gala.wav

Peak level 97.4 %
Extraction speed 7.6 X
Track quality 100.0 %
Test CRC 0C12A3EB
Copy CRC 0C12A3EB
Track not present in AccurateRip database
Copy OK


None of the tracks are present in the AccurateRip database

No errors occurred

End of status report

==== Log checksum B6B8CBB296EE520162291BF0639EF55ED1BA0FBF4993AB99EBD8A12C638B1AAE ====

[CUETools log; Date: 09.09.2017 11:55:22; Version: 2.1.4]
[CTDB TOCID: VZOTYGGFKwFfp7WXzUpK.WiU8n4-] found.
Track | CTDB Status
1 | (8/9) Accurately ripped
2 | (8/9) Accurately ripped
3 | (8/9) Accurately ripped
4 | (8/9) Accurately ripped
5 | (8/9) Accurately ripped
6 | (8/9) Accurately ripped
7 | (8/9) Accurately ripped
8 | (8/9) Accurately ripped
9 | (8/9) Accurately ripped
10 | (8/9) Accurately ripped
11 | (8/9) Accurately ripped
12 | (7/9) Accurately ripped
[AccurateRip ID: 002609eb-01544a5c-b811910c] found.
Track [ CRC | V2 ] Status
01 [76525d00|7afa173f] (0+4/4) Accurately ripped
02 [b4e5b6cb|f02239cb] (0+5/5) Accurately ripped
03 [ebc1e3d7|02bd846f] (0+6/6) Accurately ripped
04 [ed0b9b8a|5d7ad63a] (0+6/6) Accurately ripped
05 [36f24801|6b7b8209] (0+5/5) Accurately ripped
06 [0fd4171d|a408dcc8] (0+4/4) Accurately ripped
07 [851aae28|5e0ee9d7] (0+5/5) Accurately ripped
08 [99ffb242|c5d643e6] (0+5/5) Accurately ripped
09 [f0bc6186|4077dda7] (0+6/6) Accurately ripped
10 [d2fe3291|8d420725] (0+6/6) Accurately ripped
11 [06a4f22e|d99f04d7] (0+6/6) Accurately ripped
12 [d98b65e9|e3f53c98] (0+6/6) Accurately ripped

Track Peak [ CRC32 ] [W/O NULL] [ LOG ]
– 97,4 [AC80B5C9] [44B365AC]
01 94,2 [73CD6375] [654B5122] CRC32
02 97,4 [40037733] [5B04A93D] CRC32
03 97,4 [319B297A] [8A49BC82] CRC32
04 97,4 [CBF536BE] [4035807D] CRC32
05 97,4 [39E954BD] [28D99DF7] CRC32
06 91,0 [79ABC2CD] [798F5743] CRC32
07 73,8 [FECFC1D2] [8D7EE4F5] CRC32
08 97,4 [394A4480] [E1CE9E95] CRC32
09 97,4 [41ECD892] [622F5A19] CRC32
10 81,6 [C6B9D948] [A3150536] CRC32
11 97,4 [3085D856] [3383AE6B] CRC32
12 97,4 [0C12A3EB] [388EF136] CRC32

Exact Audio Copy V1.0 beta 1 from 15. November 2010

EAC extraction logfile from 5. October 2012, 22:59

Various / Jose Padilla - Ibiza Sundowner CD2

Used drive : PLEXTOR DVDR PX-891SA Adapter: 6 ID: 0

Read mode : Secure
Utilize accurate stream : Yes
Defeat audio cache : Yes
Make use of C2 pointers : No

Read offset correction : 6
Overread into Lead-In and Lead-Out : No
Fill up missing offset samples with silence : Yes
Delete leading and trailing silent blocks : No
Null samples used in CRC calculations : Yes
Used interface : Native Win32 interface for Win NT & 2000
Gap handling : Appended to previous track

Used output format : User Defined Encoder
Selected bitrate : 1024 kBit/s
Quality : High
Add ID3 tag : No
Command line compressor : C:\Program Files\Exact Audio Copy\Flac\flac.exe
Additional command line options : -8 -V -T "ARTIST=%a" -T "TITLE=%t" -T "ALBUM=%g" -T "DATE=%y" -T "TRACKNUMBER=%n" -T "GENRE=%m" -T "COMMENT=ripped by Oleandris" %s


TOC of the extracted CD

Track | Start | Length | Start sector | End sector
––––––––––––––––––––––––––––-
1 | 0:00.00 | 10:26.43 | 0 | 46992
2 | 10:26.43 | 3:28.65 | 46993 | 62657
3 | 13:55.33 | 6:13.52 | 62658 | 90684
4 | 20:09.10 | 4:32.06 | 90685 | 111090
5 | 24:41.16 | 4:21.01 | 111091 | 130666
6 | 29:02.17 | 5:21.60 | 130667 | 154801
7 | 34:24.02 | 4:00.65 | 154802 | 172866
8 | 38:24.67 | 6:27.08 | 172867 | 201899
9 | 44:52.00 | 5:40.48 | 201900 | 227447
10 | 50:32.48 | 4:38.41 | 227448 | 248338
11 | 55:11.14 | 3:32.16 | 248339 | 264254
12 | 58:43.30 | 2:35.07 | 264255 | 275886
13 | 61:18.37 | 2:11.64 | 275887 | 285775


Track 1

Filename F:\ЗАГРУЗКИ\ Jose Padilla - Ibiza Sundowner (2012)\CD2\01. Joaquin Joe Claussell - Omamiuda.wav

Pre-gap length 0:00:02.00

Peak level 97.4 %
Extraction speed 4.1 X
Track quality 100.0 %
Test CRC 6BCEFEA1
Copy CRC 6BCEFEA1
Track not present in AccurateRip database
Copy OK

Track 2

Filename F:\ЗАГРУЗКИ\ Jose Padilla - Ibiza Sundowner (2012)\CD2\02. Antonio Adolfo - Noticias Do Verao.wav

Peak level 97.4 %
Extraction speed 3.4 X
Track quality 99.9 %
Test CRC EA652FB9
Copy CRC EA652FB9
Track not present in AccurateRip database
Copy OK

Track 3

Filename F:\ЗАГРУЗКИ\ Jose Padilla - Ibiza Sundowner (2012)\CD2\03. Nobuyuki Nakajima - Thinking Of You (NN's Dreamy Mix).wav

Peak level 97.4 %
Extraction speed 5.0 X
Track quality 100.0 %
Test CRC 3F5F88DB
Copy CRC 3F5F88DB
Track not present in AccurateRip database
Copy OK

Track 4

Filename F:\ЗАГРУЗКИ\ Jose Padilla - Ibiza Sundowner (2012)\CD2\04. Craig Armstrong - Starless.wav

Peak level 97.4 %
Extraction speed 5.3 X
Track quality 100.0 %
Test CRC 93943751
Copy CRC 93943751
Track not present in AccurateRip database
Copy OK

Track 5

Filename F:\ЗАГРУЗКИ\ Jose Padilla - Ibiza Sundowner (2012)\CD2\05. Spase Dimension Controller - Kaleidoscopic Ecstasy.wav

Peak level 89.1 %
Extraction speed 4.4 X
Track quality 99.9 %
Test CRC 2320A489
Copy CRC 2320A489
Track not present in AccurateRip database
Copy OK

Track 6

Filename F:\ЗАГРУЗКИ\ Jose Padilla - Ibiza Sundowner (2012)\CD2\06. Portico Quartet - Ruins.wav

Peak level 97.4 %
Extraction speed 5.9 X
Track quality 100.0 %
Test CRC 90B0B41C
Copy CRC 90B0B41C
Track not present in AccurateRip database
Copy OK

Track 7

Filename F:\ЗАГРУЗКИ\ Jose Padilla - Ibiza Sundowner (2012)\CD2\07. Mich Gerber - Zumurud (Oriinal).wav

Peak level 97.4 %
Extraction speed 6.0 X
Track quality 100.0 %
Test CRC B6F84DDF
Copy CRC B6F84DDF
Track not present in AccurateRip database
Copy OK

Track 8

Filename F:\ЗАГРУЗКИ\ Jose Padilla - Ibiza Sundowner (2012)\CD2\08. Finis Africae - El Secreto De Las 12.wav

Peak level 97.4 %
Extraction speed 6.6 X
Track quality 100.0 %
Test CRC 2CA04E22
Copy CRC 2CA04E22
Track not present in AccurateRip database
Copy OK

Track 9

Filename F:\ЗАГРУЗКИ\ Jose Padilla - Ibiza Sundowner (2012)\CD2\09. Kroke - Usual Happiness.wav

Peak level 90.1 %
Extraction speed 6.9 X
Track quality 100.0 %
Test CRC AC16E4BB
Copy CRC AC16E4BB
Track not present in AccurateRip database
Copy OK

Track 10

Filename F:\ЗАГРУЗКИ\ Jose Padilla - Ibiza Sundowner (2012)\CD2\10. Jose Padilla Feat. Kirsty Keatch - Helios.wav

Peak level 97.4 %
Extraction speed 7.0 X
Track quality 100.0 %
Test CRC C996F840
Copy CRC C996F840
Track not present in AccurateRip database
Copy OK

Track 11

Filename F:\ЗАГРУЗКИ\ Jose Padilla - Ibiza Sundowner (2012)\CD2\11. Ada - Likely ( Instrumental).wav

Peak level 97.4 %
Extraction speed 6.9 X
Track quality 100.0 %
Test CRC 8F606CAE
Copy CRC 8F606CAE
Track not present in AccurateRip database
Copy OK

Track 12

Filename F:\ЗАГРУЗКИ\ Jose Padilla - Ibiza Sundowner (2012)\CD2\12. Adem - God Only Knows , Adem.wav

Peak level 50.5 %
Extraction speed 6.5 X
Track quality 100.0 %
Test CRC 8F757301
Copy CRC 8F757301
Track not present in AccurateRip database
Copy OK

Track 13

Filename F:\ЗАГРУЗКИ\ Jose Padilla - Ibiza Sundowner (2012)\CD2\13. Villa Nah - Time For Tea.wav

Peak level 94.2 %
Extraction speed 4.6 X
Track quality 99.9 %
Test CRC 9C861E07
Copy CRC 9C861E07
Track not present in AccurateRip database
Copy OK


None of the tracks are present in the AccurateRip database

No errors occurred

End of status report

==== Log checksum DD658CD37734AD459F4BE38CF0B977D7B95BE93C145E741D09666F8011D06C03 ====

[CUETools log; Date: 09.09.2017 11:56:29; Version: 2.1.4]
[CTDB TOCID: 2t1v3d.ae6GNZwChFITKhrU054Q-] found.
Track | CTDB Status
1 | (5/5) Accurately ripped
2 | (5/5) Accurately ripped
3 | (5/5) Accurately ripped
4 | (5/5) Accurately ripped
5 | (5/5) Accurately ripped
6 | (5/5) Accurately ripped
7 | (5/5) Accurately ripped
8 | (5/5) Accurately ripped
9 | (5/5) Accurately ripped
10 | (5/5) Accurately ripped
11 | (5/5) Accurately ripped
12 | (5/5) Accurately ripped
13 | (5/5) Accurately ripped
[AccurateRip ID: 0022b058-01503058-ab0ee20d] found.
Track [ CRC | V2 ] Status
01 [c78e9bfd|3134c1cb] (0+4/4) Accurately ripped
02 [28e1709b|26fa76cb] (0+3/3) Accurately ripped
03 [0cbf7ace|0ccc2132] (0+4/4) Accurately ripped
04 [89f3acfa|160640db] (0+5/5) Accurately ripped
05 [3f9976af|cc12d3a5] (0+4/4) Accurately ripped
06 [2bd0d9ae|f756ffe6] (0+3/3) Accurately ripped
07 [b55712fc|a73bc4d5] (0+3/3) Accurately ripped
08 [66a23a55|db792737] (0+3/3) Accurately ripped
09 [a81e27c5|a15f5cec] (0+3/3) Accurately ripped
10 [1a39cfee|71c477de] (0+4/4) Accurately ripped
11 [5cd20cfd|cd0e51b3] (0+4/4) Accurately ripped
12 [19d686bd|fed0f360] (0+3/3) Accurately ripped
13 [fe65eaaa|f4081cf3] (0+3/3) Accurately ripped

Track Peak [ CRC32 ] [W/O NULL] [ LOG ]
– 97,4 [CA3CF289] [1F30FA76]
01 97,4 [6BCEFEA1] [3348BEBE] CRC32
02 97,4 [EA652FB9] [88773187] CRC32
03 97,4 [3F5F88DB] [DB5856D4] CRC32
04 97,4 [93943751] [1C9D67EB] CRC32
05 89,1 [2320A489] [D01C0EF1] CRC32
06 97,4 [90B0B41C] [446B1A86] CRC32
07 97,4 [B6F84DDF] [4CD8351C] CRC32
08 97,4 [2CA04E22] [68B514DB] CRC32
09 90,1 [AC16E4BB] [894AAEEB] CRC32
10 97,4 [C996F840] [CD25A4C2] CRC32
11 97,4 [8F606CAE] [216C8A8B] CRC32
12 50,5 [8F757301] [F8EC314A] CRC32
13 94,2 [9C861E07] [06EE4CFA] CRC32

Thanks to Oleandris