Tags
Language
Tags

VA - Keep Calm And Stay Cosy [2CD Set] (2016)

Posted By: JET 1
VA - Keep Calm And Stay Cosy [2CD Set] (2016)

VA - Keep Calm And Stay Cosy [2CD Set] (2016)
EAC Rip | FLAC (Tracks) +CUE, LOG | 1.01 GB | Scans
Genre: Pop, Rock, Soul, R&B | Label: Sony Music | Catalog Number: 88985305482

The perfect soundtrack to an evening at home to unwind to, Keep Calm and Stay Cosy features 40 classic relaxing tracks from both modern-day and classic superstars, including Justin Timberlake, Leon Bridges, The Script, and Jeff Buckley, and Train.

Exact Audio Copy V1.0 beta 4 from 7. December 2014

EAC extraction logfile from 5. July 2016, 9:39

Various Artists / Keep Calm And Stay Cosy (Disc 1)

Used drive : TSSTcorpCDDVDW SH-222AB Adapter: 1 ID: 0

Read mode : Secure
Utilize accurate stream : Yes
Defeat audio cache : Yes
Make use of C2 pointers : No

Read offset correction : 6
Overread into Lead-In and Lead-Out : No
Fill up missing offset samples with silence : Yes
Delete leading and trailing silent blocks : No
Null samples used in CRC calculations : Yes
Used interface : Native Win32 interface for Win NT & 2000
Gap handling : Appended to previous track

Used output format : User Defined Encoder
Selected bitrate : 1024 kBit/s
Quality : High
Add ID3 tag : No
Command line compressor : C:\Program Files\Exact Audio Copy\Flac\flac.exe
Additional command line options : -8 -V -T "ARTIST=%artist%" -T "TITLE=%title%" -T "ALBUM=%albumtitle%" -T "DATE=%year%" -T "TRACKNUMBER=%tracknr%" -T "GENRE=%genre%" -T "PERFORMER=%albuminterpret%" -T "COMPOSER=%composer%" %haslyrics%–tag-from-file=LYRICS="%lyricsfile%"%haslyrics% -T "ALBUMARTIST=%albumartist%" -T "DISCNUMBER=%cdnumber%" -T "TOTALDISCS=%totalcds%" -T "TOTALTRACKS=%numtracks%" -T "COMMENT=EAC V1.0 beta 4, Secure Mode, Test & Copy, AccurateRip, FLAC -8" %source% -o %dest%


TOC of the extracted CD

Track | Start | Length | Start sector | End sector
––––––––––––––––––––––––––––-
1 | 0:00.00 | 3:16.51 | 0 | 14750
2 | 3:16.51 | 4:00.23 | 14751 | 32773
3 | 7:16.74 | 3:26.49 | 32774 | 48272
4 | 10:43.48 | 3:35.13 | 48273 | 64410
5 | 14:18.61 | 4:01.45 | 64411 | 82530
6 | 18:20.31 | 4:38.12 | 82531 | 103392
7 | 22:58.43 | 4:10.19 | 103393 | 122161
8 | 27:08.62 | 3:37.07 | 122162 | 138443
9 | 30:45.69 | 3:28.40 | 138444 | 154083
10 | 34:14.34 | 4:04.57 | 154084 | 172440
11 | 38:19.16 | 4:11.04 | 172441 | 191269
12 | 42:30.20 | 3:48.30 | 191270 | 208399
13 | 46:18.50 | 4:06.46 | 208400 | 226895
14 | 50:25.21 | 4:06.55 | 226896 | 245400
15 | 54:32.01 | 4:44.67 | 245401 | 266767
16 | 59:16.68 | 4:19.53 | 266768 | 286245
17 | 63:36.46 | 3:04.09 | 286246 | 300054
18 | 66:40.55 | 4:29.38 | 300055 | 320267
19 | 71:10.18 | 4:03.25 | 320268 | 338517
20 | 75:13.43 | 3:29.34 | 338518 | 354226


Track 1

Filename D:\VA - Keep Calm And Stay Cosy (2016) [FLAC]\Disc 1\01 - Alicia Keys - Fallin'.wav

Pre-gap length 0:00:02.00

Peak level 100.0 %
Extraction speed 4.7 X
Track quality 100.0 %
Test CRC C418B984
Copy CRC C418B984
Track not present in AccurateRip database
Copy OK

Track 2

Filename D:\VA - Keep Calm And Stay Cosy (2016) [FLAC]\Disc 1\02 - John Legend - Ordinary People.wav

Pre-gap length 0:00:00.86

Peak level 97.7 %
Extraction speed 5.2 X
Track quality 100.0 %
Test CRC 35506D2E
Copy CRC 35506D2E
Track not present in AccurateRip database
Copy OK

Track 3

Filename D:\VA - Keep Calm And Stay Cosy (2016) [FLAC]\Disc 1\03 - Leon Bridges - Coming Home.wav

Pre-gap length 0:00:00.09

Peak level 87.0 %
Extraction speed 5.5 X
Track quality 100.0 %
Test CRC 9636AB04
Copy CRC 9636AB04
Track not present in AccurateRip database
Copy OK

Track 4

Filename D:\VA - Keep Calm And Stay Cosy (2016) [FLAC]\Disc 1\04 - Paloma Faith - Picking Up The Pieces.wav

Pre-gap length 0:00:00.01

Peak level 99.0 %
Extraction speed 5.9 X
Track quality 100.0 %
Test CRC 4C68D9F9
Copy CRC 4C68D9F9
Track not present in AccurateRip database
Copy OK

Track 5

Filename D:\VA - Keep Calm And Stay Cosy (2016) [FLAC]\Disc 1\05 - The Script - The Man Who Can't Be Moved.wav

Pre-gap length 0:00:01.70

Peak level 97.7 %
Extraction speed 6.3 X
Track quality 100.0 %
Test CRC 312BB679
Copy CRC 312BB679
Track not present in AccurateRip database
Copy OK

Track 6

Filename D:\VA - Keep Calm And Stay Cosy (2016) [FLAC]\Disc 1\06 - Leona Lewis - Run.wav

Pre-gap length 0:00:00.84

Peak level 99.8 %
Extraction speed 6.8 X
Track quality 100.0 %
Test CRC 4927F4C0
Copy CRC 4927F4C0
Track not present in AccurateRip database
Copy OK

Track 7

Filename D:\VA - Keep Calm And Stay Cosy (2016) [FLAC]\Disc 1\07 - Kelly Rowland - Stole.wav

Pre-gap length 0:00:00.90

Peak level 99.0 %
Extraction speed 7.1 X
Track quality 100.0 %
Test CRC 1D0608A5
Copy CRC 1D0608A5
Track not present in AccurateRip database
Copy OK

Track 8

Filename D:\VA - Keep Calm And Stay Cosy (2016) [FLAC]\Disc 1\08 - Jennifer Hudson - If This Isn't Love.wav

Pre-gap length 0:00:01.32

Peak level 89.0 %
Extraction speed 5.6 X
Track quality 99.9 %
Test CRC 7E338398
Copy CRC 7E338398
Track not present in AccurateRip database
Copy OK

Track 9

Filename D:\VA - Keep Calm And Stay Cosy (2016) [FLAC]\Disc 1\09 - Olly Murs - Heart On My Sleeve.wav

Pre-gap length 0:00:00.76

Peak level 98.8 %
Extraction speed 7.4 X
Track quality 100.0 %
Test CRC 857A45A1
Copy CRC 857A45A1
Track not present in AccurateRip database
Copy OK

Track 10

Filename D:\VA - Keep Calm And Stay Cosy (2016) [FLAC]\Disc 1\10 - Natalie Imbruglia - Torn.wav

Pre-gap length 0:00:01.37

Peak level 76.6 %
Extraction speed 7.8 X
Track quality 100.0 %
Test CRC 1A9E9301
Copy CRC 1A9E9301
Track not present in AccurateRip database
Copy OK

Track 11

Filename D:\VA - Keep Calm And Stay Cosy (2016) [FLAC]\Disc 1\11 - Natasha Bedingfield - Unwritten.wav

Pre-gap length 0:00:00.06

Peak level 99.8 %
Extraction speed 8.1 X
Track quality 100.0 %
Test CRC 3A881C0B
Copy CRC 3A881C0B
Track not present in AccurateRip database
Copy OK

Track 12

Filename D:\VA - Keep Calm And Stay Cosy (2016) [FLAC]\Disc 1\12 - Kelly Clarkson - A Moment Like This.wav

Pre-gap length 0:00:00.04

Peak level 99.8 %
Extraction speed 6.5 X
Track quality 99.9 %
Test CRC 83C6C659
Copy CRC 83C6C659
Track not present in AccurateRip database
Copy OK

Track 13

Filename D:\VA - Keep Calm And Stay Cosy (2016) [FLAC]\Disc 1\13 - Toni Braxton - Un-Break My Heart.wav

Pre-gap length 0:00:01.18

Peak level 99.8 %
Extraction speed 8.5 X
Track quality 100.0 %
Test CRC 5EE119EB
Copy CRC 5EE119EB
Track not present in AccurateRip database
Copy OK

Track 14

Filename D:\VA - Keep Calm And Stay Cosy (2016) [FLAC]\Disc 1\14 - Dido - Here With Me.wav

Pre-gap length 0:00:01.00

Peak level 99.0 %
Extraction speed 8.7 X
Track quality 100.0 %
Test CRC 63F817B4
Copy CRC 63F817B4
Track not present in AccurateRip database
Copy OK

Track 15

Filename D:\VA - Keep Calm And Stay Cosy (2016) [FLAC]\Disc 1\15 - Jeff Buckley - Everybody Here Wants You.wav

Pre-gap length 0:00:01.13

Peak level 99.9 %
Extraction speed 9.1 X
Track quality 100.0 %
Test CRC B76D20CF
Copy CRC B76D20CF
Track not present in AccurateRip database
Copy OK

Track 16

Filename D:\VA - Keep Calm And Stay Cosy (2016) [FLAC]\Disc 1\16 - Train - Drops Of Jupiter.wav

Pre-gap length 0:00:00.70

Peak level 99.9 %
Extraction speed 9.3 X
Track quality 100.0 %
Test CRC A8069622
Copy CRC A8069622
Track not present in AccurateRip database
Copy OK

Track 17

Filename D:\VA - Keep Calm And Stay Cosy (2016) [FLAC]\Disc 1\17 - Simon & Garfunkel - The Sound Of Silence.wav

Pre-gap length 0:00:00.97

Peak level 99.0 %
Extraction speed 9.0 X
Track quality 100.0 %
Test CRC 149D9C52
Copy CRC 149D9C52
Track not present in AccurateRip database
Copy OK

Track 18

Filename D:\VA - Keep Calm And Stay Cosy (2016) [FLAC]\Disc 1\18 - Sarah McLachlan - Angel.wav

Pre-gap length 0:00:01.12

Peak level 88.0 %
Extraction speed 9.6 X
Track quality 100.0 %
Test CRC F8AF1F75
Copy CRC F8AF1F75
Track not present in AccurateRip database
Copy OK

Track 19

Filename D:\VA - Keep Calm And Stay Cosy (2016) [FLAC]\Disc 1\19 - Christina Aguilera - Hurt.wav

Peak level 97.7 %
Extraction speed 7.8 X
Track quality 99.9 %
Test CRC 826A79FB
Copy CRC 826A79FB
Track not present in AccurateRip database
Copy OK

Track 20

Filename D:\VA - Keep Calm And Stay Cosy (2016) [FLAC]\Disc 1\20 - P!nk - Who Knew.wav

Pre-gap length 0:00:00.04

Peak level 94.2 %
Extraction speed 9.7 X
Track quality 100.0 %
Test CRC 10346B9F
Copy CRC 10346B9F
Track not present in AccurateRip database
Copy OK


None of the tracks are present in the AccurateRip database

No errors occurred

End of status report

–– CUETools DB Plugin V2.1.4

[CTDB TOCID: 1IHi84CT0eSruBnQUnX5Y.FsCjk-] found
Submit result: 1IHi84CT0eSruBnQUnX5Y.FsCjk- has been confirmed
Track | CTDB Status
1 | (1/1) Accurately ripped
2 | (1/1) Accurately ripped
3 | (1/1) Accurately ripped
4 | (1/1) Accurately ripped
5 | (1/1) Accurately ripped
6 | (1/1) Accurately ripped
7 | (1/1) Accurately ripped
8 | (1/1) Accurately ripped
9 | (1/1) Accurately ripped
10 | (1/1) Accurately ripped
11 | (1/1) Accurately ripped
12 | (1/1) Accurately ripped
13 | (1/1) Accurately ripped
14 | (1/1) Accurately ripped
15 | (1/1) Accurately ripped
16 | (1/1) Accurately ripped
17 | (1/1) Accurately ripped
18 | (1/1) Accurately ripped
19 | (1/1) Accurately ripped
20 | (1/1) Accurately ripped


==== Log checksum 3788BD2D902B2D74EFE52E151F4E58EF80DC83524F7E7820C59D63C65FEFE18B ====

Exact Audio Copy V1.0 beta 4 from 7. December 2014

EAC extraction logfile from 5. July 2016, 10:17

Various Artists / Keep Calm And Stay Cosy (Disc 2)

Used drive : TSSTcorpCDDVDW SH-222AB Adapter: 1 ID: 0

Read mode : Secure
Utilize accurate stream : Yes
Defeat audio cache : Yes
Make use of C2 pointers : No

Read offset correction : 6
Overread into Lead-In and Lead-Out : No
Fill up missing offset samples with silence : Yes
Delete leading and trailing silent blocks : No
Null samples used in CRC calculations : Yes
Used interface : Native Win32 interface for Win NT & 2000
Gap handling : Appended to previous track

Used output format : User Defined Encoder
Selected bitrate : 1024 kBit/s
Quality : High
Add ID3 tag : No
Command line compressor : C:\Program Files\Exact Audio Copy\Flac\flac.exe
Additional command line options : -8 -V -T "ARTIST=%artist%" -T "TITLE=%title%" -T "ALBUM=%albumtitle%" -T "DATE=%year%" -T "TRACKNUMBER=%tracknr%" -T "GENRE=%genre%" -T "PERFORMER=%albuminterpret%" -T "COMPOSER=%composer%" %haslyrics%–tag-from-file=LYRICS="%lyricsfile%"%haslyrics% -T "ALBUMARTIST=%albumartist%" -T "DISCNUMBER=%cdnumber%" -T "TOTALDISCS=%totalcds%" -T "TOTALTRACKS=%numtracks%" -T "COMMENT=EAC V1.0 beta 4, Secure Mode, Test & Copy, AccurateRip, FLAC -8" %source% -o %dest%


TOC of the extracted CD

Track | Start | Length | Start sector | End sector
––––––––––––––––––––––––––––-
1 | 0:00.00 | 3:49.12 | 0 | 17186
2 | 3:49.12 | 5:13.06 | 17187 | 40667
3 | 9:02.18 | 4:21.36 | 40668 | 60278
4 | 13:23.54 | 3:31.68 | 60279 | 76171
5 | 16:55.47 | 3:19.72 | 76172 | 91168
6 | 20:15.44 | 3:01.65 | 91169 | 104808
7 | 23:17.34 | 3:32.74 | 104809 | 120782
8 | 26:50.33 | 4:05.52 | 120783 | 139209
9 | 30:56.10 | 3:50.26 | 139210 | 156485
10 | 34:46.36 | 3:57.47 | 156486 | 174307
11 | 38:44.08 | 4:30.16 | 174308 | 194573
12 | 43:14.24 | 4:51.12 | 194574 | 216410
13 | 48:05.36 | 4:36.50 | 216411 | 237160
14 | 52:42.11 | 3:59.71 | 237161 | 255156
15 | 56:42.07 | 3:44.34 | 255157 | 271990
16 | 60:26.41 | 3:01.10 | 271991 | 285575
17 | 63:27.51 | 4:36.17 | 285576 | 306292
18 | 68:03.68 | 3:43.47 | 306293 | 323064
19 | 71:47.40 | 4:03.52 | 323065 | 341341
20 | 75:51.17 | 4:50.20 | 341342 | 363111


Track 1

Filename D:\VA - Keep Calm And Stay Cosy (2016) [FLAC]\Disc 2\01 - One Direction - More Than This.wav

Pre-gap length 0:00:02.00

Peak level 81.2 %
Extraction speed 4.9 X
Track quality 100.0 %
Test CRC CFA763C9
Copy CRC CFA763C9
Track not present in AccurateRip database
Copy OK

Track 2

Filename D:\VA - Keep Calm And Stay Cosy (2016) [FLAC]\Disc 2\02 - Justin Timberlake - What Goes Around… Comes Around.wav

Pre-gap length 0:00:00.93

Peak level 79.4 %
Extraction speed 4.7 X
Track quality 99.9 %
Test CRC C0BA127B
Copy CRC C0BA127B
Track not present in AccurateRip database
Copy OK

Track 3

Filename D:\VA - Keep Calm And Stay Cosy (2016) [FLAC]\Disc 2\03 - John Mayer - Free Fallin' (Live at the Nokia Theatre).wav

Pre-gap length 0:00:00.14

Peak level 99.7 %
Extraction speed 5.9 X
Track quality 100.0 %
Test CRC F7BB1408
Copy CRC F7BB1408
Track not present in AccurateRip database
Copy OK

Track 4

Filename D:\VA - Keep Calm And Stay Cosy (2016) [FLAC]\Disc 2\04 - Bob Dylan - Make You Feel My Love.wav

Peak level 99.8 %
Extraction speed 6.1 X
Track quality 100.0 %
Test CRC 8C289607
Copy CRC 8C289607
Track not present in AccurateRip database
Copy OK

Track 5

Filename D:\VA - Keep Calm And Stay Cosy (2016) [FLAC]\Disc 2\05 - Billy Joel - She's Always A Woman.wav

Pre-gap length 0:00:00.52

Peak level 88.1 %
Extraction speed 6.2 X
Track quality 100.0 %
Test CRC CAF552B8
Copy CRC CAF552B8
Track not present in AccurateRip database
Copy OK

Track 6

Filename D:\VA - Keep Calm And Stay Cosy (2016) [FLAC]\Disc 2\06 - Johnny Cash with June Carter Cash - It Ain't Me, Babe.wav

Pre-gap length 0:00:00.10

Peak level 99.0 %
Extraction speed 6.4 X
Track quality 100.0 %
Test CRC E138FD5A
Copy CRC E138FD5A
Track not present in AccurateRip database
Copy OK

Track 7

Filename D:\VA - Keep Calm And Stay Cosy (2016) [FLAC]\Disc 2\07 - First Aid Kit - My Silver Lining.wav

Pre-gap length 0:00:00.90

Peak level 74.1 %
Extraction speed 6.8 X
Track quality 100.0 %
Test CRC 5C4B0F17
Copy CRC 5C4B0F17
Track not present in AccurateRip database
Copy OK

Track 8

Filename D:\VA - Keep Calm And Stay Cosy (2016) [FLAC]\Disc 2\08 - Kasabian - Goodbye Kiss.wav

Pre-gap length 0:00:00.18

Peak level 83.1 %
Extraction speed 5.8 X
Track quality 99.9 %
Test CRC B958811C
Copy CRC B958811C
Track not present in AccurateRip database
Copy OK

Track 9

Filename D:\VA - Keep Calm And Stay Cosy (2016) [FLAC]\Disc 2\09 - Kodaline - High Hopes.wav

Pre-gap length 0:00:01.60

Peak level 71.9 %
Extraction speed 7.5 X
Track quality 100.0 %
Test CRC 3D4776D9
Copy CRC 3D4776D9
Track not present in AccurateRip database
Copy OK

Track 10

Filename D:\VA - Keep Calm And Stay Cosy (2016) [FLAC]\Disc 2\10 - Maxwell - This Woman's Work (Uncut).wav

Pre-gap length 0:00:00.28

Peak level 92.0 %
Extraction speed 7.7 X
Track quality 100.0 %
Test CRC C26B3D41
Copy CRC C26B3D41
Track not present in AccurateRip database
Copy OK

Track 11

Filename D:\VA - Keep Calm And Stay Cosy (2016) [FLAC]\Disc 2\11 - R. Kelly - If I Could Turn Back The Hands Of Time.wav

Pre-gap length 0:00:00.33

Peak level 92.2 %
Extraction speed 6.6 X
Track quality 99.9 %
Test CRC C06020DD
Copy CRC C06020DD
Track not present in AccurateRip database
Copy OK

Track 12

Filename D:\VA - Keep Calm And Stay Cosy (2016) [FLAC]\Disc 2\12 - Fugees - Killing Me Softly With His Song.wav

Pre-gap length 0:00:00.37

Peak level 93.5 %
Extraction speed 7.0 X
Track quality 99.9 %
Test CRC 4876786F
Copy CRC 4876786F
Track not present in AccurateRip database
Copy OK

Track 13

Filename D:\VA - Keep Calm And Stay Cosy (2016) [FLAC]\Disc 2\13 - Terence Trent D'Arby - Sign Your Name.wav

Pre-gap length 0:00:01.13

Peak level 93.3 %
Extraction speed 8.7 X
Track quality 100.0 %
Test CRC B21B4A52
Copy CRC B21B4A52
Track not present in AccurateRip database
Copy OK

Track 14

Filename D:\VA - Keep Calm And Stay Cosy (2016) [FLAC]\Disc 2\14 - Lonestar - Amazed.wav

Pre-gap length 0:00:00.06

Peak level 99.0 %
Extraction speed 8.8 X
Track quality 100.0 %
Test CRC 79E05214
Copy CRC 79E05214
Track not present in AccurateRip database
Copy OK

Track 15

Filename D:\VA - Keep Calm And Stay Cosy (2016) [FLAC]\Disc 2\15 - Lou Reed - Perfect Day.wav

Pre-gap length 0:00:00.62

Peak level 99.8 %
Extraction speed 7.0 X
Track quality 99.9 %
Test CRC DFE17B44
Copy CRC DFE17B44
Track not present in AccurateRip database
Copy OK

Track 16

Filename D:\VA - Keep Calm And Stay Cosy (2016) [FLAC]\Disc 2\16 - Elvis Presley - Can't Help Falling In Love.wav

Pre-gap length 0:00:00.69

Peak level 92.0 %
Extraction speed 8.8 X
Track quality 100.0 %
Test CRC DCB812EE
Copy CRC DCB812EE
Track not present in AccurateRip database
Copy OK

Track 17

Filename D:\VA - Keep Calm And Stay Cosy (2016) [FLAC]\Disc 2\17 - Leonard Cohen - Got A Little Secret (Live at Auckland Soundcheck, 2013).wav

Pre-gap length 0:00:01.01

Peak level 99.0 %
Extraction speed 7.8 X
Track quality 99.9 %
Test CRC BD30123E
Copy CRC BD30123E
Track not present in AccurateRip database
Copy OK

Track 18

Filename D:\VA - Keep Calm And Stay Cosy (2016) [FLAC]\Disc 2\18 - Shakira - Underneath Your Clothes.wav

Pre-gap length 0:00:00.82

Peak level 78.6 %
Extraction speed 9.5 X
Track quality 100.0 %
Test CRC D5E36FD1
Copy CRC D5E36FD1
Track not present in AccurateRip database
Copy OK

Track 19

Filename D:\VA - Keep Calm And Stay Cosy (2016) [FLAC]\Disc 2\19 - Britney Spears - Born To Make You Happy.wav

Pre-gap length 0:00:00.28

Peak level 89.0 %
Extraction speed 7.7 X
Track quality 99.9 %
Test CRC E33FBD62
Copy CRC E33FBD62
Track not present in AccurateRip database
Copy OK

Track 20

Filename D:\VA - Keep Calm And Stay Cosy (2016) [FLAC]\Disc 2\20 - Whitney Houston - Greatest Love Of All.wav

Pre-gap length 0:00:00.33

Peak level 90.2 %
Extraction speed 10.2 X
Track quality 100.0 %
Test CRC 2CDAB4FF
Copy CRC 2CDAB4FF
Track not present in AccurateRip database
Copy OK


None of the tracks are present in the AccurateRip database

No errors occurred

End of status report

–– CUETools DB Plugin V2.1.4

[CTDB TOCID: z6XuXfIaY0vWMzuxj1uhPIiXRxg-] found
Submit result: z6XuXfIaY0vWMzuxj1uhPIiXRxg- has been confirmed
Track | CTDB Status
1 | (1/1) Accurately ripped
2 | (1/1) Accurately ripped
3 | (1/1) Accurately ripped
4 | (1/1) Accurately ripped
5 | (1/1) Accurately ripped
6 | (1/1) Accurately ripped
7 | (1/1) Accurately ripped
8 | (1/1) Accurately ripped
9 | (1/1) Accurately ripped
10 | (1/1) Accurately ripped
11 | (1/1) Accurately ripped
12 | (1/1) Accurately ripped
13 | (1/1) Accurately ripped
14 | (1/1) Accurately ripped
15 | (1/1) Accurately ripped
16 | (1/1) Accurately ripped
17 | (1/1) Accurately ripped
18 | (1/1) Accurately ripped
19 | (1/1) Accurately ripped
20 | (1/1) Accurately ripped


==== Log checksum BFBE14FEC3B44E2D42469D4695262F84C26B90E0B6DC6A1658453191B066B963 ====

Tracklist ::::
CD 1
1. Alicia Keys – Fallin'
2. John Legend – Ordinary People
3. Leon Bridges – Coming Home
4. Paloma Faith – Picking Up The Pieces
5. The Script – The Man Who Can't Be Moved
6. Leona Lewis – Run
7. Kelly Rowland – Stole
8. Jennifer Hudson – If This Isn't Love
9. Olly Murs – Heart On My Sleeve
10. Natalie Imbruglia – Torn
11. Natasha Bedingfield – Unwritten
12. Kelly Clarkson – A Moment Like This
13. Toni Braxton – Un- Break My Heart
14. Dido – Here With Me
15. Jeff Buckley – Everybody Here Wants You
16. Train – Drops Of Jupiter
17. Simon & Garfunkel – The Sound Of Silence
18. Sarah McLachlan – Angel
19. Christina Aguilera – Hurt
20. P!NK – Who Knew

CD 2
1. One Direction – More Than This
2. Justin Timberlake – What Goes Around… Comes Around
3. John Mayer – Free Fallin' (Live)
4. Bob Dylan – Make You Feel My Love
5. Billy Joel – She's Always A Woman
6. Johnny Cash – It Ain't Me, Babe
7. First Aid Kit – My Silver Lining
8. Kasabian – Goodbye Kiss
9. Kodaline – High Hopes
10. Maxwell – This Woman's Work
11. R. Kelly – If U Could Turn Back The Hands Of Time
12. Fugees – Killing Me Softly With His Song
13. Terence Trent D'Arby – Sign Your Name
14. Lonestar – Amazed
15. Lou Reed – Perfect Day
16. Elvis Presley – Can't Help Falling In Love
17. Leonard Cohen – Got A Little Secret (Live)
18. Shakira – Underneath Your Clothes
19. Britney Spears – Born To Make You Happy
20. Whitney Houston – Greatest Love Of All