Tags
Language
Tags
June 2024
Su Mo Tu We Th Fr Sa
26 27 28 29 30 31 1
2 3 4 5 6 7 8
9 10 11 12 13 14 15
16 17 18 19 20 21 22
23 24 25 26 27 28 29
30 1 2 3 4 5 6

V.A. - Het Beste Uit 20 Jaar Top 2000 [14CD Box Set] (2019)

Posted By: Discograf_man
V.A. - Het Beste Uit 20 Jaar Top 2000 [14CD Box Set] (2019)

V.A. - Het Beste Uit 20 Jaar Top 2000 [14CD Box Set] (2019)
EAC Rip | FLAC (*tracks + .cue,log,scans) | Run Time: 18:18:01 | 6,86 Gb | Covers 111.76 Mb
Genre: Rock, Reggae, Funk / Soul, Blues, Pop, Folk | Label: Universal Records

Maar liefst 14 cd's met daarop verzameld het mooiste uit 20​ jaar Top 2000. De cd's zijn gerangschikt naar de periode van waaruit de nummers komen: de 50, de 60,'s, de 70's, de 80. de 90's, de 00's en de 10's. Daarnaast is er nog een dubbelcd met daarop Long Versions van een aantal classic Top 2000 nummers.
In totaal bevat de box ruim 260 tracks inclusief Johnny Cash, Bob Dylan, The Who, Aretha Franklin, David Bowie, Leonard Cohen, Van Morrisson, John Lennon, Lou Reed, Paul McCartney, Billy Joel, Abba, The Clash, The Cure, Joe Jackson, Simple Minds, Duran Duran, Tears For Fears, Manic Street Preachers, Jeff Buckley, Boudewijn de Groot, Beth Hart, Alicia Keys, Muse, Snow Patrol, Queens Of The Stone Age, John Mayer, Amy Winehouse, The Script, Lana Del Rey, P!nk, Michael Kiwanuka, James Bay, First Aid Kit, George Ezra, Queen en nog veel meer!
V.A. - Het Beste Uit 20 Jaar Top 2000 [14CD Box Set] (2019)

Contains CDs:

20 Jaar Top 2000 – De 50’s & 60’s
20 Jaar Top 2000 – De 70’s
20 Jaar Top 2000 – De 80’s
20 Jaar Top 2000 – De 90’s
20 Jaar Top 2000 – De 00’s
20 Jaar Top 2000 – De 10’s
20 Jaar Top 2000 – De Long Versions
V.A. - Het Beste Uit 20 Jaar Top 2000 [14CD Box Set] (2019)

V.A. - Het Beste Uit 20 Jaar Top 2000 [14CD Box Set] (2019)

20 Jaar Top 2000 – De 50’s & 60’s

CD 1:
1. Bill Haley & His Comets - (We're Gonna) Rock Around The Clock
2. Elvis Presley - Heartbreak Hotel
3. Frank Sinatra - I've Got You Under My Skin
4. Johnny Cash - I Walk The Line
5. Buddy Holly - That'll Be The Day
6. Fats Domino - Blueberry Hill
7. Jerry Lee Lewis - Great Balls Of Fire
8. Chuck Berry - Johnny B. Goode
9. Roy Orbison - Only The Lonely
10. Etta James - At Last
11. Booker T & The MG’s - Green Onions
12. Bob Dylan - Blowin' In The Wind
13. Dusty Springfield - I Just Don't Know What To Do With Myself
14. The Temptations - My Girl
15. The Animals - House Of The Rising Sun
16. The Beach Boys - I Get Around
17. The Who - My Generation
18. The Byrds - Mr. Tambourine Man
19. The Mamas & The Papas - California Dreamin'
20. Golden Earrings - Please Go
21. The Righteous Brothers - Unchained Melody
22. The Lovin’ Spoonful - Summer In The City
23. Otis Redding - Try A Little Tenderness
24. Simon & Garfunkel - The Sound Of Silence
25. The Spencer Davis Group - Keep On Running
26. Tom Jones - Green Green Grass Of Home
27. Tim Hardin - How Can We Hang On To A Dream
28. The Walker Brothers - The Sun Ain't Gonna Shine Anymore

CD 2:
1. The Monkees - I'm A Believer
2. The Moody Blues - Nights In White Satin
3. Aretha Franklin - Respect
4. Buffalo Springfield - For What It's Worth
5. Jefferson Airplane - White Rabbit
6. Sam & Dave - Soul Man
7. The Band - The Weight
8. Leonard Cohen - Suzanne
9. Canned Heat - On The Road Again
10. Cuby & The Blizzards - Window Of My Eyes
11. Steppenwolf - Born To Be Wild
12. Fleetwood Mac - Need Your Love So Bad
13. Nina Simone - Ain't Got No, I Got Life
14. Glen Campbell - Wichita Lineman
15. Barry Ryan - Eloise
16. Marvin Gaye - I Heard It Through The Grapevine
17. B.B. King - The Thrill Is Gone
18. Brainbox - Down Man
19. David Bowie - Space Oddity
20. Frans Halsema - Zondagmiddag Buitenveldert
21. The 5th Dimension - Aquarius / Let The Sunshine In
22. George Baker Selection - Little Green Bag
23. Melanie - Beautiful People

20 Jaar Top 2000 – De 70’s

CD 1:
1. Free - All Right Now
2. Van Morrison - Moondance
3. Cat Stevens - Lady D'Arbanville
4. Jackson 5 - I Want You Back
5. Deep Purple - Black Night
6. Earth And Fire - Seasons
7. Janis Joplin - Mercedes Benz
8. Santana - Black Magic Woman
9. Ike & Tina Turner - Proud Mary
10. John Lennon - Imagine
11. Rod Stewart - Maggie May
12. The Cats - One Way Wind
13. J.J. Cale - After Midnight
14. Lou Reed - Perfect Day
15. Dr. Hook & The Medicine Show - Sylvia’s Mother
16. Michael Jackson - Ben
17. Paul McCartney & Wings - Live And Let Die
18. Aerosmith - Dream On
19. The Isley Brothers - Highways Of My Life
20. Thin Lizzy - Whiskey In The Jar
21. Billy Joel - Piano Man

CD 2:

1. Electric Light Orchestra - Can't Get It Out Of My Head
2. Grand Funk Railroad - Some Kind Of Wonderful
3. Blue Öyster Cult - Don't Fear The Reaper
4. Paul Simon - 50 Ways To Leave Your Lover
5. Roxy Music - Love Is The Drug
6. Boz Scaggs - Lido Shuffle
7. Kansas - Carry On Wayward Son
8. Al Stewart - Year Of The Cat
9. Status Quo - Rockin' All Over The World
10. Andrew Gold - Lonely Boy
11. Blondie - Denis
12. Gerry Rafferty - Baker Street
13. Herman Brood And His Wildromance - Saturday Night
14. Patti Smith Group - Because The Night
15. Robert Palmer - Every Kinda People
16. ABBA - Gimme! Gimme! Gimme! (A Man After Midnight)
17. Fischer-Z - The Worker
18. Frank Zappa - Dancin' Fool
19. Kiss - Sure Know Something
20. Nils Lofgren - Shine Silently
21. The Clash - London Calling

20 Jaar Top 2000 – De 80’s

CD 1:
1. The Cure - A Forest
2. Orchestral Manoeuvres In The Dark - Enola Gay
3. The Jam - Town Called Malice
4. The Pretenders - Brass In Pocket
5. Alides Hidding - Hollywood Seven
6. Diesel - Sausolito Summernight
7. UB40 - Food For Thought (Live)
8. Ph. D - I Won't Let You Down
9. ABC - The Look Of Love Pt. 1
10. Joe Jackson - Real Men
11. Philip Lynott - Old Town
12. Simple Minds - Promised You A Miracle
13. The Stranglers - Golden Brown
14. Toto - Africa
15. Eurythmics - Sweet Dreams (Are Made of This)
16. The Nits - Nescio
17. Spandau Ballet - Only When You Leave
18. Billy Idol - Eyes Without A Face
19. Klein Orkest - Over De Muur
20. Talk Talk - Such A Shame

CD 2:

1. Mink DeVille - Demasiado Corazon
2. Nik Kershaw - The Riddle
3. Foreigner - I Want To Know What Love Is
4. Split Enz - Message To My Girl
5. A-ha - Take On Me
6. Chris Rea - Josephine
7. Duran Duran - Save A Prayer
8. Godley & Creme - Cry
9. Huey Lewis & The News - The Power Of Love
10. Paul Young - Everytime You Go Away
11. Simply Red - Holding Back The Years
12. Cock Robin - The Promise You Made
13. Mr. Mister - Kyrie
14. Stan Ridgway - Camouflage
15. Red Box - For America
16. Tanita Tikaram - Twist In My Sobriety
17. Terence Trent D’Arby - Sign Your Name
18. The B-52’s - Love Shack
19. Tears For Fears - Sowing The Seeds Of Love

20 Jaar Top 2000 – De 90’s

CD 1:
1. Living Colour - Love Rears It's Ugly Head
2. Alannah Myles - Black Velvet
3. Fish - A Gentleman's Excuse Me
4. Oleta Adams - Get Here
5. Roxette - It Must Have Been Love
6. Extreme - More Than Words
7. Marc Cohn - Walking In Memphis
8. Queensrÿche - Silent Lucidity
9. Annie Lennox - Why
10. Manic Street Preachers - Motorcycle Emptiness
11. Patrick Bruel - Casser La Voix (Live)
12. 4 Non Blondes - What's Up?
13. The Cranberries - Linger
14. The Radios - She Goes Nana
15. Joshua Kadison - Jessie
16. Live - I Alone
17. Van Dik Hout - Stil In Mij
18. Wet Wet Wet - Love Is All Around

CD 2:
1. Sheryl Crow - All I Wanna Do
2. Jeff Buckley - Hallelujah
3. Youssou N'Dour & Neneh Cherry - 7 Seconds
4. Therapy? - Diane
5. K’s Choice - Not An Addict
6. Spice Girls - Wannabe
7. Boudewijn de Groot - Avond
8. Bob Carlisle - Butterfly Kisses
9. Eagle-Eye Cherry - Save Tonight
10. Natalie Imbruglia - Torn
11. Anouk - Sacrifice
12. Des’ree - Life
13. Henk Westbroek - Zelfs Je Naam Is Mooi
14. Ilse DeLange - I'm Not So Tough
15. Lighthouse Family - High
16. Paul Weller - Wild Wood
17. Beth Hart - LA Song
18. Novastar - Wrong
19. Robbie Williams - She's The One

20 Jaar Top 2000 – De 00’s

CD 1:
1. 3 Doors Down - Kryptonite
2. Anastacia - I'm Outta Love
3. De Dijk - Als Het Golft
4. Alicia Keys - Fallin'
5. Train - Drops Of Jupiter
6. Johan - Tumble And Fall
7. a balladeer - Swim With Sam
8. Justin Timberlake - Cry Me A River
9. Shakira - Whenever, Wherever
10. Within Temptation - Ice-Queen
11. Muse - Time Is Running Out
12. Queens Of The Stone Age - No One Knows
13. Dido - White Flag
14. Keane - Everybody's Changing
15. Snow Patrol - Run
16. Maroon 5 - She Will Be Loved
17. Natasha Bedingfield - Unwritten
18. Outkast - Hey Ya!
19. James Blunt - Goodbye My Lover

CD 2:

1. John Legend - Ordinary People
2. John Mayer - Daughters
3. The Fray - How To Save A Life
4. Coldplay - Fix You
5. Amy Winehouse - Back To Black
6. Gnarls Barkley - Crazy
7. Kaiser Chiefs - Ruby
8. MGMT - Kids
9. Rufus Wainwright - Going To A Town
10. James Morrison - You Give Me Something
11. MIKA - Grace Kelly
12. Plain White T’s - Hey There Delilah
13. Mark Ronson ft. Amy Winehouse - Valerie
14. Duffy - Mercy
15. elbow - One Day Like This
16. The Script - The Man Who Can't Be Moved
17. Marco Borsato - Dochters
18. The Black Eyed Peas - I Gotta Feeling
19. Caro Emerald - A Night Like This

20 Jaar Top 2000 – De 10’s

CD 1:

1. De Jeugd Van Tegenwoordig - Sterrenstof
2. Lady Antebellum - Need You Now
3. Ben Howard - Keep Your Head Up
4. Birdy - Skinny Love
5. Foster The People - Pumped Up Kicks
6. Jonathan Jeremiah - Happiness
7. Lana Del Rey - Video Games
8. David Guetta ft. Sia - Titanium
9. Michael Kiwanuka - Home Again
10. Triggerfinger - I Follow Rivers (Live)
11. Passenger - Let Her Go
12. P!nk ft. Nate Ruess - Just Give Me A Reason
13. Tom Odell - Another Love
14. Racoon - Oceaan
15. Avicii - Hey Brother
16. Hozier - Take Me To Church
17. Kensington - Home Again
18. Lorde - Royals
19. Pharrell Williams - Happy
20. Stromae - Papaoutai
21. Mr. Probz - Waves

CD 2:

1. Robin Thicke & Pharrell - Blurred Lines
2. London Grammar - Strong
3. First Aid Kit - My Silver Lining
4. James Bay - Let It Go
5. Typhoon ft. Rico & Andre Manuel - Zandloper
6. Sam Smith - Stay With Me
7. Chef’Special - In Your Arms
8. Dotan - Home
9. Florence + The Machine - Ship To Wreck
10. The Common Linnets - We Don’t Make The Wind Blow
11. Kenny B - Parijs
12. Bastille - Good Grief
13. Diggy Dex ft. JW Roy - Treur Niet (Ode Aan Het Leven)
14. Calum Scott - Dancing On My Own
15. Douwe Bob - Jacob’s Song
16. Imagine Dragons - Thunder
17. BLØF ft. Geike Arnaert - Zoutelande
18. Rag ‘n’ Bone Man - Human
19. Nothing But Thieves - Sorry
20. George Ezra - Shotgun
21. Davina Michelle - Duurt Te Lang

20 Jaar Top 2000 – De Long Versions

CD 1:

1. Queen - Innuendo
2. Santa Esmeralda starring Leroy Gomez - Don't Let Me Be Misunderstood (Esmeralda Suite)
3. Bob Dylan - Hurricane
4. Deep Purple - Child In Time
5. Lynyrd Skynyrd - Free Bird
6. Golden Earring - She Flies On Strange Wings
7. Rare Earth - Get Ready

CD 2:

1. Lou Reed - Intro / Sweet Jane (Live)
2. Billy Joel - Scenes From An Italian Restaurant
3. Michael Kiwanuka - Cold Little Heart
4. Mark & Clark Band - Worn Down Piano
5. Little River Band - It's A Long Way There
6. Meat Loaf - Bat Out of Hell
7. Magna Carta - Lord Of The Ages
8. Iron Butterfly - In-A-Gadda-Da-Vida


Exact Audio Copy V1.3 from 2. September 2016

EAC extraction logfile from 21. December 2019, 11:41

Various Artists / Het Beste Uit 20 Jaar Top 2000

Used drive : PLEXTOR PX-891SAF Adapter: 1 ID: 0

Read mode : Secure
Utilize accurate stream : Yes
Defeat audio cache : Yes
Make use of C2 pointers : No

Read offset correction : 6
Overread into Lead-In and Lead-Out : No
Fill up missing offset samples with silence : Yes
Delete leading and trailing silent blocks : No
Null samples used in CRC calculations : Yes
Used interface : Native Win32 interface for Win NT & 2000
Gap handling : Appended to previous track

Used output format : User Defined Encoder
Selected bitrate : 1024 kBit/s
Quality : High
Add ID3 tag : No
Command line compressor : C:\Program Files (x86)\Exact Audio Copy\Flac\flac.exe
Additional command line options : -8 -V -T "ARTIST=%artist%" -T "TITLE=%title%" -T "ALBUM=%albumtitle%" -T "DATE=%year%" -T "TRACKNUMBER=%tracknr%" -T "GENRE=%genre%" -T "PERFORMER=%albuminterpret%" -T "COMPOSER=%composer%" %haslyrics%–tag-from-file=LYRICS="%lyricsfile%"%haslyrics% -T "ALBUMARTIST=%albumartist%" -T "DISCNUMBER=%cdnumber%" -T "TOTALDISCS=%totalcds%" -T "TOTALTRACKS=%numtracks%" -T "COMMENT=%comment%" %source% -o %dest%

TOC of the extracted CD

Track | Start | Length | Start sector | End sector
––––––––––––––––––––––––––––-
1 | 0:00.00 | 2:12.09 | 0 | 9908
2 | 2:12.09 | 2:08.09 | 9909 | 19517
3 | 4:20.18 | 3:41.00 | 19518 | 36092
4 | 8:01.18 | 2:45.05 | 36093 | 48472
5 | 10:46.23 | 2:16.47 | 48473 | 58719
6 | 13:02.70 | 2:21.26 | 58720 | 69320
7 | 15:24.21 | 1:51.25 | 69321 | 77670
8 | 17:15.46 | 2:38.62 | 77671 | 89582
9 | 19:54.33 | 2:27.08 | 89583 | 100615
10 | 22:21.41 | 2:59.47 | 100616 | 114087
11 | 25:21.13 | 2:52.38 | 114088 | 127025
12 | 28:13.51 | 2:46.54 | 127026 | 139529
13 | 31:00.30 | 3:03.28 | 139530 | 153282
14 | 34:03.58 | 2:49.42 | 153283 | 165999
15 | 36:53.25 | 4:29.60 | 166000 | 186234
16 | 41:23.10 | 2:10.35 | 186235 | 196019
17 | 43:33.45 | 3:17.42 | 196020 | 210836
18 | 46:51.12 | 2:19.52 | 210837 | 221313
19 | 49:10.64 | 2:38.44 | 221314 | 233207
20 | 51:49.33 | 2:56.68 | 233208 | 246475
21 | 54:46.26 | 3:37.20 | 246476 | 262770
22 | 58:23.46 | 2:38.63 | 262771 | 274683
23 | 61:02.34 | 3:18.59 | 274684 | 289592
24 | 64:21.18 | 3:06.30 | 289593 | 303572
25 | 67:27.48 | 2:42.00 | 303573 | 315722
26 | 70:09.48 | 3:04.14 | 315723 | 329536
27 | 73:13.62 | 2:02.62 | 329537 | 338748
28 | 75:16.49 | 3:10.04 | 338749 | 353002

Track 1

Filename D:\#cdr\#wav+flac\VA - Het Beste Uit 20 Jaar Top 2000\cd 1\01. Bill Haley And His Comets - Rock Around The Clock.wav

Pre-gap length 0:00:02.00

Peak level 96.6 %
Extraction speed 3.8 X
Track quality 99.9 %
Test CRC F0DF137A
Copy CRC F0DF137A
Track not present in AccurateRip database
Copy OK

Track 2

Filename D:\#cdr\#wav+flac\VA - Het Beste Uit 20 Jaar Top 2000\cd 1\02. Elvis Presley - Heartbreak Hotel.wav

Pre-gap length 0:00:01.00

Peak level 96.6 %
Extraction speed 4.0 X
Track quality 99.9 %
Test CRC 95385CFF
Copy CRC 95385CFF
Track not present in AccurateRip database
Copy OK

Track 3

Filename D:\#cdr\#wav+flac\VA - Het Beste Uit 20 Jaar Top 2000\cd 1\03. Frank Sinatra - I've Got You Under My Skin.wav

Pre-gap length 0:00:01.00

Peak level 96.6 %
Extraction speed 6.2 X
Track quality 100.0 %
Test CRC C46C505F
Copy CRC C46C505F
Track not present in AccurateRip database
Copy OK

Track 4

Filename D:\#cdr\#wav+flac\VA - Het Beste Uit 20 Jaar Top 2000\cd 1\04. Johnny Cash - I Walk The Line.wav

Pre-gap length 0:00:01.00

Peak level 96.6 %
Extraction speed 6.3 X
Track quality 100.0 %
Test CRC 06CD20D6
Copy CRC 06CD20D6
Track not present in AccurateRip database
Copy OK

Track 5

Filename D:\#cdr\#wav+flac\VA - Het Beste Uit 20 Jaar Top 2000\cd 1\05. Buddy Holly - That'll Be The Day.wav

Pre-gap length 0:00:01.00

Peak level 87.5 %
Extraction speed 6.2 X
Track quality 100.0 %
Test CRC A6E9BE33
Copy CRC A6E9BE33
Track not present in AccurateRip database
Copy OK

Track 6

Filename D:\#cdr\#wav+flac\VA - Het Beste Uit 20 Jaar Top 2000\cd 1\06. Fats Domino - Blueberry Hill.wav

Pre-gap length 0:00:01.00

Peak level 96.6 %
Extraction speed 6.4 X
Track quality 100.0 %
Test CRC EAEE24FD
Copy CRC EAEE24FD
Track not present in AccurateRip database
Copy OK

Track 7

Filename D:\#cdr\#wav+flac\VA - Het Beste Uit 20 Jaar Top 2000\cd 1\07. Jerry Lee Lewis - Great Balls Of Fire.wav

Pre-gap length 0:00:01.00

Peak level 96.6 %
Extraction speed 6.3 X
Track quality 100.0 %
Test CRC 31CF1423
Copy CRC 31CF1423
Track not present in AccurateRip database
Copy OK

Track 8

Filename D:\#cdr\#wav+flac\VA - Het Beste Uit 20 Jaar Top 2000\cd 1\08. Chuck Berry - Johnny B. Goode.wav

Pre-gap length 0:00:01.00

Peak level 96.6 %
Extraction speed 7.1 X
Track quality 100.0 %
Test CRC 3E1C9D8F
Copy CRC 3E1C9D8F
Track not present in AccurateRip database
Copy OK

Track 9

Filename D:\#cdr\#wav+flac\VA - Het Beste Uit 20 Jaar Top 2000\cd 1\09. Roy Orbison - Only The Lonely.wav

Pre-gap length 0:00:01.00

Peak level 96.6 %
Extraction speed 7.0 X
Track quality 100.0 %
Test CRC B02CCBA5
Copy CRC B02CCBA5
Track not present in AccurateRip database
Copy OK

Track 10

Filename D:\#cdr\#wav+flac\VA - Het Beste Uit 20 Jaar Top 2000\cd 1\10. Etta James - At Last.wav

Pre-gap length 0:00:01.00

Peak level 96.6 %
Extraction speed 6.1 X
Track quality 99.9 %
Test CRC 368E774B
Copy CRC 368E774B
Track not present in AccurateRip database
Copy OK

Track 11

Filename D:\#cdr\#wav+flac\VA - Het Beste Uit 20 Jaar Top 2000\cd 1\11. Booker T & The MG's - Green Unions.wav

Pre-gap length 0:00:01.00

Peak level 77.3 %
Extraction speed 7.8 X
Track quality 100.0 %
Test CRC FBF44520
Copy CRC FBF44520
Track not present in AccurateRip database
Copy OK

Track 12

Filename D:\#cdr\#wav+flac\VA - Het Beste Uit 20 Jaar Top 2000\cd 1\12. Bob Dylan - Blowin' In The Wind.wav

Pre-gap length 0:00:01.00

Peak level 96.6 %
Extraction speed 7.9 X
Track quality 100.0 %
Test CRC 5C398616
Copy CRC 5C398616
Track not present in AccurateRip database
Copy OK

Track 13

Filename D:\#cdr\#wav+flac\VA - Het Beste Uit 20 Jaar Top 2000\cd 1\13. Dusty Springfield - I Just Don't Know What To Do With Myself.wav

Pre-gap length 0:00:01.00

Peak level 96.6 %
Extraction speed 8.2 X
Track quality 100.0 %
Test CRC 2BB5C518
Copy CRC 2BB5C518
Track not present in AccurateRip database
Copy OK

Track 14

Filename D:\#cdr\#wav+flac\VA - Het Beste Uit 20 Jaar Top 2000\cd 1\14. The Temptations - My Girl.wav

Pre-gap length 0:00:01.00

Peak level 96.6 %
Extraction speed 8.4 X
Track quality 100.0 %
Test CRC A1A6E846
Copy CRC A1A6E846
Track not present in AccurateRip database
Copy OK

Track 15

Filename D:\#cdr\#wav+flac\VA - Het Beste Uit 20 Jaar Top 2000\cd 1\15. The Animals - House Of The Rising Sun.wav

Pre-gap length 0:00:01.00

Peak level 96.6 %
Extraction speed 9.2 X
Track quality 100.0 %
Test CRC 72DD838C
Copy CRC 72DD838C
Track not present in AccurateRip database
Copy OK

Track 16

Filename D:\#cdr\#wav+flac\VA - Het Beste Uit 20 Jaar Top 2000\cd 1\16. The Beach Boys - I Get Around.wav

Pre-gap length 0:00:01.00

Peak level 94.1 %
Extraction speed 6.1 X
Track quality 99.9 %
Test CRC 54270F87
Copy CRC 54270F87
Track not present in AccurateRip database
Copy OK

Track 17

Filename D:\#cdr\#wav+flac\VA - Het Beste Uit 20 Jaar Top 2000\cd 1\17. The Who - My Generation.wav

Pre-gap length 0:00:01.00

Peak level 93.7 %
Extraction speed 7.4 X
Track quality 99.9 %
Test CRC D9B4928F
Copy CRC D9B4928F
Track not present in AccurateRip database
Copy OK

Track 18

Filename D:\#cdr\#wav+flac\VA - Het Beste Uit 20 Jaar Top 2000\cd 1\18. The Byrds - Mr. Tambourine Man.wav

Pre-gap length 0:00:01.00

Peak level 96.6 %
Extraction speed 8.9 X
Track quality 100.0 %
Test CRC 1887972C
Copy CRC 1887972C
Track not present in AccurateRip database
Copy OK

Track 19

Filename D:\#cdr\#wav+flac\VA - Het Beste Uit 20 Jaar Top 2000\cd 1\19. The Mamas & The Papas - California Dreamin'.wav

Pre-gap length 0:00:01.00

Peak level 78.4 %
Extraction speed 9.3 X
Track quality 100.0 %
Test CRC A0601E51
Copy CRC A0601E51
Track not present in AccurateRip database
Copy OK

Track 20

Filename D:\#cdr\#wav+flac\VA - Het Beste Uit 20 Jaar Top 2000\cd 1\20. Golden Earring - Please Go.wav

Pre-gap length 0:00:01.00

Peak level 96.6 %
Extraction speed 9.5 X
Track quality 100.0 %
Test CRC E2BA3ED0
Copy CRC E2BA3ED0
Track not present in AccurateRip database
Copy OK

Track 21

Filename D:\#cdr\#wav+flac\VA - Het Beste Uit 20 Jaar Top 2000\cd 1\21. The Righteous Brothers - Unchained Melody.wav

Pre-gap length 0:00:01.00

Peak level 96.6 %
Extraction speed 10.2 X
Track quality 100.0 %
Test CRC 3F605ACA
Copy CRC 3F605ACA
Track not present in AccurateRip database
Copy OK

Track 22

Filename D:\#cdr\#wav+flac\VA - Het Beste Uit 20 Jaar Top 2000\cd 1\22. The Lovin' Spoonful - Summer In The City.wav

Pre-gap length 0:00:01.00

Peak level 96.6 %
Extraction speed 9.8 X
Track quality 100.0 %
Test CRC F9315AF2
Copy CRC F9315AF2
Track not present in AccurateRip database
Copy OK

Track 23

Filename D:\#cdr\#wav+flac\VA - Het Beste Uit 20 Jaar Top 2000\cd 1\23. Otis Redding - Try A Little Tenderness.wav

Pre-gap length 0:00:01.00

Peak level 96.6 %
Extraction speed 10.3 X
Track quality 100.0 %
Test CRC F3380F06
Copy CRC F3380F06
Track not present in AccurateRip database
Copy OK

Track 24

Filename D:\#cdr\#wav+flac\VA - Het Beste Uit 20 Jaar Top 2000\cd 1\24. Simon & Garfunkel - The Sound Of Silence.wav

Pre-gap length 0:00:01.00

Peak level 96.6 %
Extraction speed 10.2 X
Track quality 100.0 %
Test CRC 86E667EC
Copy CRC 86E667EC
Track not present in AccurateRip database
Copy OK

Track 25

Filename D:\#cdr\#wav+flac\VA - Het Beste Uit 20 Jaar Top 2000\cd 1\25. The Spencer Davis Group - Keep On Running.wav

Pre-gap length 0:00:01.00

Peak level 94.0 %
Extraction speed 7.8 X
Track quality 99.9 %
Test CRC BD1E3E8F
Copy CRC BD1E3E8F
Track not present in AccurateRip database
Copy OK

Track 26

Filename D:\#cdr\#wav+flac\VA - Het Beste Uit 20 Jaar Top 2000\cd 1\26. Tom Jones - Green Green Grass Of Home.wav

Pre-gap length 0:00:01.00

Peak level 96.6 %
Extraction speed 10.6 X
Track quality 100.0 %
Test CRC 45437E49
Copy CRC 45437E49
Track not present in AccurateRip database
Copy OK

Track 27

Filename D:\#cdr\#wav+flac\VA - Het Beste Uit 20 Jaar Top 2000\cd 1\27. Tim Hardin - How Can We Hang On To A Dream.wav

Pre-gap length 0:00:01.00

Peak level 96.1 %
Extraction speed 7.2 X
Track quality 99.9 %
Test CRC 48A096F1
Copy CRC 48A096F1
Track not present in AccurateRip database
Copy OK

Track 28

Filename D:\#cdr\#wav+flac\VA - Het Beste Uit 20 Jaar Top 2000\cd 1\28. The Walker Brothers - The Sun Ain't Gonna Shine Anymore.wav

Pre-gap length 0:00:01.00

Peak level 96.6 %
Extraction speed 6.1 X
Track quality 100.0 %
Test CRC A2BE8AE9
Copy CRC A2BE8AE9
Track not present in AccurateRip database
Copy OK

None of the tracks are present in the AccurateRip database

No errors occurred

End of status report

–– CUETools DB Plugin V2.1.6

[CTDB TOCID: CLOpGKvDDA_Nt9DBKwDsKC.dATM-] disk not present in database
Submit result: CLOpGKvDDA_Nt9DBKwDsKC.dATM- has been uploaded

==== Log checksum 5D4266BC75B9AAAD534A6B8257112E00B5A7339C52629FF642F011BDDCD10542 ====

––––––––––––––––––––––––––––––

Exact Audio Copy V1.3 from 2. September 2016

EAC extraction logfile from 21. December 2019, 11:41

Various Artists / Het Beste Uit 20 Jaar Top 2000

Used drive : PLEXTOR PX-891SAF Adapter: 1 ID: 0

Read mode : Secure
Utilize accurate stream : Yes
Defeat audio cache : Yes
Make use of C2 pointers : No

Read offset correction : 6
Overread into Lead-In and Lead-Out : No
Fill up missing offset samples with silence : Yes
Delete leading and trailing silent blocks : No
Null samples used in CRC calculations : Yes
Used interface : Native Win32 interface for Win NT & 2000
Gap handling : Appended to previous track

Used output format : User Defined Encoder
Selected bitrate : 1024 kBit/s
Quality : High
Add ID3 tag : No
Command line compressor : C:\Program Files (x86)\Exact Audio Copy\Flac\flac.exe
Additional command line options : -8 -V -T "ARTIST=%artist%" -T "TITLE=%title%" -T "ALBUM=%albumtitle%" -T "DATE=%year%" -T "TRACKNUMBER=%tracknr%" -T "GENRE=%genre%" -T "PERFORMER=%albuminterpret%" -T "COMPOSER=%composer%" %haslyrics%–tag-from-file=LYRICS="%lyricsfile%"%haslyrics% -T "ALBUMARTIST=%albumartist%" -T "DISCNUMBER=%cdnumber%" -T "TOTALDISCS=%totalcds%" -T "TOTALTRACKS=%numtracks%" -T "COMMENT=%comment%" %source% -o %dest%

TOC of the extracted CD

Track | Start | Length | Start sector | End sector
––––––––––––––––––––––––––––-
1 | 0:00.00 | 2:12.09 | 0 | 9908
2 | 2:12.09 | 2:08.09 | 9909 | 19517
3 | 4:20.18 | 3:41.00 | 19518 | 36092
4 | 8:01.18 | 2:45.05 | 36093 | 48472
5 | 10:46.23 | 2:16.47 | 48473 | 58719
6 | 13:02.70 | 2:21.26 | 58720 | 69320
7 | 15:24.21 | 1:51.25 | 69321 | 77670
8 | 17:15.46 | 2:38.62 | 77671 | 89582
9 | 19:54.33 | 2:27.08 | 89583 | 100615
10 | 22:21.41 | 2:59.47 | 100616 | 114087
11 | 25:21.13 | 2:52.38 | 114088 | 127025
12 | 28:13.51 | 2:46.54 | 127026 | 139529
13 | 31:00.30 | 3:03.28 | 139530 | 153282
14 | 34:03.58 | 2:49.42 | 153283 | 165999
15 | 36:53.25 | 4:29.60 | 166000 | 186234
16 | 41:23.10 | 2:10.35 | 186235 | 196019
17 | 43:33.45 | 3:17.42 | 196020 | 210836
18 | 46:51.12 | 2:19.52 | 210837 | 221313
19 | 49:10.64 | 2:38.44 | 221314 | 233207
20 | 51:49.33 | 2:56.68 | 233208 | 246475
21 | 54:46.26 | 3:37.20 | 246476 | 262770
22 | 58:23.46 | 2:38.63 | 262771 | 274683
23 | 61:02.34 | 3:18.59 | 274684 | 289592
24 | 64:21.18 | 3:06.30 | 289593 | 303572
25 | 67:27.48 | 2:42.00 | 303573 | 315722
26 | 70:09.48 | 3:04.14 | 315723 | 329536
27 | 73:13.62 | 2:02.62 | 329537 | 338748
28 | 75:16.49 | 3:10.04 | 338749 | 353002

Track 1

Filename D:\#cdr\#wav+flac\VA - Het Beste Uit 20 Jaar Top 2000\cd 1\01. Bill Haley And His Comets - Rock Around The Clock.wav

Pre-gap length 0:00:02.00

Peak level 96.6 %
Extraction speed 3.8 X
Track quality 99.9 %
Test CRC F0DF137A
Copy CRC F0DF137A
Track not present in AccurateRip database
Copy OK

Track 2

Filename D:\#cdr\#wav+flac\VA - Het Beste Uit 20 Jaar Top 2000\cd 1\02. Elvis Presley - Heartbreak Hotel.wav

Pre-gap length 0:00:01.00

Peak level 96.6 %
Extraction speed 4.0 X
Track quality 99.9 %
Test CRC 95385CFF
Copy CRC 95385CFF
Track not present in AccurateRip database
Copy OK

Track 3

Filename D:\#cdr\#wav+flac\VA - Het Beste Uit 20 Jaar Top 2000\cd 1\03. Frank Sinatra - I've Got You Under My Skin.wav

Pre-gap length 0:00:01.00

Peak level 96.6 %
Extraction speed 6.2 X
Track quality 100.0 %
Test CRC C46C505F
Copy CRC C46C505F
Track not present in AccurateRip database
Copy OK

Track 4

Filename D:\#cdr\#wav+flac\VA - Het Beste Uit 20 Jaar Top 2000\cd 1\04. Johnny Cash - I Walk The Line.wav

Pre-gap length 0:00:01.00

Peak level 96.6 %
Extraction speed 6.3 X
Track quality 100.0 %
Test CRC 06CD20D6
Copy CRC 06CD20D6
Track not present in AccurateRip database
Copy OK

Track 5

Filename D:\#cdr\#wav+flac\VA - Het Beste Uit 20 Jaar Top 2000\cd 1\05. Buddy Holly - That'll Be The Day.wav

Pre-gap length 0:00:01.00

Peak level 87.5 %
Extraction speed 6.2 X
Track quality 100.0 %
Test CRC A6E9BE33
Copy CRC A6E9BE33
Track not present in AccurateRip database
Copy OK

Track 6

Filename D:\#cdr\#wav+flac\VA - Het Beste Uit 20 Jaar Top 2000\cd 1\06. Fats Domino - Blueberry Hill.wav

Pre-gap length 0:00:01.00

Peak level 96.6 %
Extraction speed 6.4 X
Track quality 100.0 %
Test CRC EAEE24FD
Copy CRC EAEE24FD
Track not present in AccurateRip database
Copy OK

Track 7

Filename D:\#cdr\#wav+flac\VA - Het Beste Uit 20 Jaar Top 2000\cd 1\07. Jerry Lee Lewis - Great Balls Of Fire.wav

Pre-gap length 0:00:01.00

Peak level 96.6 %
Extraction speed 6.3 X
Track quality 100.0 %
Test CRC 31CF1423
Copy CRC 31CF1423
Track not present in AccurateRip database
Copy OK

Track 8

Filename D:\#cdr\#wav+flac\VA - Het Beste Uit 20 Jaar Top 2000\cd 1\08. Chuck Berry - Johnny B. Goode.wav

Pre-gap length 0:00:01.00

Peak level 96.6 %
Extraction speed 7.1 X
Track quality 100.0 %
Test CRC 3E1C9D8F
Copy CRC 3E1C9D8F
Track not present in AccurateRip database
Copy OK

Track 9

Filename D:\#cdr\#wav+flac\VA - Het Beste Uit 20 Jaar Top 2000\cd 1\09. Roy Orbison - Only The Lonely.wav

Pre-gap length 0:00:01.00

Peak level 96.6 %
Extraction speed 7.0 X
Track quality 100.0 %
Test CRC B02CCBA5
Copy CRC B02CCBA5
Track not present in AccurateRip database
Copy OK

Track 10

Filename D:\#cdr\#wav+flac\VA - Het Beste Uit 20 Jaar Top 2000\cd 1\10. Etta James - At Last.wav

Pre-gap length 0:00:01.00

Peak level 96.6 %
Extraction speed 6.1 X
Track quality 99.9 %
Test CRC 368E774B
Copy CRC 368E774B
Track not present in AccurateRip database
Copy OK

Track 11

Filename D:\#cdr\#wav+flac\VA - Het Beste Uit 20 Jaar Top 2000\cd 1\11. Booker T & The MG's - Green Unions.wav

Pre-gap length 0:00:01.00

Peak level 77.3 %
Extraction speed 7.8 X
Track quality 100.0 %
Test CRC FBF44520
Copy CRC FBF44520
Track not present in AccurateRip database
Copy OK

Track 12

Filename D:\#cdr\#wav+flac\VA - Het Beste Uit 20 Jaar Top 2000\cd 1\12. Bob Dylan - Blowin' In The Wind.wav

Pre-gap length 0:00:01.00

Peak level 96.6 %
Extraction speed 7.9 X
Track quality 100.0 %
Test CRC 5C398616
Copy CRC 5C398616
Track not present in AccurateRip database
Copy OK

Track 13

Filename D:\#cdr\#wav+flac\VA - Het Beste Uit 20 Jaar Top 2000\cd 1\13. Dusty Springfield - I Just Don't Know What To Do With Myself.wav

Pre-gap length 0:00:01.00

Peak level 96.6 %
Extraction speed 8.2 X
Track quality 100.0 %
Test CRC 2BB5C518
Copy CRC 2BB5C518
Track not present in AccurateRip database
Copy OK

Track 14

Filename D:\#cdr\#wav+flac\VA - Het Beste Uit 20 Jaar Top 2000\cd 1\14. The Temptations - My Girl.wav

Pre-gap length 0:00:01.00

Peak level 96.6 %
Extraction speed 8.4 X
Track quality 100.0 %
Test CRC A1A6E846
Copy CRC A1A6E846
Track not present in AccurateRip database
Copy OK

Track 15

Filename D:\#cdr\#wav+flac\VA - Het Beste Uit 20 Jaar Top 2000\cd 1\15. The Animals - House Of The Rising Sun.wav

Pre-gap length 0:00:01.00

Peak level 96.6 %
Extraction speed 9.2 X
Track quality 100.0 %
Test CRC 72DD838C
Copy CRC 72DD838C
Track not present in AccurateRip database
Copy OK

Track 16

Filename D:\#cdr\#wav+flac\VA - Het Beste Uit 20 Jaar Top 2000\cd 1\16. The Beach Boys - I Get Around.wav

Pre-gap length 0:00:01.00

Peak level 94.1 %
Extraction speed 6.1 X
Track quality 99.9 %
Test CRC 54270F87
Copy CRC 54270F87
Track not present in AccurateRip database
Copy OK

Track 17

Filename D:\#cdr\#wav+flac\VA - Het Beste Uit 20 Jaar Top 2000\cd 1\17. The Who - My Generation.wav

Pre-gap length 0:00:01.00

Peak level 93.7 %
Extraction speed 7.4 X
Track quality 99.9 %
Test CRC D9B4928F
Copy CRC D9B4928F
Track not present in AccurateRip database
Copy OK

Track 18

Filename D:\#cdr\#wav+flac\VA - Het Beste Uit 20 Jaar Top 2000\cd 1\18. The Byrds - Mr. Tambourine Man.wav

Pre-gap length 0:00:01.00

Peak level 96.6 %
Extraction speed 8.9 X
Track quality 100.0 %
Test CRC 1887972C
Copy CRC 1887972C
Track not present in AccurateRip database
Copy OK

Track 19

Filename D:\#cdr\#wav+flac\VA - Het Beste Uit 20 Jaar Top 2000\cd 1\19. The Mamas & The Papas - California Dreamin'.wav

Pre-gap length 0:00:01.00

Peak level 78.4 %
Extraction speed 9.3 X
Track quality 100.0 %
Test CRC A0601E51
Copy CRC A0601E51
Track not present in AccurateRip database
Copy OK

Track 20

Filename D:\#cdr\#wav+flac\VA - Het Beste Uit 20 Jaar Top 2000\cd 1\20. Golden Earring - Please Go.wav

Pre-gap length 0:00:01.00

Peak level 96.6 %
Extraction speed 9.5 X
Track quality 100.0 %
Test CRC E2BA3ED0
Copy CRC E2BA3ED0
Track not present in AccurateRip database
Copy OK

Track 21

Filename D:\#cdr\#wav+flac\VA - Het Beste Uit 20 Jaar Top 2000\cd 1\21. The Righteous Brothers - Unchained Melody.wav

Pre-gap length 0:00:01.00

Peak level 96.6 %
Extraction speed 10.2 X
Track quality 100.0 %
Test CRC 3F605ACA
Copy CRC 3F605ACA
Track not present in AccurateRip database
Copy OK

Track 22

Filename D:\#cdr\#wav+flac\VA - Het Beste Uit 20 Jaar Top 2000\cd 1\22. The Lovin' Spoonful - Summer In The City.wav

Pre-gap length 0:00:01.00

Peak level 96.6 %
Extraction speed 9.8 X
Track quality 100.0 %
Test CRC F9315AF2
Copy CRC F9315AF2
Track not present in AccurateRip database
Copy OK

Track 23

Filename D:\#cdr\#wav+flac\VA - Het Beste Uit 20 Jaar Top 2000\cd 1\23. Otis Redding - Try A Little Tenderness.wav

Pre-gap length 0:00:01.00

Peak level 96.6 %
Extraction speed 10.3 X
Track quality 100.0 %
Test CRC F3380F06
Copy CRC F3380F06
Track not present in AccurateRip database
Copy OK

Track 24

Filename D:\#cdr\#wav+flac\VA - Het Beste Uit 20 Jaar Top 2000\cd 1\24. Simon & Garfunkel - The Sound Of Silence.wav

Pre-gap length 0:00:01.00

Peak level 96.6 %
Extraction speed 10.2 X
Track quality 100.0 %
Test CRC 86E667EC
Copy CRC 86E667EC
Track not present in AccurateRip database
Copy OK

Track 25

Filename D:\#cdr\#wav+flac\VA - Het Beste Uit 20 Jaar Top 2000\cd 1\25. The Spencer Davis Group - Keep On Running.wav

Pre-gap length 0:00:01.00

Peak level 94.0 %
Extraction speed 7.8 X
Track quality 99.9 %
Test CRC BD1E3E8F
Copy CRC BD1E3E8F
Track not present in AccurateRip database
Copy OK

Track 26

Filename D:\#cdr\#wav+flac\VA - Het Beste Uit 20 Jaar Top 2000\cd 1\26. Tom Jones - Green Green Grass Of Home.wav

Pre-gap length 0:00:01.00

Peak level 96.6 %
Extraction speed 10.6 X
Track quality 100.0 %
Test CRC 45437E49
Copy CRC 45437E49
Track not present in AccurateRip database
Copy OK

Track 27

Filename D:\#cdr\#wav+flac\VA - Het Beste Uit 20 Jaar Top 2000\cd 1\27. Tim Hardin - How Can We Hang On To A Dream.wav

Pre-gap length 0:00:01.00

Peak level 96.1 %
Extraction speed 7.2 X
Track quality 99.9 %
Test CRC 48A096F1
Copy CRC 48A096F1
Track not present in AccurateRip database
Copy OK

Track 28

Filename D:\#cdr\#wav+flac\VA - Het Beste Uit 20 Jaar Top 2000\cd 1\28. The Walker Brothers - The Sun Ain't Gonna Shine Anymore.wav

Pre-gap length 0:00:01.00

Peak level 96.6 %
Extraction speed 6.1 X
Track quality 100.0 %
Test CRC A2BE8AE9
Copy CRC A2BE8AE9
Track not present in AccurateRip database
Copy OK

None of the tracks are present in the AccurateRip database

No errors occurred

End of status report

–– CUETools DB Plugin V2.1.6

[CTDB TOCID: CLOpGKvDDA_Nt9DBKwDsKC.dATM-] disk not present in database
Submit result: CLOpGKvDDA_Nt9DBKwDsKC.dATM- has been uploaded

==== Log checksum 5D4266BC75B9AAAD534A6B8257112E00B5A7339C52629FF642F011BDDCD10542 ====

============================================================================================

Exact Audio Copy V1.3 from 2. September 2016

EAC extraction logfile from 22. December 2019, 8:21

Various Artists / Het Beste Uit 20 Jaar Top 2000

Used drive : PLEXTOR PX-891SAF Adapter: 1 ID: 0

Read mode : Secure
Utilize accurate stream : Yes
Defeat audio cache : Yes
Make use of C2 pointers : No

Read offset correction : 6
Overread into Lead-In and Lead-Out : No
Fill up missing offset samples with silence : Yes
Delete leading and trailing silent blocks : No
Null samples used in CRC calculations : Yes
Used interface : Native Win32 interface for Win NT & 2000
Gap handling : Appended to previous track

Used output format : User Defined Encoder
Selected bitrate : 1024 kBit/s
Quality : High
Add ID3 tag : No
Command line compressor : C:\Program Files (x86)\Exact Audio Copy\Flac\flac.exe
Additional command line options : -8 -V -T "ARTIST=%artist%" -T "TITLE=%title%" -T "ALBUM=%albumtitle%" -T "DATE=%year%" -T "TRACKNUMBER=%tracknr%" -T "GENRE=%genre%" -T "PERFORMER=%albuminterpret%" -T "COMPOSER=%composer%" %haslyrics%–tag-from-file=LYRICS="%lyricsfile%"%haslyrics% -T "ALBUMARTIST=%albumartist%" -T "DISCNUMBER=%cdnumber%" -T "TOTALDISCS=%totalcds%" -T "TOTALTRACKS=%numtracks%" -T "COMMENT=%comment%" %source% -o %dest%

TOC of the extracted CD

Track | Start | Length | Start sector | End sector
––––––––––––––––––––––––––––-
1 | 0:00.00 | 2:46.03 | 0 | 12452
2 | 2:46.03 | 4:24.23 | 12453 | 32275
3 | 7:10.26 | 2:23.70 | 32276 | 43070
4 | 9:34.21 | 2:36.57 | 43071 | 54827
5 | 12:11.03 | 2:32.28 | 54828 | 66255
6 | 14:43.31 | 2:39.20 | 66256 | 78200
7 | 17:22.51 | 4:35.40 | 78201 | 98865
8 | 21:58.16 | 3:48.27 | 98866 | 115992
9 | 25:46.43 | 3:22.41 | 115993 | 131183
10 | 29:09.09 | 3:27.52 | 131184 | 146760
11 | 32:36.61 | 3:27.64 | 146761 | 162349
12 | 36:04.50 | 3:54.66 | 162350 | 179965
13 | 39:59.41 | 2:13.31 | 179966 | 189971
14 | 42:12.72 | 3:05.40 | 189972 | 203886
15 | 45:18.37 | 4:34.10 | 203887 | 224446
16 | 49:52.47 | 3:12.05 | 224447 | 238851
17 | 53:04.52 | 4:01.51 | 238852 | 256977
18 | 57:06.28 | 2:38.45 | 256978 | 268872
19 | 59:44.73 | 3:47.55 | 268873 | 285952
20 | 63:32.53 | 2:20.71 | 285953 | 296523
21 | 65:53.49 | 4:47.68 | 296524 | 318116
22 | 70:41.42 | 4:02.33 | 318117 | 336299
23 | 74:44.00 | 3:32.10 | 336300 | 352209

Track 1

Filename D:\#cdr\#wav+flac\VA - Het Beste Uit 20 Jaar Top 2000\cd 02\01. The Monkees - I'm A Believer.wav

Pre-gap length 0:00:02.00

Peak level 98.2 %
Extraction speed 3.7 X
Track quality 100.0 %
Test CRC 5DB622FA
Copy CRC 5DB622FA
Track not present in AccurateRip database
Copy OK

Track 2

Filename D:\#cdr\#wav+flac\VA - Het Beste Uit 20 Jaar Top 2000\cd 02\02. The Moody Blues - Nights In White Satin.wav

Pre-gap length 0:00:01.00

Peak level 96.6 %
Extraction speed 4.2 X
Track quality 100.0 %
Test CRC 55DABBCC
Copy CRC 55DABBCC
Track not present in AccurateRip database
Copy OK

Track 3

Filename D:\#cdr\#wav+flac\VA - Het Beste Uit 20 Jaar Top 2000\cd 02\03. Aretha Franklin - Respect.wav

Pre-gap length 0:00:01.00

Peak level 96.6 %
Extraction speed 4.1 X
Track quality 100.0 %
Test CRC 82E9023F
Copy CRC 82E9023F
Track not present in AccurateRip database
Copy OK

Track 4

Filename D:\#cdr\#wav+flac\VA - Het Beste Uit 20 Jaar Top 2000\cd 02\04. Buffalo Springfield - For What It's Worth.wav

Pre-gap length 0:00:01.00

Peak level 96.6 %
Extraction speed 4.4 X
Track quality 100.0 %
Test CRC 856BDC79
Copy CRC 856BDC79
Track not present in AccurateRip database
Copy OK

Track 5

Filename D:\#cdr\#wav+flac\VA - Het Beste Uit 20 Jaar Top 2000\cd 02\05. Jefferson Airplane - White Rabbit.wav

Pre-gap length 0:00:01.00

Peak level 96.6 %
Extraction speed 3.4 X
Track quality 99.9 %
Test CRC 5B16EC8B
Copy CRC 5B16EC8B
Track not present in AccurateRip database
Copy OK

Track 6

Filename D:\#cdr\#wav+flac\VA - Het Beste Uit 20 Jaar Top 2000\cd 02\06. Sam & Dave - Soul Man.wav

Pre-gap length 0:00:01.00

Peak level 96.6 %
Extraction speed 4.7 X
Track quality 100.0 %
Test CRC F29399FF
Copy CRC F29399FF
Track not present in AccurateRip database
Copy OK

Track 7

Filename D:\#cdr\#wav+flac\VA - Het Beste Uit 20 Jaar Top 2000\cd 02\07. The Band - The Weight.wav

Pre-gap length 0:00:01.00

Peak level 96.6 %
Extraction speed 4.4 X
Track quality 99.9 %
Test CRC 7CC7C8A5
Copy CRC 7CC7C8A5
Track not present in AccurateRip database
Copy OK

Track 8

Filename D:\#cdr\#wav+flac\VA - Het Beste Uit 20 Jaar Top 2000\cd 02\08. Leonard Cohen - Suzanne.wav

Pre-gap length 0:00:01.00

Peak level 96.1 %
Extraction speed 5.5 X
Track quality 100.0 %
Test CRC 27E1A33C
Copy CRC 27E1A33C
Track not present in AccurateRip database
Copy OK

Track 9

Filename D:\#cdr\#wav+flac\VA - Het Beste Uit 20 Jaar Top 2000\cd 02\09. Canned Heat - On The Road Again.wav

Pre-gap length 0:00:01.00

Peak level 74.1 %
Extraction speed 5.5 X
Track quality 100.0 %
Test CRC 557A626C
Copy CRC 557A626C
Track not present in AccurateRip database
Copy OK

Track 10

Filename D:\#cdr\#wav+flac\VA - Het Beste Uit 20 Jaar Top 2000\cd 02\10. Cuby & The Blizzards - Window Of My Eyes.wav

Pre-gap length 0:00:01.00

Peak level 82.8 %
Extraction speed 5.8 X
Track quality 100.0 %
Test CRC 61127683
Copy CRC 61127683
Track not present in AccurateRip database
Copy OK

Track 11

Filename D:\#cdr\#wav+flac\VA - Het Beste Uit 20 Jaar Top 2000\cd 02\11. Steppenwolf - Born To Be Wild.wav

Pre-gap length 0:00:01.00

Peak level 77.8 %
Extraction speed 5.9 X
Track quality 100.0 %
Test CRC 5DE6F91F
Copy CRC 5DE6F91F
Track not present in AccurateRip database
Copy OK

Track 12

Filename D:\#cdr\#wav+flac\VA - Het Beste Uit 20 Jaar Top 2000\cd 02\12. Fleetwood Mac - Need Your Love So Bad.wav

Pre-gap length 0:00:01.00

Peak level 78.4 %
Extraction speed 6.2 X
Track quality 100.0 %
Test CRC BD5EADFC
Copy CRC BD5EADFC
Track not present in AccurateRip database
Copy OK

Track 13

Filename D:\#cdr\#wav+flac\VA - Het Beste Uit 20 Jaar Top 2000\cd 02\13. Nina Simone - Ain't Got No, I Got Life.wav

Pre-gap length 0:00:01.00

Peak level 96.6 %
Extraction speed 4.2 X
Track quality 99.9 %
Test CRC 66413D62
Copy CRC 66413D62
Track not present in AccurateRip database
Copy OK

Track 14

Filename D:\#cdr\#wav+flac\VA - Het Beste Uit 20 Jaar Top 2000\cd 02\14. Glen Campbell - Wichita Lineman.wav

Pre-gap length 0:00:00.98

Peak level 87.5 %
Extraction speed 6.3 X
Track quality 100.0 %
Test CRC 97A19DB2
Copy CRC 97A19DB2
Track not present in AccurateRip database
Copy OK

Track 15

Filename D:\#cdr\#wav+flac\VA - Het Beste Uit 20 Jaar Top 2000\cd 02\15. Barry Ryan - Eloise.wav

Pre-gap length 0:00:01.00

Peak level 80.3 %
Extraction speed 6.8 X
Track quality 100.0 %
Test CRC 4B6C9A1B
Copy CRC 4B6C9A1B
Track not present in AccurateRip database
Copy OK

Track 16

Filename D:\#cdr\#wav+flac\VA - Het Beste Uit 20 Jaar Top 2000\cd 02\16. Marvin Gaye - I Heard It Through The Grapevine.wav

Pre-gap length 0:00:00.98

Peak level 96.6 %
Extraction speed 6.7 X
Track quality 100.0 %
Test CRC DD699558
Copy CRC DD699558
Track not present in AccurateRip database
Copy OK

Track 17

Filename D:\#cdr\#wav+flac\VA - Het Beste Uit 20 Jaar Top 2000\cd 02\17. B.B. King - The Thrill Is Gone.wav

Pre-gap length 0:00:01.00

Peak level 96.6 %
Extraction speed 5.7 X
Track quality 99.9 %
Test CRC 58A8C014
Copy CRC 58A8C014
Track not present in AccurateRip database
Copy OK

Track 18

Filename D:\#cdr\#wav+flac\VA - Het Beste Uit 20 Jaar Top 2000\cd 02\18. Brainbox - Down Man.wav

Pre-gap length 0:00:01.00

Peak level 96.4 %
Extraction speed 6.7 X
Track quality 100.0 %
Test CRC 552E5936
Copy CRC 552E5936
Track not present in AccurateRip database
Copy OK

Track 19

Filename D:\#cdr\#wav+flac\VA - Het Beste Uit 20 Jaar Top 2000\cd 02\19. David Bowie - Space Oddity.wav

Pre-gap length 0:00:01.00

Peak level 74.4 %
Extraction speed 5.8 X
Track quality 99.9 %
Test CRC 851BE2EE
Copy CRC 851BE2EE
Track not present in AccurateRip database
Copy OK

Track 20

Filename D:\#cdr\#wav+flac\VA - Het Beste Uit 20 Jaar Top 2000\cd 02\20. Frans Halsema - Zondagmiddag Buitenveldert.wav

Pre-gap length 0:00:01.00

Peak level 96.6 %
Extraction speed 6.7 X
Track quality 100.0 %
Test CRC 6605BB2F
Copy CRC 6605BB2F
Track not present in AccurateRip database
Copy OK

Track 21

Filename D:\#cdr\#wav+flac\VA - Het Beste Uit 20 Jaar Top 2000\cd 02\21. The Fifth Dimension - Aquarius - Let The Sun Shine In.wav

Pre-gap length 0:00:00.98

Peak level 96.6 %
Extraction speed 7.8 X
Track quality 100.0 %
Test CRC 41193DE8
Copy CRC 41193DE8
Track not present in AccurateRip database
Copy OK

Track 22

Filename D:\#cdr\#wav+flac\VA - Het Beste Uit 20 Jaar Top 2000\cd 02\22. George Baker Selection - Little Green Bag.wav

Pre-gap length 0:00:00.98

Peak level 96.6 %
Extraction speed 7.7 X
Track quality 100.0 %
Test CRC 5EC59472
Copy CRC 5EC59472
Track not present in AccurateRip database
Copy OK

Track 23

Filename D:\#cdr\#wav+flac\VA - Het Beste Uit 20 Jaar Top 2000\cd 02\23. Melanie - Beautiful People.wav

Pre-gap length 0:00:01.00

Peak level 96.6 %
Extraction speed 6.2 X
Track quality 99.9 %
Test CRC F924D7E7
Copy CRC F924D7E7
Track not present in AccurateRip database
Copy OK

None of the tracks are present in the AccurateRip database

No errors occurred

End of status report

–– CUETools DB Plugin V2.1.6

[CTDB TOCID: ErXfEEyTC4OV6Oqco.Z7tHUzwk8-] disk not present in database
Submit result: ErXfEEyTC4OV6Oqco.Z7tHUzwk8- has been uploaded

==== Log checksum 54F36CBB5D5F5CC260DC56A4616D0E64A98FBC65756B4B6620B178CFE5C9C89C ====

––––––––––––––––––––––––––––––

Exact Audio Copy V1.3 from 2. September 2016

EAC extraction logfile from 22. December 2019, 8:21

Various Artists / Het Beste Uit 20 Jaar Top 2000

Used drive : PLEXTOR PX-891SAF Adapter: 1 ID: 0

Read mode : Secure
Utilize accurate stream : Yes
Defeat audio cache : Yes
Make use of C2 pointers : No

Read offset correction : 6
Overread into Lead-In and Lead-Out : No
Fill up missing offset samples with silence : Yes
Delete leading and trailing silent blocks : No
Null samples used in CRC calculations : Yes
Used interface : Native Win32 interface for Win NT & 2000
Gap handling : Appended to previous track

Used output format : User Defined Encoder
Selected bitrate : 1024 kBit/s
Quality : High
Add ID3 tag : No
Command line compressor : C:\Program Files (x86)\Exact Audio Copy\Flac\flac.exe
Additional command line options : -8 -V -T "ARTIST=%artist%" -T "TITLE=%title%" -T "ALBUM=%albumtitle%" -T "DATE=%year%" -T "TRACKNUMBER=%tracknr%" -T "GENRE=%genre%" -T "PERFORMER=%albuminterpret%" -T "COMPOSER=%composer%" %haslyrics%–tag-from-file=LYRICS="%lyricsfile%"%haslyrics% -T "ALBUMARTIST=%albumartist%" -T "DISCNUMBER=%cdnumber%" -T "TOTALDISCS=%totalcds%" -T "TOTALTRACKS=%numtracks%" -T "COMMENT=%comment%" %source% -o %dest%

TOC of the extracted CD

Track | Start | Length | Start sector | End sector
––––––––––––––––––––––––––––-
1 | 0:00.00 | 2:46.03 | 0 | 12452
2 | 2:46.03 | 4:24.23 | 12453 | 32275
3 | 7:10.26 | 2:23.70 | 32276 | 43070
4 | 9:34.21 | 2:36.57 | 43071 | 54827
5 | 12:11.03 | 2:32.28 | 54828 | 66255
6 | 14:43.31 | 2:39.20 | 66256 | 78200
7 | 17:22.51 | 4:35.40 | 78201 | 98865
8 | 21:58.16 | 3:48.27 | 98866 | 115992
9 | 25:46.43 | 3:22.41 | 115993 | 131183
10 | 29:09.09 | 3:27.52 | 131184 | 146760
11 | 32:36.61 | 3:27.64 | 146761 | 162349
12 | 36:04.50 | 3:54.66 | 162350 | 179965
13 | 39:59.41 | 2:13.31 | 179966 | 189971
14 | 42:12.72 | 3:05.40 | 189972 | 203886
15 | 45:18.37 | 4:34.10 | 203887 | 224446
16 | 49:52.47 | 3:12.05 | 224447 | 238851
17 | 53:04.52 | 4:01.51 | 238852 | 256977
18 | 57:06.28 | 2:38.45 | 256978 | 268872
19 | 59:44.73 | 3:47.55 | 268873 | 285952
20 | 63:32.53 | 2:20.71 | 285953 | 296523
21 | 65:53.49 | 4:47.68 | 296524 | 318116
22 | 70:41.42 | 4:02.33 | 318117 | 336299
23 | 74:44.00 | 3:32.10 | 336300 | 352209

Track 1

Filename D:\#cdr\#wav+flac\VA - Het Beste Uit 20 Jaar Top 2000\cd 02\01. The Monkees - I'm A Believer.wav

Pre-gap length 0:00:02.00

Peak level 98.2 %
Extraction speed 3.7 X
Track quality 100.0 %
Test CRC 5DB622FA
Copy CRC 5DB622FA
Track not present in AccurateRip database
Copy OK

Track 2

Filename D:\#cdr\#wav+flac\VA - Het Beste Uit 20 Jaar Top 2000\cd 02\02. The Moody Blues - Nights In White Satin.wav

Pre-gap length 0:00:01.00

Peak level 96.6 %
Extraction speed 4.2 X
Track quality 100.0 %
Test CRC 55DABBCC
Copy CRC 55DABBCC
Track not present in AccurateRip database
Copy OK

Track 3

Filename D:\#cdr\#wav+flac\VA - Het Beste Uit 20 Jaar Top 2000\cd 02\03. Aretha Franklin - Respect.wav

Pre-gap length 0:00:01.00

Peak level 96.6 %
Extraction speed 4.1 X
Track quality 100.0 %
Test CRC 82E9023F
Copy CRC 82E9023F
Track not present in AccurateRip database
Copy OK

Track 4

Filename D:\#cdr\#wav+flac\VA - Het Beste Uit 20 Jaar Top 2000\cd 02\04. Buffalo Springfield - For What It's Worth.wav

Pre-gap length 0:00:01.00

Peak level 96.6 %
Extraction speed 4.4 X
Track quality 100.0 %
Test CRC 856BDC79
Copy CRC 856BDC79
Track not present in AccurateRip database
Copy OK

Track 5

Filename D:\#cdr\#wav+flac\VA - Het Beste Uit 20 Jaar Top 2000\cd 02\05. Jefferson Airplane - White Rabbit.wav

Pre-gap length 0:00:01.00

Peak level 96.6 %
Extraction speed 3.4 X
Track quality 99.9 %
Test CRC 5B16EC8B
Copy CRC 5B16EC8B
Track not present in AccurateRip database
Copy OK

Track 6

Filename D:\#cdr\#wav+flac\VA - Het Beste Uit 20 Jaar Top 2000\cd 02\06. Sam & Dave - Soul Man.wav

Pre-gap length 0:00:01.00

Peak level 96.6 %
Extraction speed 4.7 X
Track quality 100.0 %
Test CRC F29399FF
Copy CRC F29399FF
Track not present in AccurateRip database
Copy OK

Track 7

Filename D:\#cdr\#wav+flac\VA - Het Beste Uit 20 Jaar Top 2000\cd 02\07. The Band - The Weight.wav

Pre-gap length 0:00:01.00

Peak level 96.6 %
Extraction speed 4.4 X
Track quality 99.9 %
Test CRC 7CC7C8A5
Copy CRC 7CC7C8A5
Track not present in AccurateRip database
Copy OK

Track 8

Filename D:\#cdr\#wav+flac\VA - Het Beste Uit 20 Jaar Top 2000\cd 02\08. Leonard Cohen - Suzanne.wav

Pre-gap length 0:00:01.00

Peak level 96.1 %
Extraction speed 5.5 X
Track quality 100.0 %
Test CRC 27E1A33C
Copy CRC 27E1A33C
Track not present in AccurateRip database
Copy OK

Track 9

Filename D:\#cdr\#wav+flac\VA - Het Beste Uit 20 Jaar Top 2000\cd 02\09. Canned Heat - On The Road Again.wav

Pre-gap length 0:00:01.00

Peak level 74.1 %
Extraction speed 5.5 X
Track quality 100.0 %
Test CRC 557A626C
Copy CRC 557A626C
Track not present in AccurateRip database
Copy OK

Track 10

Filename D:\#cdr\#wav+flac\VA - Het Beste Uit 20 Jaar Top 2000\cd 02\10. Cuby & The Blizzards - Window Of My Eyes.wav

Pre-gap length 0:00:01.00

Peak level 82.8 %
Extraction speed 5.8 X
Track quality 100.0 %
Test CRC 61127683
Copy CRC 61127683
Track not present in AccurateRip database
Copy OK

Track 11

Filename D:\#cdr\#wav+flac\VA - Het Beste Uit 20 Jaar Top 2000\cd 02\11. Steppenwolf - Born To Be Wild.wav

Pre-gap length 0:00:01.00

Peak level 77.8 %
Extraction speed 5.9 X
Track quality 100.0 %
Test CRC 5DE6F91F
Copy CRC 5DE6F91F
Track not present in AccurateRip database
Copy OK

Track 12

Filename D:\#cdr\#wav+flac\VA - Het Beste Uit 20 Jaar Top 2000\cd 02\12. Fleetwood Mac - Need Your Love So Bad.wav

Pre-gap length 0:00:01.00

Peak level 78.4 %
Extraction speed 6.2 X
Track quality 100.0 %
Test CRC BD5EADFC
Copy CRC BD5EADFC
Track not present in AccurateRip database
Copy OK

Track 13

Filename D:\#cdr\#wav+flac\VA - Het Beste Uit 20 Jaar Top 2000\cd 02\13. Nina Simone - Ain't Got No, I Got Life.wav

Pre-gap length 0:00:01.00

Peak level 96.6 %
Extraction speed 4.2 X
Track quality 99.9 %
Test CRC 66413D62
Copy CRC 66413D62
Track not present in AccurateRip database
Copy OK

Track 14

Filename D:\#cdr\#wav+flac\VA - Het Beste Uit 20 Jaar Top 2000\cd 02\14. Glen Campbell - Wichita Lineman.wav

Pre-gap length 0:00:00.98

Peak level 87.5 %
Extraction speed 6.3 X
Track quality 100.0 %
Test CRC 97A19DB2
Copy CRC 97A19DB2
Track not present in AccurateRip database
Copy OK

Track 15

Filename D:\#cdr\#wav+flac\VA - Het Beste Uit 20 Jaar Top 2000\cd 02\15. Barry Ryan - Eloise.wav

Pre-gap length 0:00:01.00

Peak level 80.3 %
Extraction speed 6.8 X
Track quality 100.0 %
Test CRC 4B6C9A1B
Copy CRC 4B6C9A1B
Track not present in AccurateRip database
Copy OK

Track 16

Filename D:\#cdr\#wav+flac\VA - Het Beste Uit 20 Jaar Top 2000\cd 02\16. Marvin Gaye - I Heard It Through The Grapevine.wav

Pre-gap length 0:00:00.98

Peak level 96.6 %
Extraction speed 6.7 X
Track quality 100.0 %
Test CRC DD699558
Copy CRC DD699558
Track not present in AccurateRip database
Copy OK

Track 17

Filename D:\#cdr\#wav+flac\VA - Het Beste Uit 20 Jaar Top 2000\cd 02\17. B.B. King - The Thrill Is Gone.wav

Pre-gap length 0:00:01.00

Peak level 96.6 %
Extraction speed 5.7 X
Track quality 99.9 %
Test CRC 58A8C014
Copy CRC 58A8C014
Track not present in AccurateRip database
Copy OK

Track 18

Filename D:\#cdr\#wav+flac\VA - Het Beste Uit 20 Jaar Top 2000\cd 02\18. Brainbox - Down Man.wav

Pre-gap length 0:00:01.00

Peak level 96.4 %
Extraction speed 6.7 X
Track quality 100.0 %
Test CRC 552E5936
Copy CRC 552E5936
Track not present in AccurateRip database
Copy OK

Track 19

Filename D:\#cdr\#wav+flac\VA - Het Beste Uit 20 Jaar Top 2000\cd 02\19. David Bowie - Space Oddity.wav

Pre-gap length 0:00:01.00

Peak level 74.4 %
Extraction speed 5.8 X
Track quality 99.9 %
Test CRC 851BE2EE
Copy CRC 851BE2EE
Track not present in AccurateRip database
Copy OK

Track 20

Filename D:\#cdr\#wav+flac\VA - Het Beste Uit 20 Jaar Top 2000\cd 02\20. Frans Halsema - Zondagmiddag Buitenveldert.wav

Pre-gap length 0:00:01.00

Peak level 96.6 %
Extraction speed 6.7 X
Track quality 100.0 %
Test CRC 6605BB2F
Copy CRC 6605BB2F
Track not present in AccurateRip database
Copy OK

Track 21

Filename D:\#cdr\#wav+flac\VA - Het Beste Uit 20 Jaar Top 2000\cd 02\21. The Fifth Dimension - Aquarius - Let The Sun Shine In.wav

Pre-gap length 0:00:00.98

Peak level 96.6 %
Extraction speed 7.8 X
Track quality 100.0 %
Test CRC 41193DE8
Copy CRC 41193DE8
Track not present in AccurateRip database
Copy OK

Track 22

Filename D:\#cdr\#wav+flac\VA - Het Beste Uit 20 Jaar Top 2000\cd 02\22. George Baker Selection - Little Green Bag.wav

Pre-gap length 0:00:00.98

Peak level 96.6 %
Extraction speed 7.7 X
Track quality 100.0 %
Test CRC 5EC59472
Copy CRC 5EC59472
Track not present in AccurateRip database
Copy OK

Track 23

Filename D:\#cdr\#wav+flac\VA - Het Beste Uit 20 Jaar Top 2000\cd 02\23. Melanie - Beautiful People.wav

Pre-gap length 0:00:01.00

Peak level 96.6 %
Extraction speed 6.2 X
Track quality 99.9 %
Test CRC F924D7E7
Copy CRC F924D7E7
Track not present in AccurateRip database
Copy OK

None of the tracks are present in the AccurateRip database

No errors occurred

End of status report

–– CUETools DB Plugin V2.1.6

[CTDB TOCID: ErXfEEyTC4OV6Oqco.Z7tHUzwk8-] disk not present in database
Submit result: ErXfEEyTC4OV6Oqco.Z7tHUzwk8- has been uploaded

==== Log checksum 54F36CBB5D5F5CC260DC56A4616D0E64A98FBC65756B4B6620B178CFE5C9C89C ====

========================================================================================

Exact Audio Copy V1.3 from 2. September 2016

EAC extraction logfile from 21. December 2019, 13:12

Various Artists / Het Beste Uit 20 Jaar Top 2000

Used drive : PLEXTOR PX-891SAF Adapter: 1 ID: 0

Read mode : Secure
Utilize accurate stream : Yes
Defeat audio cache : Yes
Make use of C2 pointers : No

Read offset correction : 6
Overread into Lead-In and Lead-Out : No
Fill up missing offset samples with silence : Yes
Delete leading and trailing silent blocks : No
Null samples used in CRC calculations : Yes
Used interface : Native Win32 interface for Win NT & 2000
Gap handling : Appended to previous track

Used output format : User Defined Encoder
Selected bitrate : 1024 kBit/s
Quality : High
Add ID3 tag : No
Command line compressor : C:\Program Files (x86)\Exact Audio Copy\Flac\flac.exe
Additional command line options : -8 -V -T "ARTIST=%artist%" -T "TITLE=%title%" -T "ALBUM=%albumtitle%" -T "DATE=%year%" -T "TRACKNUMBER=%tracknr%" -T "GENRE=%genre%" -T "PERFORMER=%albuminterpret%" -T "COMPOSER=%composer%" %haslyrics%–tag-from-file=LYRICS="%lyricsfile%"%haslyrics% -T "ALBUMARTIST=%albumartist%" -T "DISCNUMBER=%cdnumber%" -T "TOTALDISCS=%totalcds%" -T "TOTALTRACKS=%numtracks%" -T "COMMENT=%comment%" %source% -o %dest%

TOC of the extracted CD

Track | Start | Length | Start sector | End sector
––––––––––––––––––––––––––––-
1 | 0:00.00 | 3:34.21 | 0 | 16070
2 | 3:34.21 | 4:35.61 | 16071 | 36756
3 | 8:10.07 | 3:43.63 | 36757 | 53544
4 | 11:53.70 | 2:57.10 | 53545 | 66829
5 | 14:51.05 | 3:25.45 | 66830 | 82249
6 | 18:16.50 | 4:08.28 | 82250 | 100877
7 | 22:25.03 | 1:47.21 | 100878 | 108923
8 | 24:12.24 | 3:16.65 | 108924 | 123688
9 | 27:29.14 | 3:21.50 | 123689 | 138813
10 | 30:50.64 | 3:03.47 | 138814 | 152585
11 | 33:54.36 | 3:43.12 | 152586 | 169322
12 | 37:37.48 | 3:32.42 | 169323 | 185264
13 | 41:10.15 | 2:22.39 | 185265 | 195953
14 | 43:32.54 | 3:45.18 | 195954 | 212846
15 | 47:17.72 | 3:50.04 | 212847 | 230100
16 | 51:08.01 | 2:45.70 | 230101 | 242545
17 | 53:53.71 | 3:12.50 | 242546 | 256995
18 | 57:06.46 | 4:26.13 | 256996 | 276958
19 | 61:32.59 | 4:18.24 | 276959 | 296332
20 | 65:51.08 | 5:30.50 | 296333 | 321132
21 | 71:21.58 | 5:36.62 | 321133 | 346394

Track 1

Filename D:\#cdr\#wav+flac\VA - Het Beste Uit 20 Jaar Top 2000\cd 3\01. Free - All Right Now.wav

Pre-gap length 0:00:02.00

Peak level 96.6 %
Extraction speed 3.7 X
Track quality 100.0 %
Test CRC 27C42200
Copy CRC 27C42200
Track not present in AccurateRip database
Copy OK

Track 2

Filename D:\#cdr\#wav+flac\VA - Het Beste Uit 20 Jaar Top 2000\cd 3\02. Van Morrison - Moondance.wav

Pre-gap length 0:00:02.00

Peak level 96.6 %
Extraction speed 4.2 X
Track quality 100.0 %
Test CRC EB13125E
Copy CRC EB13125E
Track not present in AccurateRip database
Copy OK

Track 3

Filename D:\#cdr\#wav+flac\VA - Het Beste Uit 20 Jaar Top 2000\cd 3\03. Cat Stevens - Lady D'arbanville.wav

Pre-gap length 0:00:02.00

Peak level 90.9 %
Extraction speed 4.4 X
Track quality 100.0 %
Test CRC 7B702CB9
Copy CRC 7B702CB9
Track not present in AccurateRip database
Copy OK

Track 4

Filename D:\#cdr\#wav+flac\VA - Het Beste Uit 20 Jaar Top 2000\cd 3\04. The Jackson 5 - I Want You Back.wav

Pre-gap length 0:00:02.00

Peak level 89.1 %
Extraction speed 4.5 X
Track quality 100.0 %
Test CRC FCC04AC0
Copy CRC FCC04AC0
Track not present in AccurateRip database
Copy OK

Track 5

Filename D:\#cdr\#wav+flac\VA - Het Beste Uit 20 Jaar Top 2000\cd 3\05. Deep Purple - Black Night.wav

Pre-gap length 0:00:02.00

Peak level 96.6 %
Extraction speed 4.9 X
Track quality 100.0 %
Test CRC 4125BB68
Copy CRC 4125BB68
Track not present in AccurateRip database
Copy OK

Track 6

Filename D:\#cdr\#wav+flac\VA - Het Beste Uit 20 Jaar Top 2000\cd 3\06. Earth And Fire - Seasons.wav

Pre-gap length 0:00:02.00

Peak level 84.5 %
Extraction speed 5.2 X
Track quality 100.0 %
Test CRC 1A1895E3
Copy CRC 1A1895E3
Track not present in AccurateRip database
Copy OK

Track 7

Filename D:\#cdr\#wav+flac\VA - Het Beste Uit 20 Jaar Top 2000\cd 3\07. Janis Joplin - Mercedes Benz.wav

Pre-gap length 0:00:02.00

Peak level 75.1 %
Extraction speed 4.5 X
Track quality 100.0 %
Test CRC E9F4A294
Copy CRC E9F4A294
Track not present in AccurateRip database
Copy OK

Track 8

Filename D:\#cdr\#wav+flac\VA - Het Beste Uit 20 Jaar Top 2000\cd 3\08. Santana - Black Magic Woman.wav

Pre-gap length 0:00:02.00

Peak level 96.6 %
Extraction speed 4.2 X
Track quality 99.9 %
Test CRC 8F8A777C
Copy CRC 8F8A777C
Track not present in AccurateRip database
Copy OK

Track 9

Filename D:\#cdr\#wav+flac\VA - Het Beste Uit 20 Jaar Top 2000\cd 3\09. Ike & Tina Turner - Proud Mary.wav

Pre-gap length 0:00:02.00

Peak level 96.5 %
Extraction speed 5.5 X
Track quality 100.0 %
Test CRC 34CA5EBD
Copy CRC 34CA5EBD
Track not present in AccurateRip database
Copy OK

Track 10

Filename D:\#cdr\#wav+flac\VA - Het Beste Uit 20 Jaar Top 2000\cd 3\10. John Lennon - Imagine.wav

Pre-gap length 0:00:02.00

Peak level 96.6 %
Extraction speed 5.6 X
Track quality 100.0 %
Test CRC 2B443A91
Copy CRC 2B443A91
Track not present in AccurateRip database
Copy OK

Track 11

Filename D:\#cdr\#wav+flac\VA - Het Beste Uit 20 Jaar Top 2000\cd 3\11. Rod Stewart - Maggie Mae.wav

Pre-gap length 0:00:02.00

Peak level 96.6 %
Extraction speed 5.9 X
Track quality 100.0 %
Test CRC 943C7276
Copy CRC 943C7276
Track not present in AccurateRip database
Copy OK

Track 12

Filename D:\#cdr\#wav+flac\VA - Het Beste Uit 20 Jaar Top 2000\cd 3\12. The Cats - One Way Wind.wav

Pre-gap length 0:00:02.00

Peak level 90.7 %
Extraction speed 6.2 X
Track quality 100.0 %
Test CRC 67BB5B04
Copy CRC 67BB5B04
Track not present in AccurateRip database
Copy OK

Track 13

Filename D:\#cdr\#wav+flac\VA - Het Beste Uit 20 Jaar Top 2000\cd 3\13. J.J. Cale - After Midnight.wav

Pre-gap length 0:00:02.00

Peak level 93.1 %
Extraction speed 5.8 X
Track quality 100.0 %
Test CRC 9FAF6176
Copy CRC 9FAF6176
Track not present in AccurateRip database
Copy OK

Track 14

Filename D:\#cdr\#wav+flac\VA - Het Beste Uit 20 Jaar Top 2000\cd 3\14. Lou Reed - Perfect Day.wav

Pre-gap length 0:00:02.00

Peak level 93.3 %
Extraction speed 6.5 X
Track quality 100.0 %
Test CRC 19063536
Copy CRC 19063536
Track not present in AccurateRip database
Copy OK

Track 15

Filename D:\#cdr\#wav+flac\VA - Het Beste Uit 20 Jaar Top 2000\cd 3\15. Dr. Hook & The Medicine Show - Sylvia's Mother.wav

Pre-gap length 0:00:02.00

Peak level 96.6 %
Extraction speed 5.4 X
Track quality 99.9 %
Test CRC C1CA5EA2
Copy CRC C1CA5EA2
Track not present in AccurateRip database
Copy OK

Track 16

Filename D:\#cdr\#wav+flac\VA - Het Beste Uit 20 Jaar Top 2000\cd 3\16. Michael Jackson - Ben.wav

Pre-gap length 0:00:02.00

Peak level 96.6 %
Extraction speed 6.5 X
Track quality 100.0 %
Test CRC A2E7E1F0
Copy CRC A2E7E1F0
Track not present in AccurateRip database
Copy OK

Track 17

Filename D:\#cdr\#wav+flac\VA - Het Beste Uit 20 Jaar Top 2000\cd 3\17. Paul McCartney & Wings - Live And Let Die.wav

Pre-gap length 0:00:02.00

Peak level 96.3 %
Extraction speed 6.8 X
Track quality 100.0 %
Test CRC 62E63333
Copy CRC 62E63333
Track not present in AccurateRip database
Copy OK

Track 18

Filename D:\#cdr\#wav+flac\VA - Het Beste Uit 20 Jaar Top 2000\cd 3\18. Aerosmith - Dream On.wav

Pre-gap length 0:00:02.00

Peak level 96.6 %
Extraction speed 7.3 X
Track quality 100.0 %
Test CRC D1BCDB74
Copy CRC D1BCDB74
Track not present in AccurateRip database
Copy OK

Track 19

Filename D:\#cdr\#wav+flac\VA - Het Beste Uit 20 Jaar Top 2000\cd 3\19. The Isley Brothers - Highways Of My Life.wav

Pre-gap length 0:00:02.00

Peak level 91.0 %
Extraction speed 6.0 X
Track quality 99.9 %
Test CRC FEE0AD17
Copy CRC FEE0AD17
Track not present in AccurateRip database
Copy OK

Track 20

Filename D:\#cdr\#wav+flac\VA - Het Beste Uit 20 Jaar Top 2000\cd 3\20. Thin Lizzy - Whiskey In The Jar.wav

Pre-gap length 0:00:02.00

Peak level 96.6 %
Extraction speed 6.4 X
Track quality 99.9 %
Test CRC 3690D388
Copy CRC 3690D388
Track not present in AccurateRip database
Copy OK

Track 21

Filename D:\#cdr\#wav+flac\VA - Het Beste Uit 20 Jaar Top 2000\cd 3\21. Billy Joel - Piano Man.wav

Pre-gap length 0:00:02.00

Peak level 91.3 %
Extraction speed 7.9 X
Track quality 100.0 %
Test CRC A6480572
Copy CRC A6480572
Track not present in AccurateRip database
Copy OK

None of the tracks are present in the AccurateRip database

No errors occurred

End of status report

–– CUETools DB Plugin V2.1.6

[CTDB TOCID: iHDOcj3XS0gEigRcPn9XEtqokUU-] disk not present in database
Submit result: iHDOcj3XS0gEigRcPn9XEtqokUU- has been uploaded

==== Log checksum D644EC5EC43A35F86D319EE01B3075EACBAB99B0BDB9437CF0A5164FC59D6BB7 ====

––––––––––––––––––––––––––––––

Exact Audio Copy V1.3 from 2. September 2016

EAC extraction logfile from 21. December 2019, 13:12

Various Artists / Het Beste Uit 20 Jaar Top 2000

Used drive : PLEXTOR PX-891SAF Adapter: 1 ID: 0

Read mode : Secure
Utilize accurate stream : Yes
Defeat audio cache : Yes
Make use of C2 pointers : No

Read offset correction : 6
Overread into Lead-In and Lead-Out : No
Fill up missing offset samples with silence : Yes
Delete leading and trailing silent blocks : No
Null samples used in CRC calculations : Yes
Used interface : Native Win32 interface for Win NT & 2000
Gap handling : Appended to previous track

Used output format : User Defined Encoder
Selected bitrate : 1024 kBit/s
Quality : High
Add ID3 tag : No
Command line compressor : C:\Program Files (x86)\Exact Audio Copy\Flac\flac.exe
Additional command line options : -8 -V -T "ARTIST=%artist%" -T "TITLE=%title%" -T "ALBUM=%albumtitle%" -T "DATE=%year%" -T "TRACKNUMBER=%tracknr%" -T "GENRE=%genre%" -T "PERFORMER=%albuminterpret%" -T "COMPOSER=%composer%" %haslyrics%–tag-from-file=LYRICS="%lyricsfile%"%haslyrics% -T "ALBUMARTIST=%albumartist%" -T "DISCNUMBER=%cdnumber%" -T "TOTALDISCS=%totalcds%" -T "TOTALTRACKS=%numtracks%" -T "COMMENT=%comment%" %source% -o %dest%

TOC of the extracted CD

Track | Start | Length | Start sector | End sector
––––––––––––––––––––––––––––-
1 | 0:00.00 | 3:34.21 | 0 | 16070
2 | 3:34.21 | 4:35.61 | 16071 | 36756
3 | 8:10.07 | 3:43.63 | 36757 | 53544
4 | 11:53.70 | 2:57.10 | 53545 | 66829
5 | 14:51.05 | 3:25.45 | 66830 | 82249
6 | 18:16.50 | 4:08.28 | 82250 | 100877
7 | 22:25.03 | 1:47.21 | 100878 | 108923
8 | 24:12.24 | 3:16.65 | 108924 | 123688
9 | 27:29.14 | 3:21.50 | 123689 | 138813
10 | 30:50.64 | 3:03.47 | 138814 | 152585
11 | 33:54.36 | 3:43.12 | 152586 | 169322
12 | 37:37.48 | 3:32.42 | 169323 | 185264
13 | 41:10.15 | 2:22.39 | 185265 | 195953
14 | 43:32.54 | 3:45.18 | 195954 | 212846
15 | 47:17.72 | 3:50.04 | 212847 | 230100
16 | 51:08.01 | 2:45.70 | 230101 | 242545
17 | 53:53.71 | 3:12.50 | 242546 | 256995
18 | 57:06.46 | 4:26.13 | 256996 | 276958
19 | 61:32.59 | 4:18.24 | 276959 | 296332
20 | 65:51.08 | 5:30.50 | 296333 | 321132
21 | 71:21.58 | 5:36.62 | 321133 | 346394

Track 1

Filename D:\#cdr\#wav+flac\VA - Het Beste Uit 20 Jaar Top 2000\cd 3\01. Free - All Right Now.wav

Pre-gap length 0:00:02.00

Peak level 96.6 %
Extraction speed 3.7 X
Track quality 100.0 %
Test CRC 27C42200
Copy CRC 27C42200
Track not present in AccurateRip database
Copy OK

Track 2

Filename D:\#cdr\#wav+flac\VA - Het Beste Uit 20 Jaar Top 2000\cd 3\02. Van Morrison - Moondance.wav

Pre-gap length 0:00:02.00

Peak level 96.6 %
Extraction speed 4.2 X
Track quality 100.0 %
Test CRC EB13125E
Copy CRC EB13125E
Track not present in AccurateRip database
Copy OK

Track 3

Filename D:\#cdr\#wav+flac\VA - Het Beste Uit 20 Jaar Top 2000\cd 3\03. Cat Stevens - Lady D'arbanville.wav

Pre-gap length 0:00:02.00

Peak level 90.9 %
Extraction speed 4.4 X
Track quality 100.0 %
Test CRC 7B702CB9
Copy CRC 7B702CB9
Track not present in AccurateRip database
Copy OK

Track 4

Filename D:\#cdr\#wav+flac\VA - Het Beste Uit 20 Jaar Top 2000\cd 3\04. The Jackson 5 - I Want You Back.wav

Pre-gap length 0:00:02.00

Peak level 89.1 %
Extraction speed 4.5 X
Track quality 100.0 %
Test CRC FCC04AC0
Copy CRC FCC04AC0
Track not present in AccurateRip database
Copy OK

Track 5

Filename D:\#cdr\#wav+flac\VA - Het Beste Uit 20 Jaar Top 2000\cd 3\05. Deep Purple - Black Night.wav

Pre-gap length 0:00:02.00

Peak level 96.6 %
Extraction speed 4.9 X
Track quality 100.0 %
Test CRC 4125BB68
Copy CRC 4125BB68
Track not present in AccurateRip database
Copy OK

Track 6

Filename D:\#cdr\#wav+flac\VA - Het Beste Uit 20 Jaar Top 2000\cd 3\06. Earth And Fire - Seasons.wav

Pre-gap length 0:00:02.00

Peak level 84.5 %
Extraction speed 5.2 X
Track quality 100.0 %
Test CRC 1A1895E3
Copy CRC 1A1895E3
Track not present in AccurateRip database
Copy OK

Track 7

Filename D:\#cdr\#wav+flac\VA - Het Beste Uit 20 Jaar Top 2000\cd 3\07. Janis Joplin - Mercedes Benz.wav

Pre-gap length 0:00:02.00

Peak level 75.1 %
Extraction speed 4.5 X
Track quality 100.0 %
Test CRC E9F4A294
Copy CRC E9F4A294
Track not present in AccurateRip database
Copy OK

Track 8

Filename D:\#cdr\#wav+flac\VA - Het Beste Uit 20 Jaar Top 2000\cd 3\08. Santana - Black Magic Woman.wav

Pre-gap length 0:00:02.00

Peak level 96.6 %
Extraction speed 4.2 X
Track quality 99.9 %
Test CRC 8F8A777C
Copy CRC 8F8A777C
Track not present in AccurateRip database
Copy OK

Track 9

Filename D:\#cdr\#wav+flac\VA - Het Beste Uit 20 Jaar Top 2000\cd 3\09. Ike & Tina Turner - Proud Mary.wav

Pre-gap length 0:00:02.00

Peak level 96.5 %
Extraction speed 5.5 X
Track quality 100.0 %
Test CRC 34CA5EBD
Copy CRC 34CA5EBD
Track not present in AccurateRip database
Copy OK

Track 10

Filename D:\#cdr\#wav+flac\VA - Het Beste Uit 20 Jaar Top 2000\cd 3\10. John Lennon - Imagine.wav

Pre-gap length 0:00:02.00

Peak level 96.6 %
Extraction speed 5.6 X
Track quality 100.0 %
Test CRC 2B443A91
Copy CRC 2B443A91
Track not present in AccurateRip database
Copy OK

Track 11

Filename D:\#cdr\#wav+flac\VA - Het Beste Uit 20 Jaar Top 2000\cd 3\11. Rod Stewart - Maggie Mae.wav

Pre-gap length 0:00:02.00

Peak level 96.6 %
Extraction speed 5.9 X
Track quality 100.0 %
Test CRC 943C7276
Copy CRC 943C7276
Track not present in AccurateRip database
Copy OK

Track 12

Filename D:\#cdr\#wav+flac\VA - Het Beste Uit 20 Jaar Top 2000\cd 3\12. The Cats - One Way Wind.wav

Pre-gap length 0:00:02.00

Peak level 90.7 %
Extraction speed 6.2 X
Track quality 100.0 %
Test CRC 67BB5B04
Copy CRC 67BB5B04
Track not present in AccurateRip database
Copy OK

Track 13

Filename D:\#cdr\#wav+flac\VA - Het Beste Uit 20 Jaar Top 2000\cd 3\13. J.J. Cale - After Midnight.wav

Pre-gap length 0:00:02.00

Peak level 93.1 %
Extraction speed 5.8 X
Track quality 100.0 %
Test CRC 9FAF6176
Copy CRC 9FAF6176
Track not present in AccurateRip database
Copy OK

Track 14

Filename D:\#cdr\#wav+flac\VA - Het Beste Uit 20 Jaar Top 2000\cd 3\14. Lou Reed - Perfect Day.wav

Pre-gap length 0:00:02.00

Peak level 93.3 %
Extraction speed 6.5 X
Track quality 100.0 %
Test CRC 19063536
Copy CRC 19063536
Track not present in AccurateRip database
Copy OK

Track 15

Filename D:\#cdr\#wav+flac\VA - Het Beste Uit 20 Jaar Top 2000\cd 3\15. Dr. Hook & The Medicine Show - Sylvia's Mother.wav

Pre-gap length 0:00:02.00

Peak level 96.6 %
Extraction speed 5.4 X
Track quality 99.9 %
Test CRC C1CA5EA2
Copy CRC C1CA5EA2
Track not present in AccurateRip database
Copy OK

Track 16

Filename D:\#cdr\#wav+flac\VA - Het Beste Uit 20 Jaar Top 2000\cd 3\16. Michael Jackson - Ben.wav

Pre-gap length 0:00:02.00

Peak level 96.6 %
Extraction speed 6.5 X
Track quality 100.0 %
Test CRC A2E7E1F0
Copy CRC A2E7E1F0
Track not present in AccurateRip database
Copy OK

Track 17

Filename D:\#cdr\#wav+flac\VA - Het Beste Uit 20 Jaar Top 2000\cd 3\17. Paul McCartney & Wings - Live And Let Die.wav

Pre-gap length 0:00:02.00

Peak level 96.3 %
Extraction speed 6.8 X
Track quality 100.0 %
Test CRC 62E63333
Copy CRC 62E63333
Track not present in AccurateRip database
Copy OK

Track 18

Filename D:\#cdr\#wav+flac\VA - Het Beste Uit 20 Jaar Top 2000\cd 3\18. Aerosmith - Dream On.wav

Pre-gap length 0:00:02.00

Peak level 96.6 %
Extraction speed 7.3 X
Track quality 100.0 %
Test CRC D1BCDB74
Copy CRC D1BCDB74
Track not present in AccurateRip database
Copy OK

Track 19

Filename D:\#cdr\#wav+flac\VA - Het Beste Uit 20 Jaar Top 2000\cd 3\19. The Isley Brothers - Highways Of My Life.wav

Pre-gap length 0:00:02.00

Peak level 91.0 %
Extraction speed 6.0 X
Track quality 99.9 %
Test CRC FEE0AD17
Copy CRC FEE0AD17
Track not present in AccurateRip database
Copy OK

Track 20

Filename D:\#cdr\#wav+flac\VA - Het Beste Uit 20 Jaar Top 2000\cd 3\20. Thin Lizzy - Whiskey In The Jar.wav

Pre-gap length 0:00:02.00

Peak level 96.6 %
Extraction speed 6.4 X
Track quality 99.9 %
Test CRC 3690D388
Copy CRC 3690D388
Track not present in AccurateRip database
Copy OK

Track 21

Filename D:\#cdr\#wav+flac\VA - Het Beste Uit 20 Jaar Top 2000\cd 3\21. Billy Joel - Piano Man.wav

Pre-gap length 0:00:02.00

Peak level 91.3 %
Extraction speed 7.9 X
Track quality 100.0 %
Test CRC A6480572
Copy CRC A6480572
Track not present in AccurateRip database
Copy OK

None of the tracks are present in the AccurateRip database

No errors occurred

End of status report

–– CUETools DB Plugin V2.1.6

[CTDB TOCID: iHDOcj3XS0gEigRcPn9XEtqokUU-] disk not present in database
Submit result: iHDOcj3XS0gEigRcPn9XEtqokUU- has been uploaded

==== Log checksum D644EC5EC43A35F86D319EE01B3075EACBAB99B0BDB9437CF0A5164FC59D6BB7 ====

=============================================