Subcategories

Viktor Lazlo - Back To Front (1996) {Japan 1st Press}

Posted By: popsakov
Viktor Lazlo - Back To Front (1996) {Japan 1st Press}

Viktor Lazlo - Back To Front (1996) {Japan 1st Press}
EAC Rip | FLAC (Img) + Cue + Log ~ 404 Mb | MP3 CBR320 ~ 157 Mb
Scans Included | 01:03:33 | RAR 5% Recovery
Pop, Chanson, Downtempo, Funk, Ballad | East West Japan #AMCE-988

Back To Front is the fifth studio album by French-Belgian singer Viktor Lazlo. A French version of the album was recorded and released in France, entitled Verso. The album was her first album not to be released on Polydor Records but on East/West Records. Lazlo had started to work on the album in 1992 according to East/West Records' press release. The album was recorded on the Bahamas. The album cover features a nude backside of Viktor Lazlo with jewels of Christian Lacroix in her hair. Lazlo explains the album cover as followed: "Up until now I have always been reduced to my looks and my fancy clothes to the extend that I often didn't know who I really was. I just didn't want to continue like that." In an interview with Het Nieuwsblad she continued: "I'm thrilled. An entire day of interviews, and no one has asked a thing about my clothes. For the first time in my career, they aren't talking about beauty or fashion, but about music. For the first time they are really interested in my music. David Jeffries wrote on AllMusic that reviews for Back To Front were "overwhelmingly positive".
Viktor Lazlo - Back To Front (1996) {Japan 1st Press}


***************


Viktor Lazlo - Back To Front (1996) {Japan 1st Press}

Track List:

01. Not The House [5:07]
02. Turn It All Around [4:12]
03. My Love [3:34]
04. Love Is On The Way [3:45]
05. Final Crash [4:33]
06. If I Go [4:11]
07. Come To Me [4:23]
08. Blow It Away [4:54]
09. It's Over [3:43]
10. Right Or Wrong [4:31]
11. Have a Mercy [4:10]
12. Waiting For The Night [4:59]
13. Thou Shalt Not [3:57]
14. Ces Reves [3:33]
15. Babe(remix) [4:03]

Exact Audio Copy V0.99 prebeta 3 from 28. July 2007

EAC extraction logfile from 12. August 2008, 20:16

Viktor Lazlo / Back to Front

Used drive : TSSTcorpCDDVDW SH-S203B Adapter: 4 ID: 0

Read mode : Secure
Utilize accurate stream : Yes
Defeat audio cache : Yes
Make use of C2 pointers : No

Read offset correction : 6
Overread into Lead-In and Lead-Out : No
Fill up missing offset samples with silence : Yes
Delete leading and trailing silent blocks : No
Null samples used in CRC calculations : Yes
Used interface : Native Win32 interface for Win NT & 2000

Used output format : Internal WAV Routines
Sample format : 44.100 Hz; 16 Bit; Stereo


TOC of the extracted CD

Track | Start | Length | Start sector | End sector
––––––––––––––––––––––––––––-
1 | 0:00.00 | 5:06.60 | 0 | 23009
2 | 5:06.60 | 4:11.57 | 23010 | 41891
3 | 9:18.42 | 3:33.38 | 41892 | 57904
4 | 12:52.05 | 3:44.72 | 57905 | 74776
5 | 16:37.02 | 4:32.58 | 74777 | 95234
6 | 21:09.60 | 4:10.65 | 95235 | 114049
7 | 25:20.50 | 4:22.47 | 114050 | 133746
8 | 29:43.22 | 4:53.48 | 133747 | 155769
9 | 34:36.70 | 3:43.07 | 155770 | 172501
10 | 38:20.02 | 4:31.05 | 172502 | 192831
11 | 42:51.07 | 4:09.53 | 192832 | 211559
12 | 47:00.60 | 4:59.15 | 211560 | 233999
13 | 52:00.00 | 3:57.02 | 234000 | 251776
14 | 55:57.02 | 3:32.38 | 251777 | 267714
15 | 59:29.40 | 4:03.35 | 267715 | 285974


Range status and errors

Selected range

Filename E:\01 Audio\CD IMAGES\Victor Lazlo\1996 Back to Front\Viktor Lazlo - Back to Front.wav

Peak level 100.0 %
Range quality 100.0 %
Copy CRC 828A2634
Copy OK

No errors occurred


AccurateRip summary

Track 1 accurately ripped (confidence 1) [3E933C3C]
Track 2 accurately ripped (confidence 1) [99E19302]
Track 3 accurately ripped (confidence 1) [C565298D]
Track 4 accurately ripped (confidence 1) [D95ECA1C]
Track 5 accurately ripped (confidence 1) [9F86DD0D]
Track 6 accurately ripped (confidence 1) [480AE000]
Track 7 accurately ripped (confidence 1) [F765BDCC]
Track 8 accurately ripped (confidence 1) [FF1B6FA0]
Track 9 accurately ripped (confidence 1) [59D75E32]
Track 10 accurately ripped (confidence 1) [B6DA6FE2]
Track 11 accurately ripped (confidence 1) [2645D5E3]
Track 12 accurately ripped (confidence 1) [FAE02E85]
Track 13 accurately ripped (confidence 1) [FEFFAC85]
Track 14 accurately ripped (confidence 1) [CA704A02]
Track 15 accurately ripped (confidence 1) [13D86AAE]

All tracks accurately ripped

End of status report

Viktor Lazlo - Back To Front (1996) {Japan 1st Press}


All thanks go to the original ripper(s) …

>>> Viktor Lazlo in my Blog <<<

DOWNLOAD: