Subcategories
Tags
Language
Tags

Virulence - If This Isn't A Dream... 1985-1989 (2009) {Southern Lord} **[RE-UP]**

Posted By: TestTickles
Virulence - If This Isn't A Dream... 1985-1989 (2009) {Southern Lord} **[RE-UP]**

Virulence - If This Isn't A Dream… 1985-1989 (2009) {Southern Lord}
EAC Rip | FLAC with CUE and log | scans | 562 mb
MP3 CBR 320kbps | RAR | 209 mb
Genre: indie rock, hardcore punk

If This Isn't A Dream… 1985-1989 is the 2009 compilation by American punk band Virulence. This features the first and only album by Virulence called If This Isn't A Dream plus early demos and live material. The group would evolve and change their name to Fu Manchu but this is what the group was like before they became known worldwide. This was released by Southern Lord.

Virulence - If This Isn't A Dream... 1985-1989 (2009) {Southern Lord} **[RE-UP]**

01. Dead Weight
02. Wrapped Up
03. Worse Than Misery
04. Spilling It Out
05. Blank Stare
06. Kindergarten
07. Sleep
08. The Curse
09. Empty Head (Live)
10. Stall (Live)
11. Blank Stare (Live)
12. Dead Weight
13. Wrapped Up
14. My Rules (Void. Live)
15. Blacktop (Live)
16. All
17. Look At it Closely
18. No Fun
19. Something Went Wrong/Promise Is Shot
20. Fatal Crash

Tracks 1-8 produced by Victor Hayden & Virulence
Tracks 16-20 mixed by Michael Rosas
Mastered by Mell Dettmer

EAC extraction logfile from 28. June 2017, 10:03 for CD
Virulence / If This Isn't A Dream… 1985-1989

Used drive : TSSTcorpDVD+-RW TS-H653B Adapter: 2 ID: 0
Read mode : Secure with NO C2, accurate stream, disable cache
Read offset correction : 6
Overread into Lead-In and Lead-Out : No

Used output format : Internal WAV Routines
44.100 Hz; 16 Bit; Stereo

Other options :
Fill up missing offset samples with silence : Yes
Delete leading and trailing silent blocks : No
Native Win32 interface for Win NT & 2000


Track 1
Filename C:\Documents and Settings\cuntfist\Desktop\FLAC's\24\Virulence - If This Isn't A Dream… 1985-1989 (2009) [FLAC] {Southern Lord}\01 - Dead Weight.wav

Pre-gap length 0:00:02.00

Peak level 98.8 %
Track quality 100.0 %
Test CRC FB549CBE
Copy CRC FB549CBE
Copy OK

Track 2
Filename C:\Documents and Settings\cuntfist\Desktop\FLAC's\24\Virulence - If This Isn't A Dream… 1985-1989 (2009) [FLAC] {Southern Lord}\02 - Wrapped Up.wav

Peak level 98.8 %
Track quality 100.0 %
Test CRC A5FFFE1B
Copy CRC A5FFFE1B
Copy OK

Track 3
Filename C:\Documents and Settings\cuntfist\Desktop\FLAC's\24\Virulence - If This Isn't A Dream… 1985-1989 (2009) [FLAC] {Southern Lord}\03 - Worse Than Misery.wav

Peak level 98.8 %
Track quality 100.0 %
Test CRC A9C81708
Copy CRC A9C81708
Copy OK

Track 4
Filename C:\Documents and Settings\cuntfist\Desktop\FLAC's\24\Virulence - If This Isn't A Dream… 1985-1989 (2009) [FLAC] {Southern Lord}\04 - Spilling It Out.wav

Peak level 98.8 %
Track quality 100.0 %
Test CRC 8E074E8D
Copy CRC 8E074E8D
Copy OK

Track 5
Filename C:\Documents and Settings\cuntfist\Desktop\FLAC's\24\Virulence - If This Isn't A Dream… 1985-1989 (2009) [FLAC] {Southern Lord}\05 - Blank Stare.wav

Peak level 98.8 %
Track quality 100.0 %
Test CRC 4DAA29EC
Copy CRC 4DAA29EC
Copy OK

Track 6
Filename C:\Documents and Settings\cuntfist\Desktop\FLAC's\24\Virulence - If This Isn't A Dream… 1985-1989 (2009) [FLAC] {Southern Lord}\06 - Kindergarten.wav

Peak level 98.8 %
Track quality 100.0 %
Test CRC 5D5AB3BF
Copy CRC 5D5AB3BF
Copy OK

Track 7
Filename C:\Documents and Settings\cuntfist\Desktop\FLAC's\24\Virulence - If This Isn't A Dream… 1985-1989 (2009) [FLAC] {Southern Lord}\07 - Sleep.wav

Peak level 98.8 %
Track quality 100.0 %
Test CRC CDE83B8C
Copy CRC CDE83B8C
Copy OK

Track 8
Filename C:\Documents and Settings\cuntfist\Desktop\FLAC's\24\Virulence - If This Isn't A Dream… 1985-1989 (2009) [FLAC] {Southern Lord}\08 - The Curse.wav

Peak level 98.8 %
Track quality 99.9 %
Test CRC 2C24E59F
Copy CRC 2C24E59F
Copy OK

Track 9
Filename C:\Documents and Settings\cuntfist\Desktop\FLAC's\24\Virulence - If This Isn't A Dream… 1985-1989 (2009) [FLAC] {Southern Lord}\09 - Empty Head (Live).wav

Peak level 98.8 %
Track quality 100.0 %
Test CRC AF73F679
Copy CRC AF73F679
Copy OK

Track 10
Filename C:\Documents and Settings\cuntfist\Desktop\FLAC's\24\Virulence - If This Isn't A Dream… 1985-1989 (2009) [FLAC] {Southern Lord}\10 - Stall (Live).wav

Peak level 98.8 %
Track quality 100.0 %
Test CRC F3FE08A6
Copy CRC F3FE08A6
Copy OK

Track 11
Filename C:\Documents and Settings\cuntfist\Desktop\FLAC's\24\Virulence - If This Isn't A Dream… 1985-1989 (2009) [FLAC] {Southern Lord}\11 - Blank Stare (Live).wav

Peak level 98.8 %
Track quality 100.0 %
Test CRC 64B3AFEC
Copy CRC 64B3AFEC
Copy OK

Track 12
Filename C:\Documents and Settings\cuntfist\Desktop\FLAC's\24\Virulence - If This Isn't A Dream… 1985-1989 (2009) [FLAC] {Southern Lord}\12 - Dead Weight.wav

Peak level 98.8 %
Track quality 99.9 %
Test CRC 12E5C495
Copy CRC 12E5C495
Copy OK

Track 13
Filename C:\Documents and Settings\cuntfist\Desktop\FLAC's\24\Virulence - If This Isn't A Dream… 1985-1989 (2009) [FLAC] {Southern Lord}\13 - Wrapped Up.wav

Peak level 98.8 %
Track quality 100.0 %
Test CRC 84E4E139
Copy CRC 84E4E139
Copy OK

Track 14
Filename C:\Documents and Settings\cuntfist\Desktop\FLAC's\24\Virulence - If This Isn't A Dream… 1985-1989 (2009) [FLAC] {Southern Lord}\14 - My Rules (Void - Live).wav

Peak level 98.8 %
Track quality 100.0 %
Test CRC 4C16592E
Copy CRC 4C16592E
Copy OK

Track 15
Filename C:\Documents and Settings\cuntfist\Desktop\FLAC's\24\Virulence - If This Isn't A Dream… 1985-1989 (2009) [FLAC] {Southern Lord}\15 - Blacktop (Live).wav

Peak level 98.8 %
Track quality 100.0 %
Test CRC 1525AD14
Copy CRC 1525AD14
Copy OK

Track 16
Filename C:\Documents and Settings\cuntfist\Desktop\FLAC's\24\Virulence - If This Isn't A Dream… 1985-1989 (2009) [FLAC] {Southern Lord}\16 - All.wav

Peak level 98.8 %
Track quality 99.9 %
Test CRC A81FBD20
Copy CRC A81FBD20
Copy OK

Track 17
Filename C:\Documents and Settings\cuntfist\Desktop\FLAC's\24\Virulence - If This Isn't A Dream… 1985-1989 (2009) [FLAC] {Southern Lord}\17 - Look At it Closely.wav

Peak level 98.8 %
Track quality 99.8 %
Test CRC 1C1587FB
Copy CRC 1C1587FB
Copy OK

Track 18
Filename C:\Documents and Settings\cuntfist\Desktop\FLAC's\24\Virulence - If This Isn't A Dream… 1985-1989 (2009) [FLAC] {Southern Lord}\18 - No Fun.wav

Peak level 98.8 %
Track quality 100.0 %
Test CRC 25635C18
Copy CRC 25635C18
Copy OK

Track 19
Filename C:\Documents and Settings\cuntfist\Desktop\FLAC's\24\Virulence - If This Isn't A Dream… 1985-1989 (2009) [FLAC] {Southern Lord}\19 - Something Went Wrong,Promise Is Shot.wav

Peak level 98.8 %
Track quality 99.9 %
Test CRC C30E3821
Copy CRC C30E3821
Copy OK

Track 20
Filename C:\Documents and Settings\cuntfist\Desktop\FLAC's\24\Virulence - If This Isn't A Dream… 1985-1989 (2009) [FLAC] {Southern Lord}\20 - Fatal Crash.wav

Peak level 98.8 %
Track quality 100.0 %
Test CRC 4DDDA372
Copy CRC 4DDDA372
Copy OK

No errors occured


End of status report


Virulence - If This Isn't A Dream... 1985-1989 (2009) {Southern Lord} **[RE-UP]**