Tags
Language
Tags

VA - Washington Square Memoirs - The Great Urban Folk Boom 1950-1970 (2001)

Posted By: Rtax
VA - Washington Square Memoirs - The Great Urban Folk Boom 1950-1970 (2001)

VA - Washington Square Memoirs - The Great Urban Folk Boom 1950-1970 (2001)
EAC Rip | FLAC (tracks, cue, log) - 1.1 GB | MP3 CBR 320 kbps - 533 MB
3:50:14 | Folk, Blues, Pop Rock | Label: Rhino

It was distinctly ironic: at the very zenith of America's postwar space-age love affair with TV, 3-D, and rock & roll (and other disposable cultural ephemera), a grassroots movement set out to recapture the country's lost musical heritage. These curious minds not only found it in a wealth of seemingly forgotten protest songs, spiritual blues, and country laments, but also forged new songs in its image. That this crusade sprang from lower Manhattan's Washington Square and the doorstep of New York University made the paradox all the sweeter. Ted Myers, the producer of this triple-disc anthology, grew up just blocks from the epicenter of that folk-quake, and his generous sense of place and time permeates this rich collection. Generally misunderstood and historically pigeonholed, the era finally gets its due, chronicled here by 72 tracks that extend far beyond the roots-conscious work of Woody Guthrie, the Weavers, Ramblin' Jack Elliott, and Pete Seeger on one hand, and the more popular material by the Kingston Trio, Limeliters, Joan Baez, and Bob Dylan on the other. Culturally, the Folk movement was the alt-rock of its day–if eminently more conscious of history and politically committed. Musically, it encompassed an ethos that enthusiastically blurred the boundaries between blues, Appalachian ballads, jug music, pure country, honky-tonk, work songs, and even unbridled novelty; this set explores them all, often with a palpable sense of discovery. Historically, the movement championed preservation at the same time it gleefully tweaked old sensibilities in pursuit of new inspiration. Listen and you'll hear music that became touchstones for artists as diverse as the Byrds, Roberta Flack, Rod Stewart, and–wittingly or not–every passionate coffeehouse minstrel who's strode on stage with a guitar ever since. –Jerry McCulley

Washington Square Memoirs: The Great Urban Folk Boom, 1950-1970 Review by Richie Unterberger [-]
This impressive three-CD, 72-song set is the best compilation of music from the folk revival of the 1950s and 1960s. It concentrates most heavily on the movement's apogee in the first half of the 1960s, but also touches upon its roots in mid-20th century performers like Pete Seeger, Woody Guthrie, the Weavers, Big Bill Broonzy, and Josh White. Although its evolution into folk-rock is documented lightly, the box encompasses that as well, with cuts by the likes of Judy Collins, Tim Buckley, Tom Rush, Fred Neil, Eric Andersen, Tim Hardin, and Richard & Mimi Fariña. In between are the giants of the early-'60s folk boom, such as Joan Baez, Peter, Paul & Mary, Buffy Sainte-Marie, Odetta, and Ian & Sylvia. And, unlike many a folk compilation, this is open-minded enough to include material by some of the more commercially oriented folk acts that helped popularize the style on a mass level, like the Kingston Trio, the Rooftop Singers (with their number one single "Walk Right In"), the Limeliters, the Chad Mitchell Trio, and Randy Sparks. Indeed, virtually every major North American performer of the style is represented, even the hard-to-license Bob Dylan (though Joni Mitchell, Simon & Garfunkel, and James Taylor are not included due to licensing restrictions). Although the cuts by major figures are well selected, there are also numerous offerings by minor but notable contributors to the form, like the Journeymen (with future Mamas & the Papas leader John Phillips), Carolyn Hester, David Blue, and the Jim Kweskin Jug Band. Some of the rare or little-remembered cuts are highlights of the collection, like Sam Hinton's witty 1950 single "Old Man Atom (Talking Atomic Blues)"; Jean Ritchie's 1954 recording of "Nottamun Town"; Peggy Seeger's "The First Time Ever I Saw Your Face" (later a huge hit for Roberta Flack); Barry & Barry's "Another Man" (one of the Barrys being a pre-rock Barry McGuire); Judy Henske's seminal "High Flying Bird"; Judy Roderick's little-known 1964 electric folk-rock-blues treatment of "Brother, Can You Spare a Dime?"; Jesse Colin Young's pre-Youngbloods solo work "Four in the Morning"; Bonnie Dobson's original version of the folk and folk-rock standard "Morning Dew"; and even a young John Denver's 1966 cover of Pete Seeger's "Bells of Rhymney." The package is enhanced by lengthy liner notes, including extensive comments by Elektra Records founder Jac Holzman.

Tracklist
Disc: 1
1 Hard Travelin' - Woody Guthrie
2 Old Man Atom (Talking Atomic Blues) - Sam Hinton
3 Black, Brown And White - Big Bill Broonzy
4 Nottamun Town - Jean Ritchie
5 Darlin' Cory - Ed McCurdy
6 One Meat Ball - Josh White
7 Little Boxes - Malvina Reynolds
8 I Was Born 10,000 Years Ago - Oscar Brand
9 Midnight Special - Cisco Houston
10 Wasn't That A Time - The Weavers
11 Spanish Is A Loving Tongue - Glenn Yarbrough
12 Swannanoa Tunnel - Erik Darling
13 Sportin' Life - Sonny Terry & Brownie McGhee
14 South Coast - Randy Sparks
15 Molly Dee - The Kingston Trio
16 I've Been Driving On Bald Mountain/Water Boy (Live) - Odetta
17 Raspberries, Strawberries - Bud & Travis
18 The Hammer Song (Live) - Pete Seeger
19 Chase The Rising Sun - The Journeymen
20 Don't Let Your Deal Go Down - The New Lost City Ramblers
21 Betty And Dupree (Live) - Bob Gibson & Bob Camp
22 Coplas De Amor - Cynthia Gooding
23 San Francisco Bay Blues - Ramblin' Jack Elliot
24 The First Time Ever I Saw Your Face - Peggy Seeger
25 Greenback Dollar - Hoyt Axton
26 Swing And Turn Jubilee - Carolyn Hester
27 Another Man - Barry & Barry

Disc: 2
1 Walk Right In - The Rooftop Singers
2 He Was A Friend Of Mine - Dave Van Ronk
3 Last Night I Had The Strangest Dream - The Chad Mitchell Trio
4 Nora's Dove (Dink's Song) - The Big Three
5 500 Miles - Hedy West
6 Four Strong Winds - Ian & Sylvia
7 I Can't Help But Wonder Where I'm Bound - Tom Paxton
8 Blowin' In The Wind - Peter, Paul And Mary
9 Fog Horn - Bob Gibson
10 High Flying Bird - Judy Henske
11 Boots Of Spanish Leather - Bob Dylan
12 You'se A Viper - Dave Van Ronk & The Ragtime Jug Stompers
13 Four In The Morning - Jesse Colin Young
14 Euphoria - The Holy Modal Rounders
15 There But For Fortune - Joan Baez
16 Take Your Fingers Off It - The Even Dozen Jug Band
17 Brother, Can You Spare A Dime? - Judy Roderick
18 Tear Down The Walls - Martin & Neil
19 Morning Dew (Live) - Bonnie Dobson
20 Jordan's River - The Modern Folk Quartet
21 What's The Matter With The Mill - Koerner, Ray & Glover
22 Cod'ine - Buffy Sainte-Marie
23 Joshue Gone Barbados - Eric Von Schmidt
24 Take A Whiff On Me - The Green briar Boys
25 Get Together - Hamilton Camp

Disc: 3
1 The Wabash Cannonball (Live) - The Limeliters
2 I Ain't Marching Anymore - Phil Ochs
3 Pack Up You Sorrows - Richard & Mimi Farina
4 Drop Down Mama - John Hammond
5 Rag Mama - Jim Kweskin & The Jug Band
6 Bells Of Rhymney - John Denver
7 Early Morning Rain - Gordon Lightfoot
8 Thirsty Boots - Eric Anderson
9 Reason To Believe - Tim Hardin
10 Just Like A Woman - Richie Havens
11 Suzanne - Judy Collins
12 The Dolphins - Fred Neil
13 Wondrous Love - Kathy & Carol
14 Once I Was - Tim Buckley
15 The Circle Game - Tom Rush
16 These 23 Days In September - David Blue
17 Candy Man - Taj Mahal
18 Then Came The Children - Paul Siebel
19 School Days - Loudon Wainwright III
Exact Audio Copy V1.0 beta 3 from 29. August 2011

EAC extraction logfile from 11. June 2018, 14:42

Various Artists / Washington Square Memoirs: The Great Urban Folk Boom, 1950-1970 (3)

Used drive : HL-DT-STDVD-RAM GH15L Adapter: 0 ID: 1

Read mode : Secure
Utilize accurate stream : Yes
Defeat audio cache : No
Make use of C2 pointers : Yes

Read offset correction : 667
Overread into Lead-In and Lead-Out : No
Fill up missing offset samples with silence : No
Delete leading and trailing silent blocks : Yes
Null samples used in CRC calculations : Yes
Used interface : Native Win32 interface for Win NT & 2000
Gap handling : Not detected, thus appended to previous track

Used output format : User Defined Encoder
Selected bitrate : 896 kBit/s
Quality : High
Add ID3 tag : Yes
Command line compressor : C:\Program Files (x86)\Exact Audio Copy\FLAC\FLAC.EXE
Additional command line options : -6 -V -T "ARTIST=%artist%" -T "TITLE=%title%" -T "ALBUM=%albumtitle%" -T "DATE=%year%" -T "TRACKNUMBER=%tracknr%" -T "GENRE=%genre%" -T "COMMENT=%comment%" -T "BAND=%albuminterpret%" -T "ALBUMARTIST=%albuminterpret%" -T "COMPOSER=%composer%" %haslyrics%–tag-from-file=LYRICS="%lyricsfile%"%haslyrics% -T "DISCNUMBER=%cdnumber%" -T "TOTALDISCS=%totalcds%" -T "TOTALTRACKS=%numtracks%" %hascover%–picture="%coverfile%"%hascover% %source% -o %dest%


TOC of the extracted CD

Track | Start | Length | Start sector | End sector
––––––––––––––––––––––––––––-
1 | 0:00.00 | 2:29.65 | 0 | 11239
2 | 2:29.65 | 3:11.28 | 11240 | 25592
3 | 5:41.18 | 3:04.27 | 25593 | 39419
4 | 8:45.45 | 2:31.58 | 39420 | 50802
5 | 11:17.28 | 2:48.20 | 50803 | 63422
6 | 14:05.48 | 3:42.37 | 63423 | 80109
7 | 17:48.10 | 1:37.03 | 80110 | 87387
8 | 19:25.13 | 2:40.17 | 87388 | 99404
9 | 22:05.30 | 2:24.68 | 99405 | 110272
10 | 24:30.23 | 2:14.15 | 110273 | 120337
11 | 26:44.38 | 3:14.07 | 120338 | 134894
12 | 29:58.45 | 2:51.58 | 134895 | 147777
13 | 32:50.28 | 3:21.72 | 147778 | 162924
14 | 36:12.25 | 2:58.33 | 162925 | 176307
15 | 39:10.58 | 1:45.50 | 176308 | 184232
16 | 40:56.33 | 6:57.45 | 184233 | 215552
17 | 47:54.03 | 3:07.27 | 215553 | 229604
18 | 51:01.30 | 2:16.40 | 229605 | 239844
19 | 53:17.70 | 2:15.23 | 239845 | 249992
20 | 55:33.18 | 2:40.07 | 249993 | 261999
21 | 58:13.25 | 4:20.00 | 262000 | 281499
22 | 62:33.25 | 2:59.43 | 281500 | 294967
23 | 65:32.68 | 1:58.37 | 294968 | 303854
24 | 67:31.30 | 2:35.48 | 303855 | 315527
25 | 70:07.03 | 3:17.00 | 315528 | 330302
26 | 73:24.03 | 2:19.17 | 330303 | 340744
27 | 75:43.20 | 1:46.40 | 340745 | 348734


Track 1

Filename C:\Users\Tom\Documents\!!!!!!MUSIC RIPS\Various - Washington Square Memoirs- The Great Urban Folk Boom, 1950-1970 (3) [2001]\01 - Woody Guthrie - Hard Travelin'.wav

Peak level 82.5 %
Extraction speed 14.3 X
Track quality 100.0 %
Copy CRC F4E69303
Copy OK

Track 2

Filename C:\Users\Tom\Documents\!!!!!!MUSIC RIPS\Various - Washington Square Memoirs- The Great Urban Folk Boom, 1950-1970 (3) [2001]\02 - Sam Hinton - Old Man Atom (Talking Atomic Blues).wav

Peak level 96.3 %
Extraction speed 14.0 X
Track quality 100.0 %
Copy CRC DAE9B1C6
Copy OK

Track 3

Filename C:\Users\Tom\Documents\!!!!!!MUSIC RIPS\Various - Washington Square Memoirs- The Great Urban Folk Boom, 1950-1970 (3) [2001]\03 - Big Bill Broonzy - Black, Brown and White.wav

Peak level 88.2 %
Extraction speed 15.0 X
Track quality 100.0 %
Copy CRC F4645AE1
Copy OK

Track 4

Filename C:\Users\Tom\Documents\!!!!!!MUSIC RIPS\Various - Washington Square Memoirs- The Great Urban Folk Boom, 1950-1970 (3) [2001]\04 - Jean Ritchie - Nottamun Town.wav

Peak level 90.0 %
Extraction speed 17.5 X
Track quality 100.0 %
Copy CRC 9FC5C2D5
Copy OK

Track 5

Filename C:\Users\Tom\Documents\!!!!!!MUSIC RIPS\Various - Washington Square Memoirs- The Great Urban Folk Boom, 1950-1970 (3) [2001]\05 - Ed McCurdy - Darlin' Cory.wav

Peak level 99.9 %
Extraction speed 11.4 X
Track quality 99.8 %
Copy CRC D8CC94C2
Copy OK

Track 6

Filename C:\Users\Tom\Documents\!!!!!!MUSIC RIPS\Various - Washington Square Memoirs- The Great Urban Folk Boom, 1950-1970 (3) [2001]\06 - Josh White - One Meat Ball.wav

Peak level 99.9 %
Extraction speed 18.9 X
Track quality 100.0 %
Copy CRC CF514B79
Copy OK

Track 7

Filename C:\Users\Tom\Documents\!!!!!!MUSIC RIPS\Various - Washington Square Memoirs- The Great Urban Folk Boom, 1950-1970 (3) [2001]\07 - Malvina Reynolds - Little Boxes.wav

Peak level 63.0 %
Extraction speed 16.1 X
Track quality 100.0 %
Copy CRC A24E261A
Copy OK

Track 8

Filename C:\Users\Tom\Documents\!!!!!!MUSIC RIPS\Various - Washington Square Memoirs- The Great Urban Folk Boom, 1950-1970 (3) [2001]\08 - Oscar Brand - I Was Born 10,000 Years Ago.wav

Peak level 100.0 %
Extraction speed 17.8 X
Track quality 100.0 %
Copy CRC CA66B1CA
Copy OK

Track 9

Filename C:\Users\Tom\Documents\!!!!!!MUSIC RIPS\Various - Washington Square Memoirs- The Great Urban Folk Boom, 1950-1970 (3) [2001]\09 - Cisco Houston - Midnight Special.wav

Peak level 100.0 %
Extraction speed 18.3 X
Track quality 100.0 %
Copy CRC 897E8F85
Copy OK

Track 10

Filename C:\Users\Tom\Documents\!!!!!!MUSIC RIPS\Various - Washington Square Memoirs- The Great Urban Folk Boom, 1950-1970 (3) [2001]\10 - The Weavers - Wasn't That a Time.wav

Peak level 100.0 %
Extraction speed 21.6 X
Track quality 100.0 %
Copy CRC D27FC42D
Copy OK

Track 11

Filename C:\Users\Tom\Documents\!!!!!!MUSIC RIPS\Various - Washington Square Memoirs- The Great Urban Folk Boom, 1950-1970 (3) [2001]\11 - Glenn Yarbrough - Spanish Is a Loving Tongue.wav

Peak level 99.7 %
Extraction speed 22.7 X
Track quality 100.0 %
Copy CRC C54B8113
Copy OK

Track 12

Filename C:\Users\Tom\Documents\!!!!!!MUSIC RIPS\Various - Washington Square Memoirs- The Great Urban Folk Boom, 1950-1970 (3) [2001]\12 - Erik Darling - Swannanoa Tunnel.wav

Peak level 100.0 %
Extraction speed 19.3 X
Track quality 99.8 %
Copy CRC B7044F64
Copy OK

Track 13

Filename C:\Users\Tom\Documents\!!!!!!MUSIC RIPS\Various - Washington Square Memoirs- The Great Urban Folk Boom, 1950-1970 (3) [2001]\13 - Sonny Terry & Brownie McGhee - Sportin' Life.wav

Peak level 100.0 %
Extraction speed 20.8 X
Track quality 100.0 %
Copy CRC F8E51F3D
Copy OK

Track 14

Filename C:\Users\Tom\Documents\!!!!!!MUSIC RIPS\Various - Washington Square Memoirs- The Great Urban Folk Boom, 1950-1970 (3) [2001]\14 - Randy Sparks - South Coast.wav

Peak level 100.0 %
Extraction speed 20.3 X
Track quality 99.8 %
Copy CRC 9FD5A98B
Copy OK

Track 15

Filename C:\Users\Tom\Documents\!!!!!!MUSIC RIPS\Various - Washington Square Memoirs- The Great Urban Folk Boom, 1950-1970 (3) [2001]\15 - The Kingston Trio - Molly Dee.wav

Peak level 100.0 %
Extraction speed 19.5 X
Track quality 100.0 %
Copy CRC CBFC15F8
Copy OK

Track 16

Filename C:\Users\Tom\Documents\!!!!!!MUSIC RIPS\Various - Washington Square Memoirs- The Great Urban Folk Boom, 1950-1970 (3) [2001]\16 - Odetta - I've Been Driving on Bald Mountain - Water Boy (live).wav

Peak level 72.7 %
Extraction speed 24.6 X
Track quality 100.0 %
Copy CRC 158B212A
Copy OK

Track 17

Filename C:\Users\Tom\Documents\!!!!!!MUSIC RIPS\Various - Washington Square Memoirs- The Great Urban Folk Boom, 1950-1970 (3) [2001]\17 - Bud & Travis - Raspberries, Strawberries.wav

Peak level 92.9 %
Extraction speed 22.1 X
Track quality 99.8 %
Copy CRC 00A63AC0
Copy OK

Track 18

Filename C:\Users\Tom\Documents\!!!!!!MUSIC RIPS\Various - Washington Square Memoirs- The Great Urban Folk Boom, 1950-1970 (3) [2001]\18 - Pete Seeger - The Hammer Song (live).wav

Peak level 100.0 %
Extraction speed 22.0 X
Track quality 100.0 %
Copy CRC 930ADE43
Copy OK

Track 19

Filename C:\Users\Tom\Documents\!!!!!!MUSIC RIPS\Various - Washington Square Memoirs- The Great Urban Folk Boom, 1950-1970 (3) [2001]\19 - The Journeymen - Chase the Rising Sun.wav

Peak level 100.0 %
Extraction speed 22.8 X
Track quality 100.0 %
Copy CRC A246D4BC
Copy OK

Track 20

Filename C:\Users\Tom\Documents\!!!!!!MUSIC RIPS\Various - Washington Square Memoirs- The Great Urban Folk Boom, 1950-1970 (3) [2001]\20 - The New Lost City Ramblers - Don't Let Your Deal Go Down.wav

Peak level 100.0 %
Extraction speed 28.4 X
Track quality 100.0 %
Copy CRC DBE114DA
Copy OK

Track 21

Filename C:\Users\Tom\Documents\!!!!!!MUSIC RIPS\Various - Washington Square Memoirs- The Great Urban Folk Boom, 1950-1970 (3) [2001]\21 - Bob Gibson & Bob Camp - Betty and Dupree (live).wav

Peak level 85.5 %
Extraction speed 26.6 X
Track quality 100.0 %
Copy CRC 6EC00A69
Copy OK

Track 22

Filename C:\Users\Tom\Documents\!!!!!!MUSIC RIPS\Various - Washington Square Memoirs- The Great Urban Folk Boom, 1950-1970 (3) [2001]\22 - Cynthia Gooding - Coplas de amor.wav

Peak level 100.0 %
Extraction speed 25.7 X
Track quality 100.0 %
Copy CRC 5B772D34
Copy OK

Track 23

Filename C:\Users\Tom\Documents\!!!!!!MUSIC RIPS\Various - Washington Square Memoirs- The Great Urban Folk Boom, 1950-1970 (3) [2001]\23 - Ramblin' Jack Elliott - San Francisco Bay Blues.wav

Peak level 100.0 %
Extraction speed 24.3 X
Track quality 100.0 %
Copy CRC 441417A9
Copy OK

Track 24

Filename C:\Users\Tom\Documents\!!!!!!MUSIC RIPS\Various - Washington Square Memoirs- The Great Urban Folk Boom, 1950-1970 (3) [2001]\24 - Peggy Seeger - The First Time Ever I Saw Your Face.wav

Peak level 100.0 %
Extraction speed 30.3 X
Track quality 100.0 %
Copy CRC 3596D1A4
Copy OK

Track 25

Filename C:\Users\Tom\Documents\!!!!!!MUSIC RIPS\Various - Washington Square Memoirs- The Great Urban Folk Boom, 1950-1970 (3) [2001]\25 - Hoyt Axton - Greenback Dollar.wav

Peak level 100.0 %
Extraction speed 31.2 X
Track quality 100.0 %
Copy CRC 331F78A3
Copy OK

Track 26

Filename C:\Users\Tom\Documents\!!!!!!MUSIC RIPS\Various - Washington Square Memoirs- The Great Urban Folk Boom, 1950-1970 (3) [2001]\26 - Carolyn Hester - Swing and Turn Jubilee.wav

Peak level 100.0 %
Extraction speed 26.0 X
Track quality 100.0 %
Copy CRC 7CB596B6
Copy OK

Track 27

Filename C:\Users\Tom\Documents\!!!!!!MUSIC RIPS\Various - Washington Square Memoirs- The Great Urban Folk Boom, 1950-1970 (3) [2001]\27 - Barry & Barry - Another Man.wav

Peak level 99.9 %
Extraction speed 30.8 X
Track quality 100.0 %
Copy CRC BE894681
Copy OK

No errors occurred

End of status report

==== Log checksum 861011EDAB9B2A9526B1D4B5EAC2DFD91D844F520441073EB1632DD5E2B1C9D8 ====


Exact Audio Copy V1.0 beta 3 from 29. August 2011

EAC extraction logfile from 11. June 2018, 14:53

Various Artists / Washington Square Memoirs: The Great Urban Folk Boom, 1950-1970 (2)

Used drive : HL-DT-STDVD-RAM GH15L Adapter: 0 ID: 1

Read mode : Secure
Utilize accurate stream : Yes
Defeat audio cache : No
Make use of C2 pointers : Yes

Read offset correction : 667
Overread into Lead-In and Lead-Out : No
Fill up missing offset samples with silence : No
Delete leading and trailing silent blocks : Yes
Null samples used in CRC calculations : Yes
Used interface : Native Win32 interface for Win NT & 2000
Gap handling : Not detected, thus appended to previous track

Used output format : User Defined Encoder
Selected bitrate : 896 kBit/s
Quality : High
Add ID3 tag : Yes
Command line compressor : C:\Program Files (x86)\Exact Audio Copy\FLAC\FLAC.EXE
Additional command line options : -6 -V -T "ARTIST=%artist%" -T "TITLE=%title%" -T "ALBUM=%albumtitle%" -T "DATE=%year%" -T "TRACKNUMBER=%tracknr%" -T "GENRE=%genre%" -T "COMMENT=%comment%" -T "BAND=%albuminterpret%" -T "ALBUMARTIST=%albuminterpret%" -T "COMPOSER=%composer%" %haslyrics%–tag-from-file=LYRICS="%lyricsfile%"%haslyrics% -T "DISCNUMBER=%cdnumber%" -T "TOTALDISCS=%totalcds%" -T "TOTALTRACKS=%numtracks%" %hascover%–picture="%coverfile%"%hascover% %source% -o %dest%


TOC of the extracted CD

Track | Start | Length | Start sector | End sector
––––––––––––––––––––––––––––-
1 | 0:00.00 | 2:35.57 | 0 | 11681
2 | 2:35.57 | 3:33.65 | 11682 | 27721
3 | 6:09.47 | 2:27.48 | 27722 | 38794
4 | 8:37.20 | 1:57.25 | 38795 | 47594
5 | 10:34.45 | 2:55.62 | 47595 | 60781
6 | 13:30.32 | 3:26.53 | 60782 | 76284
7 | 16:57.10 | 3:44.07 | 76285 | 93091
8 | 20:41.17 | 2:59.10 | 93092 | 106526
9 | 23:40.27 | 2:54.40 | 106527 | 119616
10 | 26:34.67 | 2:57.38 | 119617 | 132929
11 | 29:32.30 | 4:39.05 | 132930 | 153859
12 | 34:11.35 | 2:36.47 | 153860 | 165606
13 | 36:48.07 | 3:26.08 | 165607 | 181064
14 | 40:14.15 | 1:32.60 | 181065 | 188024
15 | 41:47.00 | 3:14.40 | 188025 | 202614
16 | 45:01.40 | 2:25.72 | 202615 | 213561
17 | 47:27.37 | 3:38.45 | 213562 | 229956
18 | 51:06.07 | 2:37.65 | 229957 | 241796
19 | 53:43.72 | 4:27.30 | 241797 | 261851
20 | 58:11.27 | 2:29.23 | 261852 | 273049
21 | 60:40.50 | 2:08.17 | 273050 | 282666
22 | 62:48.67 | 5:05.60 | 282667 | 305601
23 | 67:54.52 | 3:44.33 | 305602 | 322434
24 | 71:39.10 | 2:15.25 | 322435 | 332584
25 | 73:54.35 | 3:59.30 | 332585 | 350539


Track 1

Filename C:\Users\Tom\Documents\!!!!!!MUSIC RIPS\Various - Washington Square Memoirs- The Great Urban Folk Boom, 1950-1970 (2) [2001]\01 - The Rooftop Singers - Walk Right In.wav

Peak level 99.9 %
Extraction speed 15.4 X
Track quality 100.0 %
Copy CRC 5258D32A
Copy OK

Track 2

Filename C:\Users\Tom\Documents\!!!!!!MUSIC RIPS\Various - Washington Square Memoirs- The Great Urban Folk Boom, 1950-1970 (2) [2001]\02 - Dave Van Ronk - He Was a Friend of Mine.wav

Peak level 86.0 %
Extraction speed 19.6 X
Track quality 100.0 %
Copy CRC 83DE5B3C
Copy OK

Track 3

Filename C:\Users\Tom\Documents\!!!!!!MUSIC RIPS\Various - Washington Square Memoirs- The Great Urban Folk Boom, 1950-1970 (2) [2001]\03 - The Chad Mitchell Trio - Last Night I Had the Strangest Dream.wav

Peak level 99.9 %
Extraction speed 20.8 X
Track quality 100.0 %
Copy CRC D120E65F
Copy OK

Track 4

Filename C:\Users\Tom\Documents\!!!!!!MUSIC RIPS\Various - Washington Square Memoirs- The Great Urban Folk Boom, 1950-1970 (2) [2001]\04 - The Big Three - Nora's Dove (Dink's Song).wav

Peak level 79.4 %
Extraction speed 21.7 X
Track quality 100.0 %
Copy CRC 664630E0
Copy OK

Track 5

Filename C:\Users\Tom\Documents\!!!!!!MUSIC RIPS\Various - Washington Square Memoirs- The Great Urban Folk Boom, 1950-1970 (2) [2001]\05 - Hedy West - 500 Miles.wav

Peak level 100.0 %
Extraction speed 19.7 X
Track quality 100.0 %
Copy CRC 68B37D53
Copy OK

Track 6

Filename C:\Users\Tom\Documents\!!!!!!MUSIC RIPS\Various - Washington Square Memoirs- The Great Urban Folk Boom, 1950-1970 (2) [2001]\06 - Ian & Sylvia - Four Strong Winds.wav

Peak level 99.9 %
Extraction speed 21.2 X
Track quality 100.0 %
Copy CRC 93458EF7
Copy OK

Track 7

Filename C:\Users\Tom\Documents\!!!!!!MUSIC RIPS\Various - Washington Square Memoirs- The Great Urban Folk Boom, 1950-1970 (2) [2001]\07 - Tom Paxton - I Can't Help but Wonder Where I'm Bound.wav

Peak level 100.0 %
Extraction speed 25.1 X
Track quality 100.0 %
Copy CRC 8A14D60C
Copy OK

Track 8

Filename C:\Users\Tom\Documents\!!!!!!MUSIC RIPS\Various - Washington Square Memoirs- The Great Urban Folk Boom, 1950-1970 (2) [2001]\08 - Peter, Paul & Mary - Blowin' in the Wind.wav

Peak level 99.9 %
Extraction speed 26.2 X
Track quality 100.0 %
Copy CRC E84B4C8E
Copy OK

Track 9

Filename C:\Users\Tom\Documents\!!!!!!MUSIC RIPS\Various - Washington Square Memoirs- The Great Urban Folk Boom, 1950-1970 (2) [2001]\09 - Bob Gibson - Fog Horn.wav

Peak level 99.9 %
Extraction speed 23.5 X
Track quality 100.0 %
Copy CRC 08003894
Copy OK

Track 10

Filename C:\Users\Tom\Documents\!!!!!!MUSIC RIPS\Various - Washington Square Memoirs- The Great Urban Folk Boom, 1950-1970 (2) [2001]\10 - Judy Henske - High Flying Bird.wav

Peak level 83.2 %
Extraction speed 23.1 X
Track quality 99.8 %
Copy CRC A674046D
Copy OK

Track 11

Filename C:\Users\Tom\Documents\!!!!!!MUSIC RIPS\Various - Washington Square Memoirs- The Great Urban Folk Boom, 1950-1970 (2) [2001]\11 - Bob Dylan - Boots of Spanish Leather.wav

Peak level 67.2 %
Extraction speed 26.0 X
Track quality 100.0 %
Copy CRC EB41F5F0
Copy OK

Track 12

Filename C:\Users\Tom\Documents\!!!!!!MUSIC RIPS\Various - Washington Square Memoirs- The Great Urban Folk Boom, 1950-1970 (2) [2001]\12 - Dave Van Ronk & The Ragtime Jug Stompers - You'se a Viper.wav

Peak level 89.1 %
Extraction speed 24.6 X
Track quality 100.0 %
Copy CRC 73CD1BEC
Copy OK

Track 13

Filename C:\Users\Tom\Documents\!!!!!!MUSIC RIPS\Various - Washington Square Memoirs- The Great Urban Folk Boom, 1950-1970 (2) [2001]\13 - Jesse Colin Young - Four in the Morning.wav

Peak level 99.9 %
Extraction speed 27.2 X
Track quality 100.0 %
Copy CRC 6276E961
Copy OK

Track 14

Filename C:\Users\Tom\Documents\!!!!!!MUSIC RIPS\Various - Washington Square Memoirs- The Great Urban Folk Boom, 1950-1970 (2) [2001]\14 - The Holy Modal Rounders - Euphoria.wav

Peak level 91.4 %
Extraction speed 29.7 X
Track quality 100.0 %
Copy CRC 38E7EE5E
Copy OK

Track 15

Filename C:\Users\Tom\Documents\!!!!!!MUSIC RIPS\Various - Washington Square Memoirs- The Great Urban Folk Boom, 1950-1970 (2) [2001]\15 - Joan Baez - There but for Fortune.wav

Peak level 99.9 %
Extraction speed 27.9 X
Track quality 100.0 %
Copy CRC 0E3CA448
Copy OK

Track 16

Filename C:\Users\Tom\Documents\!!!!!!MUSIC RIPS\Various - Washington Square Memoirs- The Great Urban Folk Boom, 1950-1970 (2) [2001]\16 - The Even Dozen Jug Band - Take Your Fingers Off It.wav

Peak level 99.9 %
Extraction speed 25.6 X
Track quality 99.8 %
Copy CRC 609DC893
Copy OK

Track 17

Filename C:\Users\Tom\Documents\!!!!!!MUSIC RIPS\Various - Washington Square Memoirs- The Great Urban Folk Boom, 1950-1970 (2) [2001]\17 - Judy Roderick - Brother, Can You Spare a Dime!.wav

Peak level 99.9 %
Extraction speed 27.4 X
Track quality 99.9 %
Copy CRC EA3F6A5D
Copy OK

Track 18

Filename C:\Users\Tom\Documents\!!!!!!MUSIC RIPS\Various - Washington Square Memoirs- The Great Urban Folk Boom, 1950-1970 (2) [2001]\18 - Martin & Neil - Tear Down the Walls.wav

Peak level 99.9 %
Extraction speed 33.4 X
Track quality 100.0 %
Copy CRC 17DC131C
Copy OK

Track 19

Filename C:\Users\Tom\Documents\!!!!!!MUSIC RIPS\Various - Washington Square Memoirs- The Great Urban Folk Boom, 1950-1970 (2) [2001]\19 - Bonnie Dobson - Morning Dew (live).wav

Peak level 99.9 %
Extraction speed 35.6 X
Track quality 100.0 %
Copy CRC E7457BAC
Copy OK

Track 20

Filename C:\Users\Tom\Documents\!!!!!!MUSIC RIPS\Various - Washington Square Memoirs- The Great Urban Folk Boom, 1950-1970 (2) [2001]\20 - The Modern Folk Quartet - Jordan's River.wav

Peak level 100.0 %
Extraction speed 29.6 X
Track quality 100.0 %
Copy CRC 4E0DF8B8
Copy OK

Track 21

Filename C:\Users\Tom\Documents\!!!!!!MUSIC RIPS\Various - Washington Square Memoirs- The Great Urban Folk Boom, 1950-1970 (2) [2001]\21 - Koerner, Ray & Glover - What's the Matter With the Mill.wav

Peak level 99.9 %
Extraction speed 35.6 X
Track quality 100.0 %
Copy CRC A05251D7
Copy OK

Track 22

Filename C:\Users\Tom\Documents\!!!!!!MUSIC RIPS\Various - Washington Square Memoirs- The Great Urban Folk Boom, 1950-1970 (2) [2001]\22 - Buffy Sainte-Marie - Cod'ine.wav

Peak level 100.0 %
Extraction speed 33.7 X
Track quality 100.0 %
Copy CRC 5125AB0E
Copy OK

Track 23

Filename C:\Users\Tom\Documents\!!!!!!MUSIC RIPS\Various - Washington Square Memoirs- The Great Urban Folk Boom, 1950-1970 (2) [2001]\23 - Eric Von Schmidt - Joshua Gone Barbados.wav

Peak level 99.9 %
Extraction speed 38.2 X
Track quality 100.0 %
Copy CRC 50053A09
Copy OK

Track 24

Filename C:\Users\Tom\Documents\!!!!!!MUSIC RIPS\Various - Washington Square Memoirs- The Great Urban Folk Boom, 1950-1970 (2) [2001]\24 - The Greenbriar Boys - Take a Whiff on Me.wav

Peak level 100.0 %
Extraction speed 30.9 X
Track quality 100.0 %
Copy CRC A1ED872A
Copy OK

Track 25

Filename C:\Users\Tom\Documents\!!!!!!MUSIC RIPS\Various - Washington Square Memoirs- The Great Urban Folk Boom, 1950-1970 (2) [2001]\25 - Hamilton Camp - Get Together.wav

Peak level 99.9 %
Extraction speed 39.3 X
Track quality 100.0 %
Copy CRC 07788A55
Copy OK

No errors occurred

End of status report

==== Log checksum D1B41F8C0F908F0365FD573FD457B5E63D0E0C88EE2CD22DBE6DE246799EB0D4 ====


Exact Audio Copy V1.0 beta 3 from 29. August 2011

EAC extraction logfile from 11. June 2018, 15:19

Various / Washington Square Memoirs (3)

Used drive : HL-DT-STDVD-RAM GH15L Adapter: 0 ID: 1

Read mode : Secure
Utilize accurate stream : Yes
Defeat audio cache : No
Make use of C2 pointers : Yes

Read offset correction : 667
Overread into Lead-In and Lead-Out : No
Fill up missing offset samples with silence : No
Delete leading and trailing silent blocks : Yes
Null samples used in CRC calculations : Yes
Used interface : Native Win32 interface for Win NT & 2000
Gap handling : Not detected, thus appended to previous track

Used output format : User Defined Encoder
Selected bitrate : 896 kBit/s
Quality : High
Add ID3 tag : Yes
Command line compressor : C:\Program Files (x86)\Exact Audio Copy\FLAC\FLAC.EXE
Additional command line options : -6 -V -T "ARTIST=%artist%" -T "TITLE=%title%" -T "ALBUM=%albumtitle%" -T "DATE=%year%" -T "TRACKNUMBER=%tracknr%" -T "GENRE=%genre%" -T "COMMENT=%comment%" -T "BAND=%albuminterpret%" -T "ALBUMARTIST=%albuminterpret%" -T "COMPOSER=%composer%" %haslyrics%–tag-from-file=LYRICS="%lyricsfile%"%haslyrics% -T "DISCNUMBER=%cdnumber%" -T "TOTALDISCS=%totalcds%" -T "TOTALTRACKS=%numtracks%" %hascover%–picture="%coverfile%"%hascover% %source% -o %dest%


TOC of the extracted CD

Track | Start | Length | Start sector | End sector
––––––––––––––––––––––––––––-
1 | 0:00.32 | 3:52.10 | 32 | 17441
2 | 3:52.42 | 2:36.40 | 17442 | 29181
3 | 6:29.07 | 3:00.50 | 29182 | 42731
4 | 9:29.57 | 2:44.53 | 42732 | 55084
5 | 12:14.35 | 2:12.17 | 55085 | 65001
6 | 14:26.52 | 4:52.38 | 65002 | 86939
7 | 19:19.15 | 3:06.27 | 86940 | 100916
8 | 22:25.42 | 5:14.43 | 100917 | 124509
9 | 27:40.10 | 2:00.07 | 124510 | 133516
10 | 29:40.17 | 4:47.53 | 133517 | 155094
11 | 34:27.70 | 4:25.47 | 155095 | 175016
12 | 38:53.42 | 4:03.35 | 175017 | 193276
13 | 42:57.02 | 2:30.03 | 193277 | 204529
14 | 45:27.05 | 3:24.62 | 204530 | 219891
15 | 48:51.67 | 5:14.20 | 219892 | 243461
16 | 54:06.12 | 5:29.05 | 243462 | 268141
17 | 59:35.17 | 2:57.55 | 268142 | 281471
18 | 62:32.72 | 4:10.48 | 281472 | 300269
19 | 66:43.45 | 3:07.32 | 300270 | 314326
20 | 69:51.02 | 7:56.03 | 314327 | 350029


Track 1

Filename C:\Users\Tom\Documents\!!!!!!MUSIC RIPS\Various - Washington Square Memoirs (3) [2001]\01 - The Limeliters - The Wabash Cannonball (live).wav

Peak level 99.9 %
Extraction speed 16.8 X
Track quality 100.0 %
Copy CRC 58DA35DD
Copy OK

Track 2

Filename C:\Users\Tom\Documents\!!!!!!MUSIC RIPS\Various - Washington Square Memoirs (3) [2001]\02 - Phil Ochs - I Ain't Marching Anymore.wav

Peak level 100.0 %
Extraction speed 19.8 X
Track quality 100.0 %
Copy CRC A8C4D332
Copy OK

Track 3

Filename C:\Users\Tom\Documents\!!!!!!MUSIC RIPS\Various - Washington Square Memoirs (3) [2001]\03 - Richard & Mimi Farina - Pack Up Your Sorrows.wav

Peak level 99.9 %
Extraction speed 17.8 X
Track quality 99.8 %
Copy CRC B5370E78
Copy OK

Track 4

Filename C:\Users\Tom\Documents\!!!!!!MUSIC RIPS\Various - Washington Square Memoirs (3) [2001]\04 - John Hammond - Drop Down Mama.wav

Peak level 100.0 %
Extraction speed 18.7 X
Track quality 100.0 %
Copy CRC 0EE464D0
Copy OK

Track 5

Filename C:\Users\Tom\Documents\!!!!!!MUSIC RIPS\Various - Washington Square Memoirs (3) [2001]\05 - Jim Kweskin & The Jug Band - Rag Mama.wav

Peak level 100.0 %
Extraction speed 18.1 X
Track quality 99.8 %
Copy CRC 5D0F046F
Copy OK

Track 6

Filename C:\Users\Tom\Documents\!!!!!!MUSIC RIPS\Various - Washington Square Memoirs (3) [2001]\06 - John Denver - Bells Of Rhymney.wav

Peak level 100.0 %
Extraction speed 22.2 X
Track quality 100.0 %
Copy CRC 4E192043
Copy OK

Track 7

Filename C:\Users\Tom\Documents\!!!!!!MUSIC RIPS\Various - Washington Square Memoirs (3) [2001]\07 - Gordon Lightfoot - Early Morning Rain.wav

Peak level 100.0 %
Extraction speed 22.3 X
Track quality 100.0 %
Copy CRC 7A335555
Copy OK

Track 8

Filename C:\Users\Tom\Documents\!!!!!!MUSIC RIPS\Various - Washington Square Memoirs (3) [2001]\08 - Eric Anderson - Thirsty Boots.wav

Peak level 100.0 %
Extraction speed 26.5 X
Track quality 100.0 %
Copy CRC D88EE774
Copy OK

Track 9

Filename C:\Users\Tom\Documents\!!!!!!MUSIC RIPS\Various - Washington Square Memoirs (3) [2001]\09 - Tim Hardin - Reason To Believe.wav

Peak level 100.0 %
Extraction speed 22.6 X
Track quality 100.0 %
Copy CRC C8BF99A6
Copy OK

Track 10

Filename C:\Users\Tom\Documents\!!!!!!MUSIC RIPS\Various - Washington Square Memoirs (3) [2001]\10 - Richie Havens - Just Like A Woman.wav

Peak level 100.0 %
Extraction speed 26.9 X
Track quality 100.0 %
Copy CRC 1E82C291
Copy OK

Track 11

Filename C:\Users\Tom\Documents\!!!!!!MUSIC RIPS\Various - Washington Square Memoirs (3) [2001]\11 - Judy Collins - Suzanne.wav

Peak level 95.1 %
Extraction speed 27.6 X
Track quality 100.0 %
Copy CRC C827B6CB
Copy OK

Track 12

Filename C:\Users\Tom\Documents\!!!!!!MUSIC RIPS\Various - Washington Square Memoirs (3) [2001]\12 - Fred Neil - The Dolphins.wav

Peak level 98.6 %
Extraction speed 27.1 X
Track quality 99.9 %
Copy CRC 077DE933
Copy OK

Track 13

Filename C:\Users\Tom\Documents\!!!!!!MUSIC RIPS\Various - Washington Square Memoirs (3) [2001]\13 - Kathy & Carol - Wondrous Love.wav

Peak level 100.0 %
Extraction speed 26.4 X
Track quality 100.0 %
Copy CRC EF9A24F0
Copy OK

Track 14

Filename C:\Users\Tom\Documents\!!!!!!MUSIC RIPS\Various - Washington Square Memoirs (3) [2001]\14 - Tim Buckley - Once I Was.wav

Peak level 99.9 %
Extraction speed 28.8 X
Track quality 100.0 %
Copy CRC BE880FCE
Copy OK

Track 15

Filename C:\Users\Tom\Documents\!!!!!!MUSIC RIPS\Various - Washington Square Memoirs (3) [2001]\15 - Tom Rush - The Circle Game.wav

Peak level 99.9 %
Extraction speed 34.5 X
Track quality 100.0 %
Copy CRC 68336157
Copy OK

Track 16

Filename C:\Users\Tom\Documents\!!!!!!MUSIC RIPS\Various - Washington Square Memoirs (3) [2001]\16 - David Blue - These 23 Days In Sep[tember.wav

Peak level 100.0 %
Extraction speed 32.7 X
Track quality 100.0 %
Copy CRC 728C229D
Copy OK

Track 17

Filename C:\Users\Tom\Documents\!!!!!!MUSIC RIPS\Various - Washington Square Memoirs (3) [2001]\17 - Taj Mahal - Candy Man.wav

Peak level 100.0 %
Extraction speed 30.2 X
Track quality 100.0 %
Copy CRC B6090305
Copy OK

Track 18

Filename C:\Users\Tom\Documents\!!!!!!MUSIC RIPS\Various - Washington Square Memoirs (3) [2001]\18 - Paul Siebel - Then Came The Children.wav

Peak level 100.0 %
Extraction speed 33.2 X
Track quality 100.0 %
Copy CRC 22FB7006
Copy OK

Track 19

Filename C:\Users\Tom\Documents\!!!!!!MUSIC RIPS\Various - Washington Square Memoirs (3) [2001]\19 - Loudon Wainwright III - School Days.wav

Peak level 100.0 %
Extraction speed 37.4 X
Track quality 100.0 %
Copy CRC 39B2F737
Copy OK

Track 20

Filename C:\Users\Tom\Documents\!!!!!!MUSIC RIPS\Various - Washington Square Memoirs (3) [2001]\20 - Arlo Guthrie - The Motorcycle Song (live).wav

Peak level 100.0 %
Extraction speed 37.2 X
Track quality 100.0 %
Copy CRC CF6332D5
Copy OK

No errors occurred

End of status report

==== Log checksum 76E89BAEC87DEB36EEF8B4D1AF57E68AEB445146305137E8D5E018160D6E4AED ====