Tags
Language
Tags

Whitesnake - 1987 & Slip Of The Tongue. Axe Killer Warrior's Set (2000)

Posted By: v3122
Whitesnake - 1987 & Slip Of The Tongue. Axe Killer Warrior's Set (2000)

Whitesnake - 1987 & Slip Of The Tongue. Axe Killer Warrior's Set (2000)
EAC | Flac(Image) + Cue + Log & MP3 CBR 320Kbps
2007 | 2CD | FGL, AX0711107 | ~ 919 or 283 Mb | Scans(jpg) -> 184 Mb
Hard Rock, Arena Rock

Part of the Axe Killer label's "Back to Black Collection," 1987/Slip of the Tongue collects the Whitesnake albums of the same name in their entireties with bonus tracks housed in a slick black sheath. 1987, also known as Whitesnake, was a breakout record for the group, scoring three Top Ten hits with "Still of the Night," "Is This Love," and "Here I Go Again," while 1989's Slip of the Tongue, despite boasting two decent hits ("Fool for Your Loving" and "The Deeper the Love") suffered from the hair metal genre's dwindling popularity. Fans looking for the best of both worlds would be better off with 1994's Whitesnake's Greatest Hits.

by James Christopher Monger, allmusic
Whitesnake - 1987 & Slip Of The Tongue. Axe Killer Warrior's Set (2000)


Whitesnake - 1987 & Slip Of The Tongue. Axe Killer Warrior's Set (2000):

Whitesnake - 1987 & Slip Of The Tongue. Axe Killer Warrior's Set (2000)

Tracklist CD1 - 1987:

01. Crying In The Rain [5:37]
02. Bad Boys [4:07]
03. Still Of The Night [6:40]
04. Here I Go Again [4:35]
05. Give Me All Your Love [3:30]
06. Is This Love [4:45]
07. Children Of The Night [4:23]
08. Straight For The Heart [3:40]
09. Don't Turn Away [5:08]

Bonus tracks:
10. Looking For Love [6:31]
11. Standing In The Shadows (Remix) [3:54]
12. Need Your Love So Bad (Remix) [3:19]

Exact Audio Copy V0.99 prebeta 5 from 4. May 2009

EAC extraction logfile from 2. February 2012, 9:10

Whitesnake / 1987 (Remaster)

Used drive : ASUS DRW-24B3ST Adapter: 1 ID: 0

Read mode : Secure
Utilize accurate stream : Yes
Defeat audio cache : Yes
Make use of C2 pointers : No

Read offset correction : 6
Overread into Lead-In and Lead-Out : No
Fill up missing offset samples with silence : Yes
Delete leading and trailing silent blocks : No
Null samples used in CRC calculations : Yes
Used interface : Native Win32 interface for Win NT & 2000

Used output format : Internal WAV Routines
Sample format : 44.100 Hz; 16 Bit; Stereo


TOC of the extracted CD

Track | Start | Length | Start sector | End sector
––––––––––––––––––––––––––––-
1 | 0:00.00 | 5:36.60 | 0 | 25259
2 | 5:36.60 | 4:07.02 | 25260 | 43786
3 | 9:43.62 | 6:39.74 | 43787 | 73785
4 | 16:23.61 | 4:35.25 | 73786 | 94435
5 | 20:59.11 | 3:29.49 | 94436 | 110159
6 | 24:28.60 | 4:44.53 | 110160 | 131512
7 | 29:13.38 | 4:23.32 | 131513 | 151269
8 | 33:36.70 | 3:39.48 | 151270 | 167742
9 | 37:16.43 | 5:07.52 | 167743 | 190819
10 | 42:24.20 | 6:31.33 | 190820 | 220177
11 | 48:55.53 | 3:53.58 | 220178 | 237710
12 | 52:49.36 | 3:19.01 | 237711 | 252636


Range status and errors

Selected range

Filename E:\WHITESNAKE\2007- Axe Killer Warrior's Set- 1987+Slip Of The Tongue (2CD FR FGL-EMI • AX0711107)\Whitesnake - 1987 (Remaster).wav

Peak level 99.8 %
Range quality 100.0 %
Test CRC 4DD6133D
Copy CRC 4DD6133D
Copy OK

No errors occurred


AccurateRip summary

Track 1 accurately ripped (confidence 5) [CF8E3069]
Track 2 accurately ripped (confidence 5) [A41E7042]
Track 3 accurately ripped (confidence 5) [5BBF036E]
Track 4 accurately ripped (confidence 5) [46776C6F]
Track 5 accurately ripped (confidence 5) [0213393D]
Track 6 accurately ripped (confidence 5) [CFB7D667]
Track 7 accurately ripped (confidence 5) [C63A3A3C]
Track 8 accurately ripped (confidence 5) [BE789C5B]
Track 9 accurately ripped (confidence 5) [F09BC548]
Track 10 accurately ripped (confidence 5) [3A4BE803]
Track 11 accurately ripped (confidence 4) [E313AD9D]
Track 12 accurately ripped (confidence 4) [48557DD8]

All tracks accurately ripped

End of status report

foobar2000 1.2.9 / Dynamic Range Meter 1.1.1
log date: 2017-05-07 17:01:07

––––––––––––––––––––––––––––––––––––––––
Analyzed: Whitesnake / 1987 (Remaster)
––––––––––––––––––––––––––––––––––––––––

DR Peak RMS Duration Track
––––––––––––––––––––––––––––––––––––––––
DR5 -0.01 dB -5.46 dB 5:37 01-Crying In The Rain
DR4 -0.01 dB -5.39 dB 4:07 02-Bad Boys
DR4 -0.01 dB -5.76 dB 6:40 03-Still Of The Night
DR5 -0.01 dB -7.05 dB 4:35 04-Here I Go Again
DR4 -0.01 dB -4.79 dB 3:30 05-Give Me All Your Love
DR5 -0.01 dB -6.36 dB 4:45 06-Is This Love
DR4 -0.01 dB -5.34 dB 4:23 07-Children Of The Night
DR4 -0.01 dB -5.01 dB 3:40 08-Straight For The Heart
DR5 -0.01 dB -6.06 dB 5:08 09-Don't Turn Away
DR4 -0.01 dB -5.89 dB 6:31 10-Looking For Love
DR5 -0.01 dB -6.21 dB 3:54 11-Standing In The Shadows (Remix)
DR6 -0.01 dB -8.58 dB 3:19 12-Need Your Love So Bad (Remix)
––––––––––––––––––––––––––––––––––––––––

Number of tracks: 12
Official DR value: DR5

Samplerate: 44100 Hz
Channels: 2
Bits per sample: 16
Bitrate: 1044 kbps
Codec: FLAC

[CUETools log; Date: 07.05.2017 17:00:57; Version: 2.1.4]
[CTDB TOCID: VtkYKTcKiClTnQ0ZJ7uxXGh7pyg-] found.
Track | CTDB Status
1 | (17/17) Accurately ripped
2 | (17/17) Accurately ripped
3 | (17/17) Accurately ripped
4 | (17/17) Accurately ripped
5 | (17/17) Accurately ripped
6 | (17/17) Accurately ripped
7 | (17/17) Accurately ripped
8 | (17/17) Accurately ripped
9 | (17/17) Accurately ripped
10 | (17/17) Accurately ripped
11 | (17/17) Accurately ripped
12 | (17/17) Accurately ripped
[AccurateRip ID: 0019ede5-00efd4c7-ac0d280c] found.
Track [ CRC | V2 ] Status
01 [cf8e3069|0bfe7cff] (05+03/15) Accurately ripped
02 [a41e7042|c10ef8e4] (05+03/15) Accurately ripped
03 [5bbf036e|1c9bd53a] (05+03/15) Accurately ripped
04 [46776c6f|1e28398c] (05+03/15) Accurately ripped
05 [0213393d|c3b98faa] (05+03/15) Accurately ripped
06 [cfb7d667|0a1a7140] (05+03/15) Accurately ripped
07 [c63a3a3c|960cd29a] (05+03/15) Accurately ripped
08 [be789c5b|45a1fdd6] (05+03/15) Accurately ripped
09 [f09bc548|d95105fb] (05+03/15) Accurately ripped
10 [3a4be803|a04989b9] (05+03/15) Accurately ripped
11 [e313ad9d|50f43082] (04+03/14) Accurately ripped
12 [48557dd8|3bff5084] (04+03/14) Accurately ripped
Offsetted by -664:
01 [450249ae] (00/15) No match (V2 was not tested)
02 [76f79095] (00/15) No match (V2 was not tested)
03 [354d60ee] (00/15) No match (V2 was not tested)
04 [51e5c407] (00/15) No match (V2 was not tested)
05 [2ae6ed03] (00/15) No match (V2 was not tested)
06 [9426ef11] (00/15) No match (V2 was not tested)
07 [6560f7dc] (00/15) No match (V2 was not tested)
08 [41e672eb] (00/15) No match (V2 was not tested)
09 [ee2f60c8] (00/15) No match (V2 was not tested)
10 [3685883b] (00/15) No match (V2 was not tested)
11 [5a6b8f85] (00/14) No match (V2 was not tested)
12 [72980328] (00/14) No match (V2 was not tested)

Track Peak [ CRC32 ] [W/O NULL] [ LOG ]
– 99,8 [4DD6133D] [6B869949] CRC32
01 99,8 [1F55B1EE] [9C37511B]
02 99,8 [032A792C] [A32D0ECB]
03 99,8 [FF42ED88] [01306184]
04 99,8 [83F9303D] [0B94E838]
05 99,8 [F98E9E81] [937D2DE0]
06 99,8 [BC8A9BF2] [13E78915]
07 99,8 [7E6EA936] [507064B9]
08 99,8 [5DB3C6A2] [879600A4]
09 99,8 [68336D00] [F758CC92]
10 99,8 [801CA7CA] [94A7BDB0]
11 99,8 [9AD89771] [708FFE64]
12 99,8 [546D27E4] [6F327177]

Whitesnake - 1987 & Slip Of The Tongue. Axe Killer Warrior's Set (2000)

Tracklist CD2 - Slip Of The Tongue:

01. Slip Of The Tongue [5:20]
02. Cheap An' Nasty [3:29]
03. Fool For Your Loving [4:12]
04. Now You're Gone [4:12]
05. Kittens Got Claws [5:02]
06. Wings Of The Storm [5:02]
07. The Deeper The Love [4:23]
08. Judgment Day [5:16]
09. Slow Poke Music [4:00]
10. Sailing Ships [6:03]

Bonus tracks:
11. Sweet Lady Luck [4:36]
12. Walking In The Shadows Of Blues [4:24]
13. You're Gonna Break My Heart Again [4:12]
14. Guilty Of Love [3:29]

Exact Audio Copy V0.99 prebeta 5 from 4. May 2009

EAC extraction logfile from 2. February 2012, 9:30

Whitesnake / Slip Of The Tongue (Remaster)

Used drive : ASUS DRW-24B3ST Adapter: 1 ID: 0

Read mode : Secure
Utilize accurate stream : Yes
Defeat audio cache : Yes
Make use of C2 pointers : No

Read offset correction : 6
Overread into Lead-In and Lead-Out : No
Fill up missing offset samples with silence : Yes
Delete leading and trailing silent blocks : No
Null samples used in CRC calculations : Yes
Used interface : Native Win32 interface for Win NT & 2000

Used output format : Internal WAV Routines
Sample format : 44.100 Hz; 16 Bit; Stereo


TOC of the extracted CD

Track | Start | Length | Start sector | End sector
––––––––––––––––––––––––––––-
1 | 0:00.00 | 5:20.30 | 0 | 24029
2 | 5:20.30 | 3:29.24 | 24030 | 39728
3 | 8:49.54 | 4:11.71 | 39729 | 58624
4 | 13:01.50 | 4:11.49 | 58625 | 77498
5 | 17:13.24 | 5:02.01 | 77499 | 100149
6 | 22:15.25 | 5:01.63 | 100150 | 122787
7 | 27:17.13 | 4:22.66 | 122788 | 142503
8 | 31:40.04 | 5:16.37 | 142504 | 166240
9 | 36:56.41 | 3:59.42 | 166241 | 184207
10 | 40:56.08 | 6:03.02 | 184208 | 211434
11 | 46:59.10 | 4:35.53 | 211435 | 232112
12 | 51:34.63 | 4:24.04 | 232113 | 251916
13 | 55:58.67 | 4:11.43 | 251917 | 270784
14 | 60:10.35 | 3:28.42 | 270785 | 286426


Range status and errors

Selected range

Filename E:\WHITESNAKE\2007- Axe Killer Warrior's Set- 1987+Slip Of The Tongue (2CD FR FGL-EMI • AX0711107)\Whitesnake - Slip Of The Tongue (Remaster).wav

Peak level 99.8 %
Range quality 100.0 %
Test CRC 288FE697
Copy CRC 288FE697
Copy OK

No errors occurred


AccurateRip summary

Track 1 accurately ripped (confidence 3) [B6B4A43B]
Track 2 accurately ripped (confidence 3) [ECDBD91A]
Track 3 accurately ripped (confidence 3) [7B26457D]
Track 4 accurately ripped (confidence 3) [72A59D8F]
Track 5 accurately ripped (confidence 3) [1893BA4C]
Track 6 accurately ripped (confidence 3) [AF12D5B2]
Track 7 accurately ripped (confidence 3) [8AED6D43]
Track 8 accurately ripped (confidence 3) [D57ECB40]
Track 9 accurately ripped (confidence 3) [9A424B17]
Track 10 accurately ripped (confidence 3) [25FD3A09]
Track 11 accurately ripped (confidence 3) [A4402B58]
Track 12 accurately ripped (confidence 3) [759E80C4]
Track 13 accurately ripped (confidence 3) [5F6A0F75]
Track 14 accurately ripped (confidence 2) [5B75B7BD]

All tracks accurately ripped

End of status report

foobar2000 1.2.9 / Dynamic Range Meter 1.1.1
log date: 2017-05-07 17:01:24

––––––––––––––––––––––––––––––––––––––––
Analyzed: Whitesnake / Slip Of The Tongue (Remaster)
––––––––––––––––––––––––––––––––––––––––

DR Peak RMS Duration Track
––––––––––––––––––––––––––––––––––––––––
DR7 -0.01 dB -7.74 dB 5:20 01-Slip Of The Tongue
DR7 -0.01 dB -8.46 dB 3:29 02-Cheap An' Nasty
DR6 -0.01 dB -7.27 dB 4:12 03-Fool For Your Loving
DR6 -0.01 dB -7.85 dB 4:12 04-Now You're Gone
DR7 -0.01 dB -7.67 dB 5:02 05-Kittens Got Claws
DR6 -0.01 dB -7.26 dB 5:02 06-Wings Of The Storm
DR6 -0.01 dB -7.09 dB 4:23 07-The Deeper The Love
DR6 -0.01 dB -8.01 dB 5:16 08-Judgment Day
DR7 -0.01 dB -7.80 dB 4:00 09-Slow Poke Music
DR6 -0.01 dB -8.96 dB 6:03 10-Sailing Ships
DR4 -1.01 dB -6.07 dB 4:36 11-Sweet Lady Luck
DR7 -0.01 dB -8.35 dB 4:24 12-Walking In The Shadows Of Blues
DR5 -1.01 dB -6.39 dB 4:12 13-You're Gonna Break My Heart Again
DR5 -1.51 dB -7.03 dB 3:29 14-Guilty Of Love
––––––––––––––––––––––––––––––––––––––––

Number of tracks: 14
Official DR value: DR6

Samplerate: 44100 Hz
Channels: 2
Bits per sample: 16
Bitrate: 1038 kbps
Codec: FLAC

[CUETools log; Date: 07.05.2017 17:01:15; Version: 2.1.4]
[CTDB TOCID: 5hKSuNqM9U284f.1MQoFoH5Hp.0-] found.
Track | CTDB Status
1 | (15/15) Accurately ripped
2 | (15/15) Accurately ripped
3 | (15/15) Accurately ripped
4 | (15/15) Accurately ripped
5 | (15/15) Accurately ripped
6 | (15/15) Accurately ripped
7 | (15/15) Accurately ripped
8 | (15/15) Accurately ripped
9 | (15/15) Accurately ripped
10 | (14/15) Accurately ripped
11 | (15/15) Accurately ripped
12 | (15/15) Accurately ripped
13 | (15/15) Accurately ripped
14 | (15/15) Accurately ripped
[AccurateRip ID: 00211683-01620675-b10eeb0e] found.
Track [ CRC | V2 ] Status
01 [b6b4a43b|bcdebbdd] (03+03/15) Accurately ripped
02 [ecdbd91a|453c5703] (03+03/15) Accurately ripped
03 [7b26457d|722f7b91] (03+03/15) Accurately ripped
04 [72a59d8f|fcc3d47b] (03+03/15) Accurately ripped
05 [1893ba4c|d99012c9] (03+03/15) Accurately ripped
06 [af12d5b2|04a47b15] (03+03/15) Accurately ripped
07 [8aed6d43|3e6b973c] (03+03/15) Accurately ripped
08 [d57ecb40|28fcb7a9] (03+03/15) Accurately ripped
09 [9a424b17|4d6c8f89] (03+03/15) Accurately ripped
10 [25fd3a09|52211360] (03+03/15) Accurately ripped
11 [a4402b58|69b23d82] (03+03/15) Accurately ripped
12 [759e80c4|20a7b83a] (02+03/14) Accurately ripped
13 [5f6a0f75|0f08a56b] (03+03/15) Accurately ripped
14 [5b75b7bd|2c68e846] (02+03/14) Accurately ripped
Offsetted by -664:
01 [9fdf784c] (02/15) Accurately ripped
02 [fd088629] (02/15) Accurately ripped
03 [8d374515] (02/15) Accurately ripped
04 [2fa44147] (02/15) Accurately ripped
05 [a4f7ed1c] (02/15) Accurately ripped
06 [09396642] (02/15) Accurately ripped
07 [8f04b0e9] (02/15) Accurately ripped
08 [b3451b82] (02/15) Accurately ripped
09 [3367a4c3] (02/15) Accurately ripped
10 [df4cd1e5] (02/15) Accurately ripped
11 [0c3b07e0] (02/15) Accurately ripped
12 [f6f6a99c] (02/14) Accurately ripped
13 [a20c01a5] (02/15) Accurately ripped
14 [9c4bb69d] (02/14) Accurately ripped

Track Peak [ CRC32 ] [W/O NULL] [ LOG ]
– 99,8 [288FE697] [C3B3BADD] CRC32
01 99,8 [0EC2B1F5] [B727F4AB]
02 99,8 [FFDFD19D] [2DF51D76]
03 99,8 [AF14C363] [D60A2E96]
04 99,8 [B573AF35] [4ACB5AFF]
05 99,8 [76B7977E] [17EB2F39]
06 99,8 [B81E7554] [1FCE2849]
07 99,8 [06848D1D] [9C928BEA]
08 99,8 [12F97B28] [4DE12486]
09 99,8 [1DE2EF66] [F13D431A]
10 99,8 [1D651F13] [5E0931A2]
11 89,0 [2069F76A] [F0B3A50A]
12 99,8 [083C8410] [DDEA6999]
13 89,0 [8BCD731B] [B09887EF]
14 84,0 [A62A16B1] [3E3F99D1]

Whitesnake - 1987 & Slip Of The Tongue. Axe Killer Warrior's Set (2000)

All thanks go to the original releaser

Whitesnake in my Blog

Download Whitesnake - 1987 & Slip Of The Tongu. Axe Killer Warrior's Set (2000):