Subcategories
Tags
Language
Tags

Wilhelm Furtwängler: Das Vermächtnis / The Legacy - Box 5: Haydn, Mozart, Schubert (2010)

Posted By: ArlegZ
Wilhelm Furtwängler: Das Vermächtnis / The Legacy - Box 5: Haydn, Mozart, Schubert (2010)

Wilhelm Furtwängler: Das Vermächtnis / The Legacy - Box 5: Haydn, Mozart, Schubert (2010)
EAC | FLAC | Image (Cue & Log) ~ 3.37 Gb | Total time: 15:30:43 | Scans included
Classical | Label: Membran Music | # 233110 | Recorded: 1926-1954

Conductor Wilhelm Furtwangler already enjoyed a worldwide legendary standing during his lifetime - he was considered the German conductor and performances were greeted with rapturous applause. Today, more than 50 years after his death, Wilhelm Furtwangler is still an icon and his work has become an integral part ofthe music scene.
But just what makes up this fascination? And what makes his recordings so special? This edition provides the answers.
These 107 CDs contain all the works Furtwangler ever recorded for release on record - and the "live" recordings he made for radio broadcast. In the case of different versions of the same work having been produced (for example there are 12 recordings of Beethoven's Eroica!.0 the best, most beautiful, or the most exciting interpretations have been chosen for this edition. In addition the numerous bonus CDs and tracks present excerpts taken from alternative recordings.
From his very first recording (Weber's Freischiitz Overture, 1928) to his very last (Wagner's Valkyrie, 1954), this edition features productions of all the Beethoven and Brahms symphonies, the complete Rome recording of Wagner's Ring, recordings of the famous symphonies composed by Schubert, Schumann, Bruckner and Mozart, highlights taken from the Salzburg recordings of Don Giovanni, Magic Flute and Figaro, a live Bayreuth recording of Mastersingers etc. etc. etc.
The edition has been complemented by recordings of rehearsals and interviews. In addition the recording of the famous Salzburg song recital in 1953 reflects on the pianist Wilhelm Furtwangler as accompanist to Elisabeth Schwarzkopf.
Furthermore, the edition contains a DVD with a video clip featuring the famous music critic Prof. Dr. Joachim Kaiser, who provides the answer to the question: why is Wilhelm Furtwangler still the most famous conductor in the world?

Contents:
Joseph Haydn (1732-1809)
CD 34:
- Symphony No. 88 - Vienna Philharmonic 12/05/1951
- Symphony No. 94 "Surprise" - Vienna Philharmonic 09/25/1950
Wolfgang Amadeus Mozart (1756-1791)
CD 35:
- Symphony No. 39 - Berlin Philharmonic 02/08/1944
- Symphony No. 40 - Vienna Philharmonic 12/07-08/1948 & 02/17/1949
CD 36:
- Serenade No. 10 for 13 Wind Instruments "Gran Partita" - Wind soloists of the Vienna Philharmonic 11-12/1947
- Serenade No. 13 "A Little Night Music" - Vienna Philharmonic 04/01/1949
CD 37:
- Piano Concerto KV 466 - Yvonne Lefébure piano, Berlin Philharmonic 05/15/1954
- The Escape From The Seraglio: Overture - Berlin Philharmonic 1933
CD 38:
- Concerto for Two Pianos KV 365, Dagmar Bella & Paul Badura-Skoda piano, Vienna Philharmonic 02/08/1949
- Piano Concerto No. 22 - Paul Badura-Skoda piano, Vienna Philharmonic - 01/27/1952
CD 39-41:
- Don Giovanni - Cesare Siepi, Elisabeth Schwarzkopf, Anton Dermota, Otto Edelmann, Vienna State Opera Choir, Vienna Philharmonic 08/06/1954
CD 42-44:
- Die Hochzeit des Figaro - Paul Schöffler, Elisabeth Schwarzkopf, Erich Kunz Maikl, Vienna State Opera Choir, Vienna Philharmonic 08/07/1953
CD 45-47:
- The Magic Flute - Josef Greindl, Anton Dermota, Paul Schöffler, Wilma Lipp, Erich Kunz, Vienna State Opera Choir, Vienna Philharmonic 08/01/1951
Franz Schubert (1797-1828)
CD 48:
- Symphony No. 8 "Unfinished" - Berlin Philharmonic 02/10/1952
- Symphony No. 9 - Berlin Philharmonic 11-12/1951
CD 49:
- Schubert - Rosamunde (excerpts) - Vienna Philharmonic, 01-02/1951
- Mozart - Le nozze di Figaro Overture - Berlin Philharmonic 1933
- Mozart - Don Giovanni (excerpts) - Tito Gobbi, Josef Greindl, Vienna State Opera Choir, Vienna Philharmonic 07/27/1950
- Mozart - The Magic Flute: Hm! Hm! Hm! - Walter Ludwig, Karl Schmidt-Walter, Vienna Philharmonic 07/27/1949



Exact Audio Copy V1.5 from 20. February 2020

EAC extraction logfile from 16. January 2021, 16:19

Wilhelm Furtwängler / Das Vermächtnis (The Legacy) - CD 34

Used drive : HL-DT-STDVDRAM GH24NS95 Adapter: 1 ID: 0

Read mode : Secure
Utilize accurate stream : Yes
Defeat audio cache : Yes
Make use of C2 pointers : No

Read offset correction : 6
Overread into Lead-In and Lead-Out : No
Fill up missing offset samples with silence : Yes
Delete leading and trailing silent blocks : No
Null samples used in CRC calculations : Yes
Used interface : Native Win32 interface for Win NT & 2000

Used output format : User Defined Encoder
Selected bitrate : 128 kBit/s
Quality : High
Add ID3 tag : No
Command line compressor : C:\Program Files\Exact Audio Copy\Flac\flac.exe
Additional command line options : -V -8 -T "Date=%year%" -T "Genre=%genre%" %source%


TOC of the extracted CD

Track | Start | Length | Start sector | End sector
––––––––––––––––––––––––––––-
1 | 0:00.00 | 6:52.30 | 0 | 30929
2 | 6:52.30 | 6:19.00 | 30930 | 59354
3 | 13:11.30 | 4:24.00 | 59355 | 79154
4 | 17:35.30 | 3:41.00 | 79155 | 95729
5 | 21:16.30 | 6:58.09 | 95730 | 127088
6 | 28:14.39 | 7:37.31 | 127089 | 161394
7 | 35:51.70 | 4:03.10 | 161395 | 179629
8 | 39:55.05 | 3:51.64 | 179630 | 197018


Range status and errors

Selected range

Filename C:\ArlegZ\Wilhelm Furtwangler - Das Vermachtnis (The Legacy) - CD 34.wav

Peak level 100.0 %
Extraction speed 1.6 X
Range quality 100.0 %
Test CRC 687A21CC
Copy CRC 687A21CC
Copy OK

No errors occurred


AccurateRip summary

Track 1 accurately ripped (confidence 24) [EBF78798] (AR v2)
Track 2 accurately ripped (confidence 23) [045871AE] (AR v2)
Track 3 accurately ripped (confidence 24) [E0782C54] (AR v2)
Track 4 accurately ripped (confidence 24) [DA55E9AC] (AR v2)
Track 5 accurately ripped (confidence 23) [7508A82E] (AR v2)
Track 6 accurately ripped (confidence 24) [E5146021] (AR v2)
Track 7 accurately ripped (confidence 23) [0D951EB8] (AR v2)
Track 8 accurately ripped (confidence 23) [DA21CDCD] (AR v2)

All tracks accurately ripped

End of status report

–– CUETools DB Plugin V2.1.6

[CTDB TOCID: g85SBX2XuhX5EAoTti4wq5EQM04-] found
Submit result: g85SBX2XuhX5EAoTti4wq5EQM04- has been confirmed
Track | CTDB Status
1 | (48/48) Accurately ripped
2 | (48/48) Accurately ripped
3 | (48/48) Accurately ripped
4 | (48/48) Accurately ripped
5 | (47/48) Accurately ripped
6 | (47/48) Accurately ripped
7 | (48/48) Accurately ripped
8 | (47/48) Accurately ripped


==== Log checksum 0F748CF77CB7966412EB5A0624866AE11769AD595FC53FEF055346F084879EA0 ====


Exact Audio Copy V1.5 from 20. February 2020

EAC extraction logfile from 16. January 2021, 17:05

Wilhelm Furtwängler / Das Vermächtnis (The Legacy) - CD 35

Used drive : HL-DT-STDVDRAM GH24NS95 Adapter: 1 ID: 0

Read mode : Secure
Utilize accurate stream : Yes
Defeat audio cache : Yes
Make use of C2 pointers : No

Read offset correction : 6
Overread into Lead-In and Lead-Out : No
Fill up missing offset samples with silence : Yes
Delete leading and trailing silent blocks : No
Null samples used in CRC calculations : Yes
Used interface : Native Win32 interface for Win NT & 2000

Used output format : User Defined Encoder
Selected bitrate : 128 kBit/s
Quality : High
Add ID3 tag : No
Command line compressor : C:\Program Files\Exact Audio Copy\Flac\flac.exe
Additional command line options : -V -8 -T "Date=%year%" -T "Genre=%genre%" %source%


TOC of the extracted CD

Track | Start | Length | Start sector | End sector
––––––––––––––––––––––––––––-
1 | 0:00.00 | 9:16.10 | 0 | 41709
2 | 9:16.10 | 9:29.30 | 41710 | 84414
3 | 18:45.40 | 3:46.23 | 84415 | 101387
4 | 22:31.63 | 5:27.52 | 101388 | 125964
5 | 27:59.40 | 6:53.32 | 125965 | 156971
6 | 34:52.72 | 8:23.08 | 156972 | 194704
7 | 43:16.05 | 4:20.70 | 194705 | 214274
8 | 47:37.00 | 4:31.27 | 214275 | 234626


Range status and errors

Selected range

Filename C:\ArlegZ\Wilhelm Furtwangler - Das Vermachtnis (The Legacy) - CD 35.wav

Peak level 97.7 %
Extraction speed 1.7 X
Range quality 100.0 %
Test CRC 5406E371
Copy CRC 5406E371
Copy OK

No errors occurred


AccurateRip summary

Track 1 accurately ripped (confidence 24) [030D7B63] (AR v2)
Track 2 accurately ripped (confidence 25) [C9883C34] (AR v2)
Track 3 accurately ripped (confidence 25) [8C74E68E] (AR v2)
Track 4 accurately ripped (confidence 25) [D9E51913] (AR v2)
Track 5 accurately ripped (confidence 25) [4426746B] (AR v2)
Track 6 accurately ripped (confidence 25) [1B316999] (AR v2)
Track 7 accurately ripped (confidence 25) [F1376C87] (AR v2)
Track 8 accurately ripped (confidence 25) [8D6BF41F] (AR v2)

All tracks accurately ripped

End of status report

–– CUETools DB Plugin V2.1.6

[CTDB TOCID: sEUHeJkCg8ExS.mE_snwMB09J7o-] found
Submit result: sEUHeJkCg8ExS.mE_snwMB09J7o- has been confirmed
Track | CTDB Status
1 | (49/49) Accurately ripped
2 | (48/49) Accurately ripped
3 | (49/49) Accurately ripped
4 | (49/49) Accurately ripped
5 | (48/49) Accurately ripped
6 | (49/49) Accurately ripped
7 | (49/49) Accurately ripped
8 | (49/49) Accurately ripped


==== Log checksum C419AE2D60049E2657907A8C459D67DB18C8E837C68ECA9C97DF8D03592A6816 ====


Exact Audio Copy V1.5 from 20. February 2020

EAC extraction logfile from 16. January 2021, 17:58

Wilhelm Furtwängler / Das Vermächtnis (The Legacy) - CD 36

Used drive : HL-DT-STDVDRAM GH24NS95 Adapter: 1 ID: 0

Read mode : Secure
Utilize accurate stream : Yes
Defeat audio cache : Yes
Make use of C2 pointers : No

Read offset correction : 6
Overread into Lead-In and Lead-Out : No
Fill up missing offset samples with silence : Yes
Delete leading and trailing silent blocks : No
Null samples used in CRC calculations : Yes
Used interface : Native Win32 interface for Win NT & 2000

Used output format : User Defined Encoder
Selected bitrate : 128 kBit/s
Quality : High
Add ID3 tag : No
Command line compressor : C:\Program Files\Exact Audio Copy\Flac\flac.exe
Additional command line options : -V -8 -T "Date=%year%" -T "Genre=%genre%" %source%


TOC of the extracted CD

Track | Start | Length | Start sector | End sector
––––––––––––––––––––––––––––-
1 | 0:00.00 | 8:27.40 | 0 | 38064
2 | 8:27.40 | 8:29.32 | 38065 | 76271
3 | 16:56.72 | 6:28.01 | 76272 | 105372
4 | 23:24.73 | 4:35.49 | 105373 | 126046
5 | 28:00.47 | 6:56.06 | 126047 | 157252
6 | 34:56.53 | 10:30.47 | 157253 | 204549
7 | 45:27.25 | 3:26.43 | 204550 | 220042
8 | 48:53.68 | 4:21.33 | 220043 | 239650
9 | 53:15.26 | 4:48.02 | 239651 | 261252
10 | 58:03.28 | 2:13.29 | 261253 | 271256
11 | 60:16.57 | 2:59.65 | 271257 | 284746


Range status and errors

Selected range

Filename C:\ArlegZ\Wilhelm Furtwangler - Das Vermachtnis (The Legacy) - CD 36.wav

Peak level 97.7 %
Extraction speed 1.8 X
Range quality 100.0 %
Test CRC A8073EC7
Copy CRC A8073EC7
Copy OK

No errors occurred


AccurateRip summary

Track 1 accurately ripped (confidence 8) [23BEBA93] (AR v2)
Track 2 accurately ripped (confidence 8) [B2C5173F] (AR v2)
Track 3 accurately ripped (confidence 8) [7E54F243] (AR v2)
Track 4 accurately ripped (confidence 8) [AAECA765] (AR v2)
Track 5 accurately ripped (confidence 8) [167B1A94] (AR v2)
Track 6 accurately ripped (confidence 8) [B9B3F899] (AR v2)
Track 7 accurately ripped (confidence 8) [DB97622F] (AR v2)
Track 8 accurately ripped (confidence 8) [A5F0EBFA] (AR v2)
Track 9 accurately ripped (confidence 8) [FDA03439] (AR v2)
Track 10 accurately ripped (confidence 8) [A07A5872] (AR v2)
Track 11 accurately ripped (confidence 8) [22A64D20] (AR v2)

All tracks accurately ripped

End of status report

–– CUETools DB Plugin V2.1.6

[CTDB TOCID: BOhtSXEBgHFHPT9moRAasC1ajXw-] found
Submit result: BOhtSXEBgHFHPT9moRAasC1ajXw- has been confirmed
Track | CTDB Status
1 | (47/47) Accurately ripped
2 | (47/47) Accurately ripped
3 | (47/47) Accurately ripped
4 | (47/47) Accurately ripped
5 | (47/47) Accurately ripped
6 | (47/47) Accurately ripped
7 | (47/47) Accurately ripped
8 | (47/47) Accurately ripped
9 | (47/47) Accurately ripped
10 | (47/47) Accurately ripped
11 | (46/47) Accurately ripped


==== Log checksum E2ACE3F4FA549A4375CBBF78CB5E6E567D399BCC707D80B40D9BA449F38E0352 ====


Exact Audio Copy V1.5 from 20. February 2020

EAC extraction logfile from 16. January 2021, 18:32

Wilhelm Furtwängler / Das Vermächtnis (The Legacy) - CD 37

Used drive : HL-DT-STDVDRAM GH24NS95 Adapter: 1 ID: 0

Read mode : Secure
Utilize accurate stream : Yes
Defeat audio cache : Yes
Make use of C2 pointers : No

Read offset correction : 6
Overread into Lead-In and Lead-Out : No
Fill up missing offset samples with silence : Yes
Delete leading and trailing silent blocks : No
Null samples used in CRC calculations : Yes
Used interface : Native Win32 interface for Win NT & 2000

Used output format : User Defined Encoder
Selected bitrate : 128 kBit/s
Quality : High
Add ID3 tag : No
Command line compressor : C:\Program Files\Exact Audio Copy\Flac\flac.exe
Additional command line options : -V -8 -T "Date=%year%" -T "Genre=%genre%" %source%


TOC of the extracted CD

Track | Start | Length | Start sector | End sector
––––––––––––––––––––––––––––-
1 | 0:00.00 | 12:49.31 | 0 | 57705
2 | 12:49.31 | 9:05.59 | 57706 | 98639
3 | 21:55.15 | 6:38.01 | 98640 | 128490
4 | 28:33.16 | 4:49.52 | 128491 | 150217


Range status and errors

Selected range

Filename C:\ArlegZ\Wilhelm Furtwangler - Das Vermachtnis (The Legacy) - CD 37.wav

Peak level 97.7 %
Extraction speed 1.5 X
Range quality 100.0 %
Test CRC FA44AD0D
Copy CRC FA44AD0D
Copy OK

No errors occurred


AccurateRip summary

Track 1 accurately ripped (confidence 24) [DE92ED36] (AR v2)
Track 2 accurately ripped (confidence 25) [3B412098] (AR v2)
Track 3 accurately ripped (confidence 25) [E5D9B3DC] (AR v2)
Track 4 accurately ripped (confidence 25) [1D59297F] (AR v2)

All tracks accurately ripped

End of status report

–– CUETools DB Plugin V2.1.6

[CTDB TOCID: q0NHU5J4Jp17GxCQy3.02kq1r3E-] found
Submit result: q0NHU5J4Jp17GxCQy3.02kq1r3E- has been confirmed
Track | CTDB Status
1 | (49/49) Accurately ripped
2 | (49/49) Accurately ripped
3 | (49/49) Accurately ripped
4 | (49/49) Accurately ripped


==== Log checksum 6E6584F41010FE4FF3FF7960D18BB10A33BBB53CD6ACA2490CE62E4BDE451C0A ====


Exact Audio Copy V1.5 from 20. February 2020

EAC extraction logfile from 16. January 2021, 20:07

Wilhelm Furtwängler, Wiener Philharmoniker / Das Vermächtnis (The Legacy) - CD 38

Used drive : HL-DT-STDVDRAM GH24NS95 Adapter: 1 ID: 0

Read mode : Secure
Utilize accurate stream : Yes
Defeat audio cache : Yes
Make use of C2 pointers : No

Read offset correction : 6
Overread into Lead-In and Lead-Out : No
Fill up missing offset samples with silence : Yes
Delete leading and trailing silent blocks : No
Null samples used in CRC calculations : Yes
Used interface : Native Win32 interface for Win NT & 2000

Used output format : User Defined Encoder
Selected bitrate : 128 kBit/s
Quality : High
Add ID3 tag : No
Command line compressor : C:\Program Files\Exact Audio Copy\Flac\flac.exe
Additional command line options : -V -8 -T "Date=%year%" -T "Genre=%genre%" %source%


TOC of the extracted CD

Track | Start | Length | Start sector | End sector
––––––––––––––––––––––––––––-
1 | 0:00.00 | 9:49.45 | 0 | 44219
2 | 9:49.45 | 8:06.03 | 44220 | 80672
3 | 17:55.48 | 6:42.64 | 80673 | 110886
4 | 24:38.37 | 13:29.22 | 110887 | 171583
5 | 38:07.59 | 9:32.62 | 171584 | 214545
6 | 47:40.46 | 13:03.62 | 214546 | 273332


Range status and errors

Selected range

Filename C:\ArlegZ\Wilhelm Furtwangler - Das Vermachtnis (The Legacy) - CD 38.wav

Peak level 97.7 %
Extraction speed 1.8 X
Range quality 100.0 %
Test CRC CD9C4F42
Copy CRC CD9C4F42
Copy OK

No errors occurred


AccurateRip summary

Track 1 accurately ripped (confidence 23) [705B2D1C] (AR v2)
Track 2 accurately ripped (confidence 24) [1E53F616] (AR v2)
Track 3 accurately ripped (confidence 24) [9663C652] (AR v2)
Track 4 accurately ripped (confidence 24) [FEBA76D4] (AR v2)
Track 5 accurately ripped (confidence 24) [45C7B196] (AR v2)
Track 6 accurately ripped (confidence 23) [AD827F69] (AR v2)

All tracks accurately ripped

End of status report

–– CUETools DB Plugin V2.1.6

[CTDB TOCID: a1B2iRjWR0CQXz9TCygMbQovXi8-] found
Submit result: a1B2iRjWR0CQXz9TCygMbQovXi8- has been confirmed
Track | CTDB Status
1 | (49/49) Accurately ripped
2 | (49/49) Accurately ripped
3 | (49/49) Accurately ripped
4 | (49/49) Accurately ripped
5 | (49/49) Accurately ripped
6 | (48/49) Accurately ripped


==== Log checksum 8CB7082F7960B23FA48AA1DF3BC6A5E79860AE3D81F78FEC034581DEA838B4F9 ====


Wilhelm Furtwängler: Das Vermächtnis / The Legacy - Box 5: Haydn, Mozart, Schubert (2010)