Subcategories

Willie Nile - Streets of New York (2006)

Posted By: Designol
Willie Nile - Streets of New York (2006)

Willie Nile - Streets of New York (2006)
EAC | FLAC | Tracks (Cue&Log) ~ 436 Mb | Mp3 (CBR320) ~ 149 Mb | Scans ~ 76 Mb
Roots Rock, Folk Rock, Americana | Label: Evangeline | # GEL 4096 | 01:04:37

If early 2006 is remembered for nothing else, it will go down in history for the two greatest urban Americana albums of the 21st century to date – Dion's Bronx in Blue and Willie Nile's Streets of New York, a swaggering braggart of a disc that is to the modern Apple everything that Lou Reed's New York was 15 years before. The opening "Welcome to My Head" sets the stage, raising the curtain on a fantasy vision of the city nightlife that sums up every dream Broadway and beyond have ever instilled in the mind of the outsider, and set to a crunchy guitar melody that is as real as the streets that stretch out from there. It might be Nile's first album in six years, but it sounds as though he's been planning it his entire life – even the songs that slip outside of the city concept ("Asking Annie Out" is the first) share the crowded, bustling air of the more "relevant" rockers, while "The Day I Saw Bo Diddley in Washington Square" paints the scene so firmly that you'll see him, too. Even more impressively, the backing rarely motors in the directions you'd expect. Fiddles keen and a mandolin pounds, while Nile borrowed his band from as far afield as John Mellencamp and Rosanne Cash. Further captivating imagery spills from "Faded Flower of Broadway," celebrating a primitivist artist who still sells her paintings on the street at 80 years of age and, though it's a cover, a pounding "Police on My Back," purposefully cut in rent-a-Clash mode as a tribute to Joe Strummer, and just as powerful as its illustrious forbear. One song steps away from New York entirely – the impossibly eerie "Cell Phones Ringing (In the Pockets of the Dead)" was written following the Madrid train bombings of March 2004. Of course, there's barely a soul in the city who won't be able to identify with the emotion that lies behind the lyrics, or the nightmare scenario that peels out around them. But that is not the only song on this album that one could say that about; indeed, if you haven't been to New York recently, Nile might just have saved you the fare. Streets of New York is that powerful.

Review by Dave Thompson, Allmusic.com

Willie Nile - Streets of New York (2006)



Tracklist:

01. Welcome to My Head (3:23)
02. Asking Annie Out (3:12)
03. Game of Fools (4:11)
04. Back Home (6:24)
05. The Day I Saw Bo Diddley in Washington Square (4:46)
06. Best Friends Money Can Buy (3:18)
07. Faded Flower of Broadway (5:12)
08. When One Stands (4:49)
09. Whole World With You (4:12)
10. On Some Rainy Day (5:11)
11. Cell Phones Ringing (In the Pockets of the Dead) (5:14)
12. Lonesome Dark-Eyed Beauty (5:48)
13. Police on My Back (3:36)
14. Streets of New York (5:22)


Exact Audio Copy V1.1 from 23. June 2015

EAC extraction logfile from 4. January 2018, 1:43

Willie Nile / Streets of New York

Used drive : ASUS BW-12D1S-U Adapter: 1 ID: 1

Read mode : Secure
Utilize accurate stream : Yes
Defeat audio cache : Yes
Make use of C2 pointers : No

Read offset correction : 667
Overread into Lead-In and Lead-Out : No
Fill up missing offset samples with silence : Yes
Delete leading and trailing silent blocks : No
Null samples used in CRC calculations : Yes
Used interface : Native Win32 interface for Win NT & 2000
Gap handling : Appended to previous track

Used output format : User Defined Encoder
Selected bitrate : 1024 kBit/s
Quality : High
Add ID3 tag : No
Command line compressor : C:\Program Files (x86)\Exact Audio Copy\FLAC\FLAC.EXE
Additional command line options : -6 -V -T "ARTIST=%artist%" -T "TITLE=%title%" -T "ALBUM=%albumtitle%" -T "DATE=%year%" -T "TRACKNUMBER=%tracknr%" -T "GENRE=%genre%" -T "COMMENT=%comment%" -T "BAND=%albuminterpret%" -T "ALBUMARTIST=%albuminterpret%" -T "COMPOSER=%composer%" %haslyrics%–tag-from-file=LYRICS="%lyricsfile%"%haslyrics% -T "DISCNUMBER=%cdnumber%" -T "TOTALDISCS=%totalcds%" -T "TOTALTRACKS=%numtracks%" %hascover%–picture="%coverfile%"%hascover% %source% -o %dest%


TOC of the extracted CD

Track | Start | Length | Start sector | End sector
––––––––––––––––––––––––––––-
1 | 0:00.00 | 3:22.48 | 0 | 15197
2 | 3:22.48 | 3:11.49 | 15198 | 29571
3 | 6:34.22 | 4:10.59 | 29572 | 48380
4 | 10:45.06 | 6:23.61 | 48381 | 77166
5 | 17:08.67 | 4:46.11 | 77167 | 98627
6 | 21:55.03 | 3:17.56 | 98628 | 113458
7 | 25:12.59 | 5:11.58 | 113459 | 136841
8 | 30:24.42 | 4:48.43 | 136842 | 158484
9 | 35:13.10 | 4:11.64 | 158485 | 177373
10 | 39:24.74 | 5:11.33 | 177374 | 200731
11 | 44:36.32 | 5:14.30 | 200732 | 224311
12 | 49:50.62 | 5:47.52 | 224312 | 250388
13 | 55:38.39 | 3:36.31 | 250389 | 266619
14 | 59:14.70 | 5:22.19 | 266620 | 290788


Track 1

Filename C:\Users\Alexandre\Downloads\Torrents of Autumn\Nile, Willie [2006] Streets of New York\01. Welcome to My Head.wav

Pre-gap length 0:00:02.00

Peak level 98.8 %
Extraction speed 4.4 X
Track quality 100.0 %
Test CRC D4D2691A
Copy CRC D4D2691A
Accurately ripped (confidence 2) [63A6BE4C] (AR v2)
Copy OK

Track 2

Filename C:\Users\Alexandre\Downloads\Torrents of Autumn\Nile, Willie [2006] Streets of New York\02. Asking Annie Out.wav

Pre-gap length 0:00:00.42

Peak level 98.8 %
Extraction speed 4.8 X
Track quality 100.0 %
Test CRC EDD40CBA
Copy CRC EDD40CBA
Accurately ripped (confidence 2) [2962512A] (AR v2)
Copy OK

Track 3

Filename C:\Users\Alexandre\Downloads\Torrents of Autumn\Nile, Willie [2006] Streets of New York\03. Game of Fools.wav

Pre-gap length 0:00:00.60

Peak level 99.4 %
Extraction speed 5.3 X
Track quality 100.0 %
Test CRC 449121C5
Copy CRC 449121C5
Accurately ripped (confidence 2) [61687D3D] (AR v2)
Copy OK

Track 4

Filename C:\Users\Alexandre\Downloads\Torrents of Autumn\Nile, Willie [2006] Streets of New York\04. Back Home.wav

Pre-gap length 0:00:01.00

Peak level 98.8 %
Extraction speed 5.6 X
Track quality 99.9 %
Test CRC 40C21DFF
Copy CRC 40C21DFF
Accurately ripped (confidence 2) [D1769E01] (AR v2)
Copy OK

Track 5

Filename C:\Users\Alexandre\Downloads\Torrents of Autumn\Nile, Willie [2006] Streets of New York\05. The Day I Saw Bo Diddley in Washington Square.wav

Peak level 98.8 %
Extraction speed 5.7 X
Track quality 99.9 %
Test CRC B47F61DD
Copy CRC B47F61DD
Accurately ripped (confidence 2) [7B2D29EA] (AR v2)
Copy OK

Track 6

Filename C:\Users\Alexandre\Downloads\Torrents of Autumn\Nile, Willie [2006] Streets of New York\06. Best Friends Money Can Buy.wav

Peak level 98.8 %
Extraction speed 6.3 X
Track quality 100.0 %
Test CRC 4DE84F26
Copy CRC 4DE84F26
Accurately ripped (confidence 2) [186344B2] (AR v2)
Copy OK

Track 7

Filename C:\Users\Alexandre\Downloads\Torrents of Autumn\Nile, Willie [2006] Streets of New York\07. Faded Flower of Broadway.wav

Pre-gap length 0:00:00.43

Peak level 98.8 %
Extraction speed 6.4 X
Track quality 99.9 %
Test CRC 6D8A7D59
Copy CRC 6D8A7D59
Accurately ripped (confidence 2) [F192B12D] (AR v2)
Copy OK

Track 8

Filename C:\Users\Alexandre\Downloads\Torrents of Autumn\Nile, Willie [2006] Streets of New York\08. When One Stands.wav

Peak level 99.9 %
Extraction speed 7.2 X
Track quality 100.0 %
Test CRC B3248C2C
Copy CRC B3248C2C
Accurately ripped (confidence 2) [8B016096] (AR v2)
Copy OK

Track 9

Filename C:\Users\Alexandre\Downloads\Torrents of Autumn\Nile, Willie [2006] Streets of New York\09. Whole World With You.wav

Pre-gap length 0:00:02.63

Peak level 98.8 %
Extraction speed 7.3 X
Track quality 100.0 %
Test CRC 3EC5DBC9
Copy CRC 3EC5DBC9
Accurately ripped (confidence 2) [150BC157] (AR v2)
Copy OK

Track 10

Filename C:\Users\Alexandre\Downloads\Torrents of Autumn\Nile, Willie [2006] Streets of New York\10. On Some Rainy Day.wav

Pre-gap length 0:00:01.38

Peak level 98.8 %
Extraction speed 6.8 X
Track quality 99.9 %
Test CRC 1CFB49B7
Copy CRC 1CFB49B7
Accurately ripped (confidence 2) [DBC4F5E2] (AR v2)
Copy OK

Track 11

Filename C:\Users\Alexandre\Downloads\Torrents of Autumn\Nile, Willie [2006] Streets of New York\11. Cell Phones Ringing (In the Pockets of the Dead).wav

Pre-gap length 0:00:01.59

Peak level 98.8 %
Extraction speed 6.6 X
Track quality 99.9 %
Test CRC B4CE6029
Copy CRC B4CE6029
Accurately ripped (confidence 2) [95B783CA] (AR v2)
Copy OK

Track 12

Filename C:\Users\Alexandre\Downloads\Torrents of Autumn\Nile, Willie [2006] Streets of New York\12. Lonesome Dark-Eyed Beauty.wav

Pre-gap length 0:00:01.47

Peak level 98.8 %
Extraction speed 7.4 X
Track quality 100.0 %
Test CRC 50E62F42
Copy CRC 50E62F42
Accurately ripped (confidence 2) [A6259BF6] (AR v2)
Copy OK

Track 13

Filename C:\Users\Alexandre\Downloads\Torrents of Autumn\Nile, Willie [2006] Streets of New York\13. Police on My Back.wav

Pre-gap length 0:00:01.07

Peak level 98.8 %
Extraction speed 7.2 X
Track quality 100.0 %
Test CRC D58122C9
Copy CRC D58122C9
Accurately ripped (confidence 2) [66473B30] (AR v2)
Copy OK

Track 14

Filename C:\Users\Alexandre\Downloads\Torrents of Autumn\Nile, Willie [2006] Streets of New York\14. Streets of New York.wav

Pre-gap length 0:00:03.15

Peak level 98.8 %
Extraction speed 7.5 X
Track quality 100.0 %
Test CRC CBE5EE42
Copy CRC CBE5EE42
Accurately ripped (confidence 2) [6F9EA987] (AR v2)
Copy OK


All tracks accurately ripped

No errors occurred

End of status report

–– CUETools DB Plugin V2.1.6

[CTDB TOCID: H87SYV_ZpOrW_HbtdtPj2yzJgE4-] found
Submit result: H87SYV_ZpOrW_HbtdtPj2yzJgE4- has been confirmed
Track | CTDB Status
1 | (9/9) Accurately ripped
2 | (9/9) Accurately ripped
3 | (9/9) Accurately ripped
4 | (9/9) Accurately ripped
5 | (9/9) Accurately ripped
6 | (9/9) Accurately ripped
7 | (9/9) Accurately ripped
8 | (9/9) Accurately ripped
9 | (9/9) Accurately ripped
10 | (9/9) Accurately ripped
11 | (7/9) Accurately ripped
12 | (7/9) Accurately ripped
13 | (8/9) Accurately ripped
14 | (7/9) Accurately ripped


==== Log checksum 314ACAFDA7A1CCE5A29900CC203CC6527F564005C7DD2CC60DC30D3126D57832 ====

foobar2000 1.2 / Dynamic Range Meter 1.1.1
log date: 2018-01-04 22:09:37

––––––––––––––––––––––––––––––––––––––––
Analyzed: Willie Nile / Streets of New York
––––––––––––––––––––––––––––––––––––––––

DR Peak RMS Duration Track
––––––––––––––––––––––––––––––––––––––––
DR6 -0.10 dB -7.76 dB 3:23 01-Welcome to My Head
DR6 -0.10 dB -6.94 dB 3:12 02-Asking Annie Out
DR6 -0.05 dB -7.36 dB 4:11 03-Game of Fools
DR6 -0.10 dB -7.52 dB 6:24 04-Back Home
DR7 -0.10 dB -9.09 dB 4:46 05-The Day I Saw Bo Diddley in Washington Square
DR6 -0.10 dB -7.65 dB 3:18 06-Best Friends Money Can Buy
DR6 -0.10 dB -6.95 dB 5:12 07-Faded Flower of Broadway
DR7 0.00 dB -8.63 dB 4:49 08-When One Stands
DR6 -0.10 dB -7.14 dB 4:12 09-Whole World With You
DR7 -0.10 dB -9.56 dB 5:11 10-On Some Rainy Day
DR6 -0.10 dB -7.69 dB 5:14 11-Cell Phones Ringing (In the Pockets of the Dead)
DR6 -0.10 dB -8.69 dB 5:48 12-Lonesome Dark-Eyed Beauty
DR6 -0.10 dB -7.24 dB 3:36 13-Police on My Back
DR7 -0.10 dB -9.11 dB 5:22 14-Streets of New York
––––––––––––––––––––––––––––––––––––––––

Number of tracks: 14
Official DR value: DR6

Samplerate: 44100 Hz
Channels: 2
Bits per sample: 16
Bitrate: 798 kbps
Codec: FLAC
================================================================================

Willie Nile - Streets of New York (2006)

Willie Nile - Streets of New York (2006)

All thanks to original releaser - DoobieBro

More interesting music in My Blog