Tags
Language
Tags

Winx - Left Above The Clouds (1996) {Nervous} **[RE-UP]**

Posted By: TestTickles
Winx - Left Above The Clouds (1996) {Nervous} **[RE-UP]**

Winx - Left Above The Clouds (1996) {Nervous}
EAC Rip | FLAC with CUE and log | scans | 404 mb
MP3 CBR 320kbps | RAR | 185 mb
Genre: electronica, dance, breakbeat, acid house, techno, ambient

Left Above The Clouds is the 1996 album by Josh Wink, credited on this one as Winx. This was released on the Nervous label.

Winx - Left Above The Clouds (1996) {Nervous} **[RE-UP]**

01. Warm Wet Sand
02. You Are The One
03. Airplane Pillows
04. Don't Laugh
05. Lint Trap
06. Minimal Thoughts
07. Lifting Rocks For Crayfish
08. Post Nasal Back Spin
09. Topfe & Pfannen
10. Once I Fell…
11. A Tuesday In September
12. Funky Elevation
13. Don't Scratch
14. Verano Azul
15. Bronchial Dilator
16. Licking Plastic
17. Judson & Popular St.
18. Hypnotizin'
19. Bring To Bear
20. How's The Music (Ovum Warmth Version)
21. Black Pudding
22. Stiff Neck
23. Hands Like Prunes
24. …I Fell Once Again
25. Path Towards Mountain Green
26. March 20
27. Sometimes At Silk
28. Higher State Of Consiousness (Wink) (Tweekin Acid Funk Mix)

Album written, produced, and dreamed by Josh Wink at Ovum Sound Studios, Philly, USA
Guitar licks on track #1 and extra album edits by John Wicks at Thrid Story Studio, Philly, USA

Mastered by Don Grossinger for Europadisk Ltd.

EAC extraction logfile from 22. July 2006, 17:44 for CD
WINX / Left Above The Clouds

Used drive : LITE-ON DVDRW SOHW-1633S Adapter: 0 ID: 0
Read mode : Secure with NO C2, accurate stream, disable cache
Read offset correction : 12
Overread into Lead-In and Lead-Out : No

Used output format : Internal WAV Routines
44.100 Hz; 16 Bit; Stereo

Other options :
Fill up missing offset samples with silence : Yes
Delete leading and trailing silent blocks : No
Installed external ASPI interface


Track 1
Filename D:\FLAC\Winx - Left Above The Clouds (1996) [FLAC] {Nervous}\01 - Warm Wet Sand.wav

Pre-gap length 0:00:02.00

Peak level 100.0 %
Track quality 100.0 %
Test CRC 6678FB0C
Copy CRC 6678FB0C
Copy OK

Track 2
Filename D:\FLAC\Winx - Left Above The Clouds (1996) [FLAC] {Nervous}\02 - You Are The One.wav

Peak level 100.0 %
Track quality 100.0 %
Test CRC 0C0C0D09
Copy CRC 0C0C0D09
Copy OK

Track 3
Filename D:\FLAC\Winx - Left Above The Clouds (1996) [FLAC] {Nervous}\03 - Airplane Pillows.wav

Peak level 52.3 %
Track quality 100.0 %
Test CRC C8E2E451
Copy CRC C8E2E451
Copy OK

Track 4
Filename D:\FLAC\Winx - Left Above The Clouds (1996) [FLAC] {Nervous}\04 - Don't Laugh.wav

Peak level 85.4 %
Track quality 100.0 %
Test CRC 2C32393A
Copy CRC 2C32393A
Copy OK

Track 5
Filename D:\FLAC\Winx - Left Above The Clouds (1996) [FLAC] {Nervous}\05 - Lint Trap.wav

Peak level 69.6 %
Track quality 100.0 %
Test CRC E7450D44
Copy CRC E7450D44
Copy OK

Track 6
Filename D:\FLAC\Winx - Left Above The Clouds (1996) [FLAC] {Nervous}\06 - Minimal Thoughts.wav

Peak level 42.9 %
Track quality 99.8 %
Test CRC 62B25E37
Copy CRC 62B25E37
Copy OK

Track 7
Filename D:\FLAC\Winx - Left Above The Clouds (1996) [FLAC] {Nervous}\07 - Lifting Rocks For Crayfish.wav

Peak level 100.0 %
Track quality 100.0 %
Test CRC 9B862B5F
Copy CRC 9B862B5F
Copy OK

Track 8
Filename D:\FLAC\Winx - Left Above The Clouds (1996) [FLAC] {Nervous}\08 - Post Nasal Back Spin.wav

Peak level 98.3 %
Track quality 100.0 %
Test CRC 5F8128C0
Copy CRC 5F8128C0
Copy OK

Track 9
Filename D:\FLAC\Winx - Left Above The Clouds (1996) [FLAC] {Nervous}\09 - Topfe & Pfannen.wav

Peak level 100.0 %
Track quality 99.9 %
Test CRC 1E17E7F7
Copy CRC 1E17E7F7
Copy OK

Track 10
Filename D:\FLAC\Winx - Left Above The Clouds (1996) [FLAC] {Nervous}\10 - Once I Fell….wav

Peak level 100.0 %
Track quality 99.9 %
Test CRC 1DD45645
Copy CRC 1DD45645
Copy OK

Track 11
Filename D:\FLAC\Winx - Left Above The Clouds (1996) [FLAC] {Nervous}\11 - A Tuesday In September.wav

Peak level 33.2 %
Track quality 100.0 %
Test CRC BC134061
Copy CRC BC134061
Copy OK

Track 12
Filename D:\FLAC\Winx - Left Above The Clouds (1996) [FLAC] {Nervous}\12 - Funky Elevation.wav

Peak level 100.0 %
Track quality 100.0 %
Test CRC 0BF2E0F7
Copy CRC 0BF2E0F7
Copy OK

Track 13
Filename D:\FLAC\Winx - Left Above The Clouds (1996) [FLAC] {Nervous}\13 - Don't Scratch.wav

Peak level 70.1 %
Track quality 100.0 %
Test CRC 52628698
Copy CRC 52628698
Copy OK

Track 14
Filename D:\FLAC\Winx - Left Above The Clouds (1996) [FLAC] {Nervous}\14 - Verano Azul.wav

Peak level 100.0 %
Track quality 100.0 %
Test CRC 907F04AB
Copy CRC 907F04AB
Copy OK

Track 15
Filename D:\FLAC\Winx - Left Above The Clouds (1996) [FLAC] {Nervous}\15 - Bronchial Dilator.wav

Peak level 67.6 %
Track quality 99.7 %
Test CRC 992ABEFD
Copy CRC 992ABEFD
Copy OK

Track 16
Filename D:\FLAC\Winx - Left Above The Clouds (1996) [FLAC] {Nervous}\16 - Licking Plastic.wav

Peak level 100.0 %
Track quality 100.0 %
Test CRC 8E0FAA60
Copy CRC 8E0FAA60
Copy OK

Track 17
Filename D:\FLAC\Winx - Left Above The Clouds (1996) [FLAC] {Nervous}\17 - Judson & Popular St..wav

Peak level 100.0 %
Track quality 100.0 %
Test CRC 3A6BF35D
Copy CRC 3A6BF35D
Copy OK

Track 18
Filename D:\FLAC\Winx - Left Above The Clouds (1996) [FLAC] {Nervous}\18 - Hypnotizin'.wav

Peak level 99.5 %
Track quality 100.0 %
Test CRC 95F0AA37
Copy CRC 95F0AA37
Copy OK

Track 19
Filename D:\FLAC\Winx - Left Above The Clouds (1996) [FLAC] {Nervous}\19 - Bring To Bear.wav

Peak level 41.2 %
Track quality 100.0 %
Test CRC 4C3D99C1
Copy CRC 4C3D99C1
Copy OK

Track 20
Filename D:\FLAC\Winx - Left Above The Clouds (1996) [FLAC] {Nervous}\20 - How's The Music (Ovum Warmth Version).wav

Peak level 100.0 %
Track quality 99.9 %
Test CRC 28AD37BB
Copy CRC 28AD37BB
Copy OK

Track 21
Filename D:\FLAC\Winx - Left Above The Clouds (1996) [FLAC] {Nervous}\21 - Black Pudding.wav

Peak level 54.3 %
Track quality 100.0 %
Test CRC BB8FA924
Copy CRC BB8FA924
Copy OK

Track 22
Filename D:\FLAC\Winx - Left Above The Clouds (1996) [FLAC] {Nervous}\22 - Stiff Neck.wav

Peak level 23.8 %
Track quality 100.0 %
Test CRC 4EE2C7C0
Copy CRC 4EE2C7C0
Copy OK

Track 23
Filename D:\FLAC\Winx - Left Above The Clouds (1996) [FLAC] {Nervous}\23 - Hands Like Prunes.wav

Peak level 92.8 %
Track quality 99.7 %
Test CRC 9621EF06
Copy CRC 9621EF06
Copy OK

Track 24
Filename D:\FLAC\Winx - Left Above The Clouds (1996) [FLAC] {Nervous}\24 - …I Fell Once Again.wav

Peak level 44.7 %
Track quality 100.0 %
Test CRC C64F8AC4
Copy CRC C64F8AC4
Copy OK

Track 25
Filename D:\FLAC\Winx - Left Above The Clouds (1996) [FLAC] {Nervous}\25 - Path Towards Mountain Green.wav

Peak level 99.8 %
Track quality 100.0 %
Test CRC 44A96637
Copy CRC 44A96637
Copy OK

Track 26
Filename D:\FLAC\Winx - Left Above The Clouds (1996) [FLAC] {Nervous}\26 - March 20.wav

Peak level 100.0 %
Track quality 100.0 %
Test CRC 6914D154
Copy CRC 6914D154
Copy OK

Track 27
Filename D:\FLAC\Winx - Left Above The Clouds (1996) [FLAC] {Nervous}\27 - Sometimes At Silk.wav

Peak level 100.0 %
Track quality 100.0 %
Test CRC CDBA15AE
Copy CRC CDBA15AE
Copy OK

Track 28
Filename D:\FLAC\Winx - Left Above The Clouds (1996) [FLAC] {Nervous}\28 - Higher State Of Consiousness (Wink) (Tweekin Acid Funk Mix).wav

Peak level 100.0 %
Track quality 100.0 %
Test CRC FBFDFAD8
Copy CRC FBFDFAD8
Copy OK

No errors occured


End of status report


Winx - Left Above The Clouds (1996) {Nervous} **[RE-UP]**