Tags
Language
Tags
July 2024
Su Mo Tu We Th Fr Sa
30 1 2 3 4 5 6
7 8 9 10 11 12 13
14 15 16 17 18 19 20
21 22 23 24 25 26 27
28 29 30 31 1 2 3

Wolvespirit - Fire And Ice (2018)

Posted By: popsakov
Wolvespirit - Fire And Ice (2018)

Wolvespirit - Fire And Ice (2018)
EAC Rip | FLAC (Img) + Cue + Log ~ 282 Mb | MP3 CBR320 ~ 113 Mb
Full Scans | 00:35:35 | RAR 5% Recovery
Psychedelic Rock | Spirit Stone Records #SSR 004-2018

WolveSpirit merge the psychedelic 60s, the heavy rollin´70s and the now to a thundering and timeless psychedelic stoner rock! The raw, energetic and blues infused female vocals remind of a Janis Joplin and Stevie Nicks. Since their mind coloring debut in 2013 titled Dreamcatcher the US/German Heavy Rockers WolveSpirit have established themselves as one of Germanys strongest Heavy Rock bands. WolveSpirit have shared stages with bands like KADAVAR , SIENA ROOT, Brutus, Zodiac, The Flying Eyes and many many more. November 2014 they supported the legend Uriah Heep on their Germany Tour. Their album "Free" released in 2015 and already it strikes down like a bomb leaving a trail of astonishment in all the big and important music mags as well as the complete underground scene. Their new Album "Fire And Ice" out 12th october.

***************

Track List:

01. Tell Me Why [0:04:05.48]
02. Fire and Ice [0:04:12.27]
03. Break the Chain [0:03:31.32]
04. Wheel of Life [0:03:43.60]
05. Feather in the Wind [0:04:20.37]
06. Like a Wolf in the Night [0:04:26.22]
07. At the End [0:03:35.45]
08. Rock n' Roll Gipsy [0:04:22.54]
09. No More [0:03:16.25]

Personnel:
Debby Craft - Vocals
Richard “Rio” Eberlein - Guitar
Oliver Eberlein - Organ
Sam Wonderful - Bass
Konrad Patzig - Drums

Exact Audio Copy V1.3 from 2. September 2016

EAC extraction logfile from 4. November 2018, 14:15

WolveSpirit / Fire and Ice

Used drive : HP DVD Writer 1170d Adapter: 1 ID: 1

Read mode : Secure
Utilize accurate stream : Yes
Defeat audio cache : Yes
Make use of C2 pointers : No

Read offset correction : 6
Overread into Lead-In and Lead-Out : No
Fill up missing offset samples with silence : Yes
Delete leading and trailing silent blocks : No
Null samples used in CRC calculations : Yes
Used interface : Native Win32 interface for Win NT & 2000

Used output format : User Defined Encoder
Selected bitrate : 1024 kBit/s
Quality : High
Add ID3 tag : No
Command line compressor : C:\Program Files (x86)\Exact Audio Copy\Flac\flac.exe
Additional command line options : -V -8 -T "Date=%year%" -T "Genre=%genre%" %source%


TOC of the extracted CD

Track | Start | Length | Start sector | End sector
––––––––––––––––––––––––––––-
1 | 0:00.00 | 4:05.48 | 0 | 18422
2 | 4:05.48 | 4:12.27 | 18423 | 37349
3 | 8:18.00 | 3:31.32 | 37350 | 53206
4 | 11:49.32 | 3:43.60 | 53207 | 69991
5 | 15:33.17 | 4:20.37 | 69992 | 89528
6 | 19:53.54 | 4:26.22 | 89529 | 109500
7 | 24:20.01 | 3:35.45 | 109501 | 125670
8 | 27:55.46 | 4:22.54 | 125671 | 145374
9 | 32:18.25 | 3:16.25 | 145375 | 160099


Range status and errors

Selected range

Filename C:\EAC\ungern666\WolveSpirit - Fire and Ice.wav

Peak level 91.1 %
Extraction speed 6.2 X
Range quality 100.0 %
Test CRC 781A5F90
Copy CRC 781A5F90
Copy OK

No errors occurred


AccurateRip summary

Track 1 not present in database
Track 2 not present in database
Track 3 not present in database
Track 4 not present in database
Track 5 not present in database
Track 6 not present in database
Track 7 not present in database
Track 8 not present in database
Track 9 not present in database

None of the tracks are present in the AccurateRip database

End of status report

–– CUETools DB Plugin V2.1.6

[CTDB TOCID: wTEy5BIgAjfriFoRsXo0Cuk2LQ0-] found
Submit result: wTEy5BIgAjfriFoRsXo0Cuk2LQ0- has been confirmed
Track | CTDB Status
1 | (4/4) Accurately ripped
2 | (4/4) Accurately ripped
3 | (4/4) Accurately ripped
4 | (4/4) Accurately ripped
5 | (4/4) Accurately ripped
6 | (4/4) Accurately ripped
7 | (4/4) Accurately ripped
8 | (4/4) Accurately ripped
9 | (4/4) Accurately ripped


==== Log checksum 057C45347755DC77E791468575B89787B4D2FDD6999AF386EDDCE16F898B0912 ====

All thanks go to ungern666

>>> My Blog <<<

DOWNLOAD: