Subcategories
Tags
Language
Tags

Yagya - Old Dreams And Memories (2020)

Posted By: gribovar
Yagya - Old Dreams And Memories (2020)

Yagya - Old Dreams And Memories (2020)
EAC Rip | FLAC (tracks+.cue+log) - 233 MB | MP3 CBR 320 kbps (LAME 3.93) - 94 MB | Covers - 23 MB
Genre: Electronic, Dub Techno, Ambient | RAR 3% Rec. | Label: Small Plastic Animals (1SPA)

After nearly two decades of releasing on other people's labels, Icelandic producer Aðalsteinn Guðmundsson aka Yagya now launches his own new Small Plastic Animals imprint with a brand new album, Old Dreams and Memories.
This album marks another subtle move away from the icy dub techno sounds he has dealt in before, hence the need for a new label. It follows full lengths such as Stars and Dust and Sleepygirls, both on Delsin, as well as 2019's Stormur on A Strangely Isolated Place, and plenty of vital work as part of the Thule Musik collective. This acclaimed album specialist is known for his mastery of atmosphere, melody and mood and ability to create soothing and escapist soundtracks that make for utterly mindful experiences.
The new record still has a slowly propulsive rhythm underpinning every track, but they are only a small part of the overall picture. Some of the tracks are brought to life with vocals by Natsuko Yanagimoto and poems by Michizō Tachihara, while others are rich with naturalistic found sounds and saxophone by Óskar Guðjónsson.
Opener For The First Time has spoken words snippets that bring a real sense of intimacy to the sombre dub, 'Mountain Story' has gorgeous strings performed by Pablo Hopenhayn, who also appears on 'Reminiscent' with more solemn playing that brings a real melancholic beauty to the track. 'Memories of Old Dreams' is a beautiful ambient passage of spoken word that soothe the soul, 'Light And Shadow' is orchestral dub techno with a wandering lead that drifts like a cloud and 'Wandering In The Fog' has the sound of flowing water, gently lilting trumpets disappearing into thin air as soft drums roll on below. 'Rainbow And Human' pairs more whispered vocals with muffled crowd noises and yawning synths that bring the joy of a new day and the three closing tracks offer exquisite piano playing, warm but somehow also frosty dub landscapes 'Beauty In Loneliness' and a forlorn, violin-laced closer with 'Overflowing Darkness.'
Old Dreams and Memories is a rich symphony of luxurious sound, with transportive rhythms and hugely evocative layers of melody, the human voice and cinematic sampling all showing a further evolution in the art of this standalone producer.
Tracklist:
01. For The First Time
02. Mountain Story
03. Reminiscent
04. Memories Of Old Dreams
05. Light And Shadow
06. Wandering In The Fog
07. Rainbow And Human
08. Travelled Road
09. Beauty In Loneliness
10. Overflowing Darkness

Total time: 37:57

Exact Audio Copy V1.3 from 2. September 2016

EAC extraction logfile from 18. March 2020, 20:20

Yagya / Old Dreams and Memories

Used drive : TSSTcorpCD/DVDW TS-L632D Adapter: 1 ID: 0

Read mode : Secure
Utilize accurate stream : Yes
Defeat audio cache : Yes
Make use of C2 pointers : No

Read offset correction : 6
Overread into Lead-In and Lead-Out : No
Fill up missing offset samples with silence : Yes
Delete leading and trailing silent blocks : No
Null samples used in CRC calculations : Yes
Used interface : Native Win32 interface for Win NT & 2000
Gap handling : Appended to previous track

Used output format : User Defined Encoder
Selected bitrate : 1024 kBit/s
Quality : High
Add ID3 tag : No
Command line compressor : C:\Program Files (x86)\Exact Audio Copy\Flac\flac.exe
Additional command line options : -8 -V -T "ARTIST=%artist%" -T "TITLE=%title%" -T "ALBUM=%albumtitle%" -T "DATE=%year%" -T "TRACKNUMBER=%tracknr%" -T "GENRE=%genre%" -T "PERFORMER=%albuminterpret%" -T "COMPOSER=%composer%" %haslyrics%–tag-from-file=LYRICS="%lyricsfile%"%haslyrics% -T "ALBUMARTIST=%albumartist%" -T "DISCNUMBER=%cdnumber%" -T "TOTALDISCS=%totalcds%" -T "TOTALTRACKS=%numtracks%" -T "COMMENT=%comment%" %source% -o %dest%


TOC of the extracted CD

Track | Start | Length | Start sector | End sector
––––––––––––––––––––––––––––-
1 | 0:00.00 | 4:11.67 | 0 | 18891
2 | 4:11.67 | 4:14.19 | 18892 | 37960
3 | 8:26.11 | 3:44.02 | 37961 | 54762
4 | 12:10.13 | 1:07.43 | 54763 | 59830
5 | 13:17.56 | 3:39.05 | 59831 | 76260
6 | 16:56.61 | 5:28.44 | 76261 | 100904
7 | 22:25.30 | 4:07.54 | 100905 | 119483
8 | 26:33.09 | 3:06.43 | 119484 | 133476
9 | 29:39.52 | 4:27.70 | 133477 | 153571
10 | 34:07.47 | 3:49.48 | 153572 | 170794


Track 1

Filename C:\NWCD\goldrips\01 - For the First Time.wav

Pre-gap length 0:00:02.00

Peak level 96.4 %
Extraction speed 2.8 X
Track quality 100.0 %
Test CRC 1091D28E
Copy CRC 1091D28E
Track not present in AccurateRip database
Copy OK

Track 2

Filename C:\NWCD\goldrips\02 - Mountain Story.wav

Peak level 96.4 %
Extraction speed 3.1 X
Track quality 100.0 %
Test CRC 8F029704
Copy CRC 8F029704
Track not present in AccurateRip database
Copy OK

Track 3

Filename C:\NWCD\goldrips\03 - Reminiscent.wav

Peak level 96.4 %
Extraction speed 3.3 X
Track quality 100.0 %
Test CRC 64031B4F
Copy CRC 64031B4F
Track not present in AccurateRip database
Copy OK

Track 4

Filename C:\NWCD\goldrips\04 - Memories of Old Dreams.wav

Peak level 30.0 %
Extraction speed 2.5 X
Track quality 100.0 %
Test CRC 26CD800D
Copy CRC 26CD800D
Track not present in AccurateRip database
Copy OK

Track 5

Filename C:\NWCD\goldrips\05 - Light and Shadow.wav

Peak level 98.4 %
Extraction speed 3.5 X
Track quality 100.0 %
Test CRC 38DCBC5A
Copy CRC 38DCBC5A
Track not present in AccurateRip database
Copy OK

Track 6

Filename C:\NWCD\goldrips\06 - Wandering in the Fog.wav

Peak level 96.4 %
Extraction speed 3.9 X
Track quality 100.0 %
Test CRC 0535704F
Copy CRC 0535704F
Track not present in AccurateRip database
Copy OK

Track 7

Filename C:\NWCD\goldrips\07 - Rainbow and Human.wav

Peak level 96.4 %
Extraction speed 4.0 X
Track quality 100.0 %
Test CRC EB3167ED
Copy CRC EB3167ED
Track not present in AccurateRip database
Copy OK

Track 8

Filename C:\NWCD\goldrips\08 - Travelled Road.wav

Peak level 89.0 %
Extraction speed 3.4 X
Track quality 99.9 %
Test CRC 9AAED1A8
Copy CRC 9AAED1A8
Track not present in AccurateRip database
Copy OK

Track 9

Filename C:\NWCD\goldrips\09 - Beauty in Loneliness.wav

Peak level 96.7 %
Extraction speed 3.9 X
Track quality 99.9 %
Test CRC 92E10D32
Copy CRC 92E10D32
Track not present in AccurateRip database
Copy OK

Track 10

Filename C:\NWCD\goldrips\10 - Overflowing Darkness.wav

Peak level 96.4 %
Extraction speed 4.4 X
Track quality 100.0 %
Test CRC FD67569F
Copy CRC FD67569F
Track not present in AccurateRip database
Copy OK


None of the tracks are present in the AccurateRip database

No errors occurred

End of status report

–– CUETools DB Plugin V2.1.6

[CTDB TOCID: _xB6v2EH1tayGbQNydV7R6FnoYg-] found
Submit result: _xB6v2EH1tayGbQNydV7R6FnoYg- has been confirmed
Track | CTDB Status
1 | (3/3) Accurately ripped
2 | (3/3) Accurately ripped
3 | (3/3) Accurately ripped
4 | (3/3) Accurately ripped
5 | (3/3) Accurately ripped
6 | (3/3) Accurately ripped
7 | (3/3) Accurately ripped
8 | (3/3) Accurately ripped
9 | (3/3) Accurately ripped
10 | (3/3) Accurately ripped


==== Log checksum D5FB55C93414B881C4B84F79FD2717DD72F821F855F146D7269DD75330B10416 ====

[CUETools log; Date: 25.05.2021 14:50:49; Version: 2.1.4]
[CTDB TOCID: _xB6v2EH1tayGbQNydV7R6FnoYg-] found.
Track | CTDB Status
1 | (5/5) Accurately ripped
2 | (5/5) Accurately ripped
3 | (5/5) Accurately ripped
4 | (5/5) Accurately ripped
5 | (5/5) Accurately ripped
6 | (5/5) Accurately ripped
7 | (5/5) Accurately ripped
8 | (5/5) Accurately ripped
9 | (5/5) Accurately ripped
10 | (5/5) Accurately ripped
[AccurateRip ID: 000e20f5-0070ff5e-8b08e50a] found.
Track [ CRC | V2 ] Status
01 [9d4ba2ea|3e30e164] (0+1/1) Accurately ripped
02 [3fbec3fc|58f0eae5] (0+1/1) Accurately ripped
03 [7ab06217|e0449877] (0+1/1) Accurately ripped
04 [9aeeb30a|d842a5af] (0+1/1) Accurately ripped
05 [af331f6c|e8014487] (0+1/1) Accurately ripped
06 [bcc09537|6dddabe7] (0+1/1) Accurately ripped
07 [dcb858ac|0f765662] (0+1/1) Accurately ripped
08 [a661d615|fa9378fa] (0+1/1) Accurately ripped
09 [42e70883|0cf02b57] (0+1/1) Accurately ripped
10 [e3291e1b|78d87968] (0+1/1) Accurately ripped

Track Peak [ CRC32 ] [W/O NULL] [ LOG ]
– 98,4 [8FE2C32F] [D64F2291]
01 96,4 [1091D28E] [0C3794E5] CRC32
02 96,4 [8F029704] [AA0395E4] CRC32
03 96,4 [64031B4F] [D0ACD556] CRC32
04 30,0 [26CD800D] [A0DFC62F] CRC32
05 98,4 [38DCBC5A] [3A365889] CRC32
06 96,4 [0535704F] [C2E2C078] CRC32
07 96,4 [EB3167ED] [698F751D] CRC32
08 89,0 [9AAED1A8] [74140435] CRC32
09 96,7 [92E10D32] [C650E13B] CRC32
10 96,4 [FD67569F] [C2A28836] CRC32

Thanks to the original releaser