Tags
Language
Tags

Yazz - At Her Very Best And All The Greatest Hits (2001)

Posted By: Rtax
Yazz - At Her Very Best And All The Greatest Hits (2001)

Yazz - At Her Very Best And All The Greatest Hits (2001)
EAC Rip | FLAC (tracks, cue, log, scans) - 640 MB | MP3 CBR 320 kbps - 295 MB
1:18:11 | Soul-Jazz, Acid House, House, Soul, Reggae-Pop, Downtempo | Label: Universal Music TV

Yasmin Evans, 19 May 1963, Shepherd’s Bush, London, England. Dance-pop singer who began her career in the music business as part of a quickly forgotten act, the Biz. After becoming a catwalk model and working as George Michael’s stylist, she laid plans for a return to recording work. When she did so, she found rewards immediately, joining with DJs Coldcut on the February 1988 Top 10 hit ‘Doctorin’ The House’. In its wake her revamped version of Otis Clay’s ‘The Only Way Is Up’ soared to the top of the UK charts in August, while ‘Stand Up For Your Love Rights’ reached the number 2 spot. Both of the latter were credited to Yazz And The Plastic Population. After three further Top 20 hits and tours Yazz took time out to have her first baby. She returned alongside Aswad in 1993 for ‘How Long’, but this failed to break the Top 30. A new solo single, ‘Have Mercy’ and the attendant One On One were further evidence of her attempts to re-establish herself via a contract with Polydor Records. Yazz recorded 1997’s The Natural Life at UB40 frontman Ali Campbell’s Kuff Studios. This pleasant reggae-inflected album proved to be her final release of the decade.

Tracklist
[4:04] 01. Yazz And The Plastic Population - The Only Way Is Up
[3:47] 02. Coldcut Feat. Yazz - Doctorin' The House
[4:21] 03. Yazz - Stand Up For Your Love Rights
[3:45] 04. Yazz - Fine Time
[3:53] 05. Yazz - Where Has All The Love Gone
[3:33] 06. Yazz - Treat Me Good
[3:54] 07. Yazz - How Long
[4:22] 08. Yazz - Have Mercy
[4:25] 09. Yazz - Everybody's Got To Learn Sometime
[3:56] 10. Yazz - Good Thing Going
[3:40] 11. Yazz - One On One
[4:46] 12. Yazz - That's Just The Way That It Is
[4:02] 13. Yazz - Back In Love Again
[4:51] 14. Yazz - Move Closer
[3:55] 15. Yazz - Never Can Say Goodbye
[3:43] 16. Yazz - Don't Stay Away
[3:23] 17. Yazz - Love Hangover
[3:22] 18. Yazz - Groovin'
[6:39] 19. Yazz - Yazz And The Plastic PopulationThe Only Way Is Up (WIP Remix) (Work In Progress Remix)
Exact Audio Copy V1.0 beta 3 from 29. August 2011

EAC extraction logfile from 26. April 2015, 21:16

Yazz / At Her Very Best And All The Greatest Hits

Used drive : TSSTcorpCDDVDW SN-208BB Adapter: 0 ID: 0

Read mode : Secure
Utilize accurate stream : Yes
Defeat audio cache : Yes
Make use of C2 pointers : No

Read offset correction : 6
Overread into Lead-In and Lead-Out : No
Fill up missing offset samples with silence : Yes
Delete leading and trailing silent blocks : No
Null samples used in CRC calculations : Yes
Used interface : Native Win32 interface for Win NT & 2000
Gap handling : Appended to previous track

Used output format : User Defined Encoder
Selected bitrate : 1024 kBit/s
Quality : High
Add ID3 tag : No
Command line compressor : C:\Program Files (x86)\Exact Audio Copy\Flac\flac.exe
Additional command line options : -8 -V -T "artist=%artist%" -T "title=%title%" -T "album=%albumtitle%" -T "date=%year%" -T "tracknumber=%tracknr%" -T "genre=%genre%" %source%


TOC of the extracted CD

Track | Start | Length | Start sector | End sector
––––––––––––––––––––––––––––-
1 | 0:00.00 | 4:03.14 | 0 | 18238
2 | 4:03.14 | 3:46.01 | 18239 | 35189
3 | 7:49.15 | 4:20.71 | 35190 | 54760
4 | 12:10.11 | 3:44.43 | 54761 | 71603
5 | 15:54.54 | 3:52.74 | 71604 | 89077
6 | 19:47.53 | 3:32.67 | 89078 | 105044
7 | 23:20.45 | 3:53.27 | 105045 | 122546
8 | 27:13.72 | 4:21.08 | 122547 | 142129
9 | 31:35.05 | 4:24.57 | 142130 | 161986
10 | 35:59.62 | 3:55.19 | 161987 | 179630
11 | 39:55.06 | 3:39.43 | 179631 | 196098
12 | 43:34.49 | 4:45.72 | 196099 | 217545
13 | 48:20.46 | 4:01.05 | 217546 | 235625
14 | 52:21.51 | 4:50.55 | 235626 | 257430
15 | 57:12.31 | 3:54.11 | 257431 | 274991
16 | 61:06.42 | 3:42.15 | 274992 | 291656
17 | 64:48.57 | 3:22.06 | 291657 | 306812
18 | 68:10.63 | 3:21.20 | 306813 | 321907
19 | 71:32.08 | 6:38.46 | 321908 | 351803


Track 1

Filename E:\Torrent\Yazz - At Her Very Best And All The Greatest Hits (CD)\01 The Only Way Is Up.wav

Pre-gap length 0:00:02.00

Peak level 76.7 %
Extraction speed 1.9 X
Track quality 100.0 %
Test CRC DD506E18
Copy CRC DD506E18
Accurately ripped (confidence 2) [20CAB469] (AR v2)
Copy OK

Track 2

Filename E:\Torrent\Yazz - At Her Very Best And All The Greatest Hits (CD)\02 Doctorin' The House.wav

Pre-gap length 0:00:00.57

Peak level 76.7 %
Extraction speed 2.1 X
Track quality 100.0 %
Test CRC B9DD9D0D
Copy CRC B9DD9D0D
Accurately ripped (confidence 2) [F9D256BA] (AR v2)
Copy OK

Track 3

Filename E:\Torrent\Yazz - At Her Very Best And All The Greatest Hits (CD)\03 Stand Up For Your Love Rights.wav

Pre-gap length 0:00:00.57

Peak level 67.6 %
Extraction speed 2.0 X
Track quality 99.9 %
Test CRC 1B13F3C4
Copy CRC 1B13F3C4
Accurately ripped (confidence 2) [58D57354] (AR v2)
Copy OK

Track 4

Filename E:\Torrent\Yazz - At Her Very Best And All The Greatest Hits (CD)\04 Fine Time.wav

Pre-gap length 0:00:00.57

Peak level 63.8 %
Extraction speed 2.4 X
Track quality 100.0 %
Test CRC E2894DBC
Copy CRC E2894DBC
Accurately ripped (confidence 2) [D0A1767D] (AR v2)
Copy OK

Track 5

Filename E:\Torrent\Yazz - At Her Very Best And All The Greatest Hits (CD)\05 Where Has All The Love Gone.wav

Pre-gap length 0:00:00.57

Peak level 76.7 %
Extraction speed 2.5 X
Track quality 100.0 %
Test CRC D7FD4CC9
Copy CRC D7FD4CC9
Accurately ripped (confidence 2) [6B1943AC] (AR v2)
Copy OK

Track 6

Filename E:\Torrent\Yazz - At Her Very Best And All The Greatest Hits (CD)\06 Treat Me Good.wav

Pre-gap length 0:00:00.57

Peak level 87.0 %
Extraction speed 2.6 X
Track quality 100.0 %
Test CRC 4CB0346F
Copy CRC 4CB0346F
Accurately ripped (confidence 2) [89B48478] (AR v2)
Copy OK

Track 7

Filename E:\Torrent\Yazz - At Her Very Best And All The Greatest Hits (CD)\07 How Long.wav

Pre-gap length 0:00:00.57

Peak level 100.0 %
Extraction speed 2.5 X
Track quality 99.9 %
Test CRC BA531AFE
Copy CRC BA531AFE
Accurately ripped (confidence 2) [5D38908E] (AR v2)
Copy OK

Track 8

Filename E:\Torrent\Yazz - At Her Very Best And All The Greatest Hits (CD)\08 Have Mercy.wav

Pre-gap length 0:00:00.57

Peak level 100.0 %
Extraction speed 2.9 X
Track quality 100.0 %
Test CRC E619A3D8
Copy CRC E619A3D8
Accurately ripped (confidence 2) [AEC299EA] (AR v2)
Copy OK

Track 9

Filename E:\Torrent\Yazz - At Her Very Best And All The Greatest Hits (CD)\09 Everybody's Got To Learn Sometime.wav

Pre-gap length 0:00:00.57

Peak level 100.0 %
Extraction speed 3.1 X
Track quality 100.0 %
Test CRC 20B0B506
Copy CRC 20B0B506
Accurately ripped (confidence 2) [30E48747] (AR v2)
Copy OK

Track 10

Filename E:\Torrent\Yazz - At Her Very Best And All The Greatest Hits (CD)\10 Good Thing Going.wav

Pre-gap length 0:00:00.57

Peak level 56.2 %
Extraction speed 3.2 X
Track quality 100.0 %
Test CRC 98A32922
Copy CRC 98A32922
Accurately ripped (confidence 2) [11BD0FCD] (AR v2)
Copy OK

Track 11

Filename E:\Torrent\Yazz - At Her Very Best And All The Greatest Hits (CD)\11 One On One.wav

Pre-gap length 0:00:00.57

Peak level 100.0 %
Extraction speed 3.2 X
Track quality 100.0 %
Test CRC EB6DF484
Copy CRC EB6DF484
Accurately ripped (confidence 2) [E18EF297] (AR v2)
Copy OK

Track 12

Filename E:\Torrent\Yazz - At Her Very Best And All The Greatest Hits (CD)\12 That's Just The Way That It Is.wav

Pre-gap length 0:00:00.57

Peak level 100.0 %
Extraction speed 3.5 X
Track quality 100.0 %
Test CRC 0826ED9D
Copy CRC 0826ED9D
Accurately ripped (confidence 2) [15F343CC] (AR v2)
Copy OK

Track 13

Filename E:\Torrent\Yazz - At Her Very Best And All The Greatest Hits (CD)\13 Back In Love Again.wav

Pre-gap length 0:00:00.57

Peak level 100.0 %
Extraction speed 3.5 X
Track quality 100.0 %
Test CRC 757BF889
Copy CRC 757BF889
Accurately ripped (confidence 2) [B3005A36] (AR v2)
Copy OK

Track 14

Filename E:\Torrent\Yazz - At Her Very Best And All The Greatest Hits (CD)\14 Move Closer.wav

Pre-gap length 0:00:00.57

Peak level 72.4 %
Extraction speed 3.6 X
Track quality 100.0 %
Test CRC E0479D94
Copy CRC E0479D94
Accurately ripped (confidence 2) [F1012625] (AR v2)
Copy OK

Track 15

Filename E:\Torrent\Yazz - At Her Very Best And All The Greatest Hits (CD)\15 Never Can Say Goodbye.wav

Pre-gap length 0:00:00.57

Peak level 67.6 %
Extraction speed 3.7 X
Track quality 100.0 %
Test CRC 88A53F38
Copy CRC 88A53F38
Accurately ripped (confidence 2) [026A69D4] (AR v2)
Copy OK

Track 16

Filename E:\Torrent\Yazz - At Her Very Best And All The Greatest Hits (CD)\16 Don't Stay Away.wav

Pre-gap length 0:00:00.57

Peak level 76.7 %
Extraction speed 3.7 X
Track quality 100.0 %
Test CRC 34DA620C
Copy CRC 34DA620C
Accurately ripped (confidence 2) [B66B0523] (AR v2)
Copy OK

Track 17

Filename E:\Torrent\Yazz - At Her Very Best And All The Greatest Hits (CD)\17 Love Hangover.wav

Pre-gap length 0:00:00.57

Peak level 63.8 %
Extraction speed 3.7 X
Track quality 100.0 %
Test CRC 1A5CC1AB
Copy CRC 1A5CC1AB
Accurately ripped (confidence 2) [B6333D12] (AR v2)
Copy OK

Track 18

Filename E:\Torrent\Yazz - At Her Very Best And All The Greatest Hits (CD)\18 Groovin'.wav

Pre-gap length 0:00:00.57

Peak level 100.0 %
Extraction speed 3.8 X
Track quality 100.0 %
Test CRC 6A359A6C
Copy CRC 6A359A6C
Accurately ripped (confidence 2) [D056313E] (AR v2)
Copy OK

Track 19

Filename E:\Torrent\Yazz - At Her Very Best And All The Greatest Hits (CD)\19 Yazz And The Plastic PopulationThe Only Way Is Up (WIP Remix) (Work In Progress Remix).wav

Pre-gap length 0:00:00.56

Peak level 100.0 %
Extraction speed 4.2 X
Track quality 100.0 %
Test CRC 204687B9
Copy CRC 204687B9
Accurately ripped (confidence 2) [41F937D1] (AR v2)
Copy OK


All tracks accurately ripped

No errors occurred

End of status report

==== Log checksum 95A2F594BBA68475CC42BDF79937B485A2FD185914FA017D49325D888445E34E ====