Subcategories
Tags
Language
Tags

Yes - Full Circle In Berlin (2003)

Posted By: v3122
Yes - Full Circle In Berlin (2003)

Yes - Full Circle In Berlin (2003)
EAC | Flac(Image) + Cue & MP3 CBR 320Kbps
2CD | PRRP 024 | ~ 877 or 346 Mb | Artwork(jpg) -> 1.81 Mb
Progressive Rock

~ Tempodrom, Berlin, Germany - June 11th 2003 ~

Yes - Full Circle In Berlin (2003):

Tracklist CD1:

01. Opening: Firebird Suite 02:45
02. Siberian Khatru 10:20
03. Magnification 07:02
04. Don't Kill The Whale 04:51
05. In The Presence Of 12:23
06. We Have Heaven/South Side Of The Sky 12:51
07. And You And I 12:07
08. To Be Over (acoustic instrumental) 05:14
09. Second Initial 03:30

[CUETools log; Date: 27.04.2021 19:45:13; Version: 2.1.4]
[AccurateRip ID: 001802d1-00b59812-6c10aa09] found.
Track [ CRC | V2 ] Status
01 [d23006fb|46619069] (0+0/1) No match
02 [4fe64dba|45f39e45] (0+0/1) No match
03 [ccdf57d9|e0ba1608] (0+0/1) No match
04 [e8391c74|4a5fb468] (0+0/1) No match
05 [133c837d|84427fa6] (0+0/1) No match
06 [026feed0|92d18238] (0+0/1) No match
07 [c2cb0cee|bdc59d57] (0+0/1) No match
08 [33281fa3|5cf1365c] (0+0/1) No match
09 [d75669d5|aa199cd9] (0+0/1) No match
Offsetted by 24:
01 [e85a4a6f] (1/1) Accurately ripped
02 [088f48ae] (1/1) Accurately ripped
03 [03a4adce] (1/1) Accurately ripped
04 [7ba4da40] (1/1) Accurately ripped
05 [e5a51422] (1/1) Accurately ripped
06 [3df69ef8] (1/1) Accurately ripped
07 [e277fdd4] (1/1) Accurately ripped
08 [2d83647d] (1/1) Accurately ripped
09 [e8d319e5] (1/1) Accurately ripped

Track Peak [ CRC32 ] [W/O NULL]
– 93,4 [541BEC9F] [416E45D9]
01 57,9 [C75B491E] [C2E1510F]
02 87,8 [570EF810] [B0C2E82A]
03 91,7 [491FC551] [DB8477D0]
04 93,4 [19CC70EB] [CB3F9062]
05 84,4 [FECFA3AB] [FC8DECAD]
06 89,6 [14E9F038] [9B74D317]
07 92,5 [E1E29A3E] [5354E978]
08 53,1 [A46857AF] [91C6D911]
09 52,1 [8DF9756A] [0BA802C7]


Tracklist CD1:

01. Show Me 04:52
02. Rick Wakeman Solo 05:09
03. Heart Of The Sunrise 11:46
04. Long Distance Runaround 03:49
05. The Fish/Whitefish/Silent Wings Of Freedom 09:06
06. Awaken 17:54
07. Encore Applause 02:55
08. Roundabout 06:07
09. Starship Trooper 13:29

[CUETools log; Date: 27.04.2021 19:48:57; Version: 2.1.4]
[AccurateRip ID: 00177d2d-00b16486-77119f09] found.
Track [ CRC | V2 ] Status
01 [3eb494e1|07ed0421] (0+0/1) No match
02 [8e472557|24741f41] (0+0/1) No match
03 [79103fad|ec0589a4] (0+0/1) No match
04 [99a6469b|64ac6688] (0+0/1) No match
05 [72160ebd|10416675] (0+0/1) No match
06 [84aca5bb|523b6ee5] (0+0/1) No match
07 [e5827a3f|5f687682] (0+0/1) No match
08 [ff70fbdb|80173f88] (0+0/1) No match
09 [ee224c92|18223380] (0+0/1) No match
Offsetted by 24:
01 [ab3ee186] (1/1) Accurately ripped
02 [bd86c859] (1/1) Accurately ripped
03 [16f0acf0] (1/1) Accurately ripped
04 [20dd8f83] (1/1) Accurately ripped
05 [dd41b758] (1/1) Accurately ripped
06 [d8c165ec] (1/1) Accurately ripped
07 [660febad] (1/1) Accurately ripped
08 [858fd05f] (1/1) Accurately ripped
09 [8edf5db3] (1/1) Accurately ripped

Track Peak [ CRC32 ] [W/O NULL]
– 96,0 [691E0D40] [FA91499E]
01 46,0 [276481EF] [D46313CD]
02 65,1 [0D911CFE] [F35AFB85]
03 86,6 [1D8060D5] [07101508]
04 79,8 [1FEF7308] [0468ED40]
05 91,8 [FEA27B34] [E832E889]
06 96,0 [DA18C423] [62EF23B5]
07 49,3 [C62E914D] [C3A5665C]
08 92,3 [0DDD4C2D] [AA4ABE41]
09 96,0 [BEC69BD0] [D9540CF7]


Jon Anderson Lead Vocals, Guitar, Harp & Percussion
Steve Howe Lead Guitars & Backing Vocals
Chris Squire Bass Guitars & Backing Vocals
Rick Wakeman Keyboards
Alan White Drums & Percussion

Yes - Full Circle In Berlin (2003)

All thanks go to the original releaser

Yes in my Blog

Download Yes - Full Circle In Berlin (2003):