Subcategories
Tags
Language
Tags

Yo-Yo Ma - Barber: Cello Concerto, Britten: Symphony For Cello (1989)

Posted By: tirexiss
Yo-Yo Ma - Barber: Cello Concerto, Britten: Symphony For Cello (1989)

Yo-Yo Ma - Barber: Cello Concerto, Britten: Symphony For Cello (1989)
EAC | FLAC (image+.cue, log) | Covers Included | 62:02 | 245 MB
Genre: Classical | Label: CBS Records | Catalog: 44900

Samuel Barber's cello concerto has long been considered the weak sister among his three concertos for solo instrument; this release may alter that perception. It was written in 1945, when he was thirty-five, a time in his life when he was still brimming with confidence about his music, not yet on the defensive against attacks received from many quarters, and not yet attempting to bring contemporary elements into his work. Some of the brouhaha was well-intentioned: Americans in the musical world naturally wanted our first internationally successful composer to represent us at our best, our newest and freshest; others decried his conservative romanticism out of personal jealousy at his wide acceptance. At this late date, some may still shake their heads at his anachronistic style, but all recognize that Barber was being true to himself in the only way he could; his later attempts to modernize only spoiled his compositions, both because the music is less honest and because his growing bitterness interfered with the free flow of his early composing. The cello concerto was the last of his instrumental works to contain that warm glow of confidence and serenity; the piano sonata and the piano concerto are very fine works, but they depend more on flashy virtuosity for their appeal—appropriate for their forms, of course, but not quite the real Sam Barber, who reappeared in the opera house, where his innate lyricism better matched the audience's expectations, and in such other vocal works as Knoxville: Summer of 1915 and Andromache's Farewell.

In the past I have missed a sense of emotional involvement in Yo-Yo Ma's technically proficient performances, both live and on disc, but he seems an ideal performer for Barber's concerto. Given his impeccable technique and rock-solid intonation, Ma's straightforward approach invigorates the music; Barber supplies all the warmth needed, but the somewhat spineless nature of the piece had defeated earlier recordings. Wallfisch and Simon, on Chandos, stressed its beauty, and the work slipped down the drain. Ma and Zinman stand up and play it straight; it works wonders for the concerto. David Zinman remains one of our most underrated conductors; he makes any orchestra sound better than we think it is. He made the Rotterdam Philharmonic sound like the Concertgebouw Orchestra, and here the Baltimore Symphony plays beautifully.

Benjamin Britten wrote this symphony for his close friend Rostropovich, and the two of them made its first recording about 1964; that performance may never be equaled for its variety and flexibility. Britten was not only a great conductor, but the musical personality of his compositions is seldom captured so well by others; it involves a continual changing of mood, from total relaxation to high tension. Of course Rostropovich played exquisitely, and the London stereo recording was glorious. Against such fearsome competition, Ma and Zinman hold up very well indeed: they are more singleminded, more concentrated; they do not miss the gentler sides of the piece, but even so they make a convincing case for it as a major work. The fresh, detailed sound of the disc suggests that Joseph Meyerhoff Symphony Hall is a marvelous place to make and to hear music; it improves on the London LP in at least one respect: the bass is much tighter. No doubt the British will consider this to be a Britten disc with a Barber filler; the American work is emphasized here because it has never been done so well before: Roger Dettmer dismissed all three previous recordings in Fanfare 8:4. As suggested above, this release is on such a level as to revive the fortunes of the work itself. Definitive Barber. – James H. North

Yo-Yo Ma - Barber: Cello Concerto, Britten: Symphony For Cello (1989)

Track List:

Samuel Barber (1910-1981):
01. Cello Concerto, Op. 22: I. Allegro moderato [0:11:38.25]
02. Cello Concerto, Op. 22: II. Andante sostenuto [0:07:26.17]
03. Cello Concerto, Op. 22: III. Molto allegro e appassionato [0:07:53.33]
Benjamin Britten (1913-1976):
04. Symphony for Cello & Orchestra, Op. 68: I. Allegro maestoso [0:12:36.37]
05. Symphony for Cello & Orchestra, Op. 68: II. Presto inquieto [0:03:56.45]
06. Symphony for Cello & Orchestra, Op. 68: III. Adagio [0:11:30.03]
07. Symphony for Cello & Orchestra, Op. 68: IV. Passacaglia: Andante allegro [0:07:11.02]

Performers:
Yo-Yo Ma - cello
Baltimore Symphony Orchestra
David Zinman - conductor

Exact Audio Copy V1.0 beta 3 from 29. August 2011

EAC extraction logfile from 8. July 2012, 13:25

Yo-Yo Ma / Barber - Cello Concerto; Britten - Symphony For Cello - Yo-Yo Ma

Used drive : HL-DT-STDVDRAM GSA-H10A Adapter: 0 ID: 0

Read mode : Secure
Utilize accurate stream : Yes
Defeat audio cache : Yes
Make use of C2 pointers : No

Read offset correction : 667
Overread into Lead-In and Lead-Out : No
Fill up missing offset samples with silence : Yes
Delete leading and trailing silent blocks : No
Null samples used in CRC calculations : Yes
Used interface : Native Win32 interface for Win NT & 2000

Used output format : User Defined Encoder
Selected bitrate : 1024 kBit/s
Quality : High
Add ID3 tag : No
Command line compressor : C:\Program Files\Exact Audio Copy\Flac\flac.exe
Additional command line options : -8 -V -T "TITLE=%title%" -T "ARTIST=%artist%" -T "ALBUMARTIST=%albumartist%" -T "ALBUM=%albumtitle%" -T "DATE=%year%" -T "TRACKNUMBER=%tracknr%" -T "TRACKTOTAL=%numtracks%" -T "GENRE=%genre%" -T "COMMENT=%comment%" -T "PERFORMER=%albuminterpret%" -T "COMPOSER=%composer%" %source% -o %dest%


TOC of the extracted CD

Track | Start | Length | Start sector | End sector
––––––––––––––––––––––––––––-
1 | 0:00.00 | 11:38.25 | 0 | 52374
2 | 11:38.25 | 7:26.17 | 52375 | 85841
3 | 19:04.42 | 7:53.33 | 85842 | 121349
4 | 26:58.00 | 12:36.37 | 121350 | 178086
5 | 39:34.37 | 3:56.45 | 178087 | 195831
6 | 43:31.07 | 11:30.03 | 195832 | 247584
7 | 55:01.10 | 7:11.02 | 247585 | 279911


Range status and errors

Selected range

Filename F:\Ripped general\[0915] Barber - Cello Concerto; Britten - Symphony For Cello - Yo-Yo Ma\Barber - Cello Concerto; Britten - Symphony For Cello - Yo-Yo Ma.wav

Peak level 99.3 %
Extraction speed 5.5 X
Range quality 100.0 %
Test CRC 2463FF92
Copy CRC 2463FF92
Copy OK

No errors occurred


AccurateRip summary

Track 1 accurately ripped (confidence 4) [C46B7A98] (AR v1)
Track 2 accurately ripped (confidence 5) [70CE868D] (AR v1)
Track 3 accurately ripped (confidence 5) [F260FBC6] (AR v1)
Track 4 accurately ripped (confidence 5) [C2E6FD38] (AR v1)
Track 5 accurately ripped (confidence 5) [F9310BA7] (AR v1)
Track 6 accurately ripped (confidence 5) [52D1B954] (AR v1)
Track 7 accurately ripped (confidence 5) [585B660E] (AR v1)

All tracks accurately ripped

End of status report

Thanks to the Original ripper (unknown)!

Welcome to my blog!

Download: