Tags
Language
Tags

Ahmad Jamal Trio - The Classic 1958-1962 Recordings (2013) {5CD Set Jazz Dynamics 24-bit Remaster}

Posted By: ruskaval
Ahmad Jamal Trio - The Classic 1958-1962 Recordings (2013) {5CD Set Jazz Dynamics 24-bit Remaster}

Ahmad Jamal Trio - The Classic 1958-1962 Recordings (2013) {5CD Set Jazz Dynamics 24-bit Remaster}
EAC rip (secure mode) | FLAC (tracks)+CUE+LOG -> 1.94 Gb | MP3 @320 -> 972 Mb
Full Artwork @ 300 dpi (png) -> 129 Mb | 5% repair rar
© 1958-62, 2013 Jazz Dynamics | Jazz Dynamics 006
Jazz / Cool / Post Bop / Piano

This release compiles all of the originally issued recordings made by the classic Ahmad Jamal Trio with Israel Crosby and Vernel Fournier between 1958 and 1962 (Crosby died on August 11, 1962 at the age of 43). Included here are the legendary club performances taped in 1958 at the Pershing Lounge, in Chicago, as well as the subsequent sets recorded at the Spotlight, the Alhambra and the Blackhawk, plus various other sessions. This was the music that made Jamal famous. As a bonus, nine earlier versions of tunes from our set recorded by different formations of the Jamal trio.
Ahmad Jamal Trio - The Classic 1958-1962 Recordings (2013) {5CD Set Jazz Dynamics 24-bit Remaster}

This set has the complete contents of the following original albums:
- But Not for Me (Argo LP-628),
- At the Pershing Vol.2 (Argo LP-667),
- Happy Moods (Argo LP-662),
- Ahmad Jamal’s Alhambra (Argo LP-685),
- All of You (Argo LP-691),
- Ahmad Jamal at the Blackhawk (Argo LP-703),
- Ahmad Jamal Trio - Volume IV (Argo LP-636)
- Portfolio of Ahmad Jamal (Argo LP-2638),
- and Poinciana (Argo LP-719),
plus tracks from those sessions originally issued by Argo on compilation LPs.
Ahmad Jamal Trio - The Classic 1958-1962 Recordings (2013) {5CD Set Jazz Dynamics 24-bit Remaster}

Ahmad Jamal fans will hail this five-CD set with open arms, as it contains all Ahmad’s trio recordings from 1958 to 1962, including the sessions recorded at Chicago’s Pershing Lounge and Alhambra club, the Spotlight in Washington, and the Blackhawk in San Francisco. As the sleeve says: “This was the music that made Jamal famous”.

The opening But Not For Me immediately sets the scene, with Ahmad’s economical piano superbly backed by Israel Crosby’s punctuations on bass and Vernel Fournier’s just-right drumming. There are examples of Jamal’s habit of ceasing to play and letting the rhythm section keep up the momentum. Bill Evans’s trio with Scott LaFaro and Paul Motian is often hailed as the first fully integrated piano trio but Ahmad Jamal’s trio predates it by a year, and there is no doubt that all three members of the group were integral to its success. Crosby’s rock-steady bass and Fournier’s simple but mightily effective drum patterns were essential aspects of the group, as was Ahmad’s frugal piano. A track like Should I? seems to contain as much bass and drums as piano.

Ahmad Jamal Trio - The Classic 1958-1962 Recordings (2013) {5CD Set Jazz Dynamics 24-bit Remaster}


Like all good jazzmen, Ahmad can surprise the listener. Who else would take Too Late Now? at such a racy speed, and then keep altering the tempo? And note how Jamal suddenly turns the middle eight of Moonlight in Vermont into a waltz, as well as ending it with a mystifying stop-start sequence. He is also a master of dynamics, moving unexpectedly from soft to loud and back again.

Ahmad certainly had his clichйs, such as the syncopated triplet he often uses at the end of tunes. As you work your way through the 94 tracks in this collection, you become increasingly aware of some of Jamal’s favourite tricks, especially at the start or end of numbers.

Israel Crosby sadly died in August 1962 and was replaced by Eddie Calhoun on the last four tracks, while Vernel Fournier was replaced by guitarist Ray Crawford on several more. Some of the items with Crawford are magical, such as the precision between guitar and piano in Darn That Dream.

The recordings are clear and well-balanced, with bass and drums plainly audible, underlining the valuable contributions of Israel and Vernel. The 36-page booklet is a colourful bonus, containing the original liner notes from all the albums included.
Ahmad Jamal Trio - The Classic 1958-1962 Recordings (2013) {5CD Set Jazz Dynamics 24-bit Remaster}

CD 1 (1-19) Live at the Pershing Lounge, Chicago, January 16-17, 1958.
CD 1 (20-22) Chicago, June 30, 1958.
CD 2 & CD 3 (1-5) Live at the Spotlight Club, Washington, September 5-6, 1958.
CD 3 (6-15) Chicago, January 20-21, 1960 (originally issued as Happy Moods).
CD 3 (16-20) & CD 4 (1-13) Live at Ahmad Jamal’s Alhambra, Chicago, ca. June 22, 1961.
CD 5 (1-10) Live at The Blackhawk, San Francisco, January 31 & February 1, 1962.

Original sessions produced by Dave Usher (Pershing & Spotlight), Jack Tracy (Happy Moods),
Leonard Chess (Alhambra) & Paul Gayten (Blackhawk).

BONUS TRACKS:

CD 4 (14) & CD 5 (11-12)
Ahmad Jamal (p), Ray Crawford (g), Israel Crosby (b).
New York, October 25, 1955.
CD 5 (13-14) Same personnel as above. Chicago, May 23, 1955.
CD 5 (15-18) Same personnel as above except Eddie Calhoun (b) replaces Crosby.
Chicago, May 5, 1952.

36-PAGE BOOKLET INCLUDES THE ORIGINAL LPs’ ARTWORK, AS WELL AS UPDATED DATA
AND ALL OF THE ORIGINAL LINER NOTES
Ahmad Jamal Trio - The Classic 1958-1962 Recordings (2013) {5CD Set Jazz Dynamics 24-bit Remaster}


Personnel:
AHMAD JAMAL piano
ISRAEL CROSBY bass
VERNEL FOURNIER drums

tracklist:
cd1

01 - But Not For Me
02 - The Surrey With the Fringe On Top
03 - Moonlight In Vermont
04 - Music! Music! Music! (Put Another Nickel In)
05 - There is No Greater Love
06 - Poinciana
07 - Woody 'N You
08 - What's New
09 - Too Late Now
10 - All the Things You Are
11 - Cherokee
12 - It Might As Well Be Spring
13 - I'll Remember April
14 - My Funny Valentine
15 - Gone With the Wind
16 - Billy Boy
17 - It's You or No One
18 - They Can't Take That Away From Me
19 - Poor Butterfly
20 - Secret Love
21 - Taking a Chance On Love
22 - Soft Winds

CD2
01 - Taboo
02 - Should I
03 - Stompin' At the Savoy
04 - The Girl Next Door
05 - I Wish I Knew
06 - Cheek To Cheek
07 - Autumn in New York
08 - Secret Love
09 - Squatty Roo
10 - That's All
11 - This Can't Be Love
12 - Autumn Leaves
13 - Ahmad's Blues
14 - Ole Devil Moon
15 - Seleritus
16 - It Could Happen To You
17 - Ivy
18 - Tater Pie
19 - Let's Fall In Love
20 - Aki & Ukthay (Brother & Sister)

CD3
01 - You Don't Know What Love Is
02 - I Didn't Know What Time It Was
03 - So Beats My Heart For You
04 - A Gal In Calico
05 - Our Delight
06 - Little Old Lady
07 - For All We Know
08 - Pavanne
09 - Excerpt From The Blues
10 - Easy To Love
11 - Time On My Hands
12 - Raincheck
13 - I'll Never Stop Loving You
14 - Speak Low
15 - Rhumba No.2
16 - We Kiss In The Shadow
17 - Sweet And Lovely
18 - The Party's Over
19 - Love For Sale
20 - Snow Fall

CD4
01 - Broadway
02 - Willow Weep For Me
03 - Autumn Leaves
04 - Isn't It Romantic
05 - The Breeze And I
06 - Time On My Hands
07 - Angel Eyes
08 - You Go To My Head
09 - Star Eyes
10 - All Of You
11 - You're Blase
12 - What Is This Thing Called Love
13 - Poinciana
14 - Autumn Leaves (1955 Studio Version)

CD5
01 - Medley- I'll Take Romance,My Funny Valentine
02 - Like Someone In Love
03 - Falling In Love With Love
04 - The Best Thing For You
05 - April In Paris
06 - The Second Time Around
07 - We Live In Two Different Worlds
08 - Night Mist Blues
09 - Darn That Dream
10 - On Green Dolphin Street
11 - Poinciana (1955 Studio Version)
12 - Pavanne (1955 Studio Version)
13 - All Of You (1955 Studio Version)
14 - Darn That Dream (1955 Studio Version)
15 - Ahmad's Blues (1952 Studio Version)
16 - A Gal In Calico (1952 Studio Version)
17 - Aki & Ukthay (Brother & Sister) (1952 Studio Version)
18 - Billy Boy (1952 Studio Version)

Exact Audio Copy V0.99 prebeta 5 from 4. May 2009

EAC extraction logfile from 24. May 2014, 10:37

Ahmad Jamal Trio / The Classic 1958-1962 Recordings (CD1)

Used drive : PLEXTOR DVDR PX-L890SA Adapter: 6 ID: 0

Read mode : Secure
Utilize accurate stream : Yes
Defeat audio cache : Yes
Make use of C2 pointers : No

Read offset correction : 6
Overread into Lead-In and Lead-Out : No
Fill up missing offset samples with silence : Yes
Delete leading and trailing silent blocks : No
Null samples used in CRC calculations : Yes
Used interface : Native Win32 interface for Win NT & 2000
Gap handling : Appended to previous track

Used output format : User Defined Encoder
Selected bitrate : 1024 kBit/s
Quality : High
Add ID3 tag : No
Command line compressor : C:\Program Files (x86)\FLAC Frontend\tools\flac.exe
Additional command line options : -8 -V -T "ARTIST=%a" -T "TITLE=%t" -T "ALBUM=%g" -T "DATE=%y" -T "TRACKNUMBER=%n" -T "GENRE=%m" -T "COMMENT=EAC FLAC -8" %s


TOC of the extracted CD

Track | Start | Length | Start sector | End sector
––––––––––––––––––––––––––––-
1 | 0:00.00 | 3:32.18 | 0 | 15917
2 | 3:32.18 | 2:35.52 | 15918 | 27594
3 | 6:07.70 | 3:10.12 | 27595 | 41856
4 | 9:18.07 | 2:57.16 | 41857 | 55147
5 | 12:15.23 | 3:24.27 | 55148 | 70474
6 | 15:39.50 | 8:08.39 | 70475 | 107113
7 | 23:48.14 | 3:40.66 | 107114 | 123679
8 | 27:29.05 | 4:11.11 | 123680 | 142515
9 | 31:40.16 | 2:31.15 | 142516 | 153855
10 | 34:11.31 | 3:12.63 | 153856 | 168318
11 | 37:24.19 | 3:42.60 | 168319 | 185028
12 | 41:07.04 | 3:27.04 | 185029 | 200557
13 | 44:34.08 | 2:41.33 | 200558 | 212665
14 | 47:15.41 | 3:27.46 | 212666 | 228236
15 | 50:43.12 | 3:24.46 | 228237 | 243582
16 | 54:07.58 | 3:00.51 | 243583 | 257133
17 | 57:08.34 | 3:34.13 | 257134 | 273196
18 | 60:42.47 | 4:45.13 | 273197 | 294584
19 | 65:27.60 | 3:40.50 | 294585 | 311134
20 | 69:08.35 | 2:42.22 | 311135 | 323306
21 | 71:50.57 | 1:49.54 | 323307 | 331535
22 | 73:40.36 | 3:20.54 | 331536 | 346589


Track 1

Filename D:\_EAC\Ahmad Jamal Trio - The Classic 1958-1962 Recordings (2013) [5CD] {Jazz Dynamics}\CD1\01 - But Not For Me.wav

Pre-gap length 0:00:02.00

Peak level 96.4 %
Track quality 100.0 %
Test CRC 4AC19E61
Copy CRC 4AC19E61
Cannot be verified as accurate (confidence 2) [9992AC96], AccurateRip returned [3BCFE4CE]
Copy OK

Track 2

Filename D:\_EAC\Ahmad Jamal Trio - The Classic 1958-1962 Recordings (2013) [5CD] {Jazz Dynamics}\CD1\02 - The Surrey With the Fringe On Top.wav

Peak level 100.0 %
Track quality 100.0 %
Test CRC FA2C6EFF
Copy CRC FA2C6EFF
Cannot be verified as accurate (confidence 2) [FFBBE8C5], AccurateRip returned [8D572A91]
Copy OK

Track 3

Filename D:\_EAC\Ahmad Jamal Trio - The Classic 1958-1962 Recordings (2013) [5CD] {Jazz Dynamics}\CD1\03 - Moonlight In Vermont.wav

Peak level 93.6 %
Track quality 100.0 %
Test CRC CA5FB5A6
Copy CRC CA5FB5A6
Cannot be verified as accurate (confidence 2) [BA338C3D], AccurateRip returned [8BFC7CDC]
Copy OK

Track 4

Filename D:\_EAC\Ahmad Jamal Trio - The Classic 1958-1962 Recordings (2013) [5CD] {Jazz Dynamics}\CD1\04 - Music! Music! Music! (Put Another Nickel In).wav

Peak level 100.0 %
Track quality 100.0 %
Test CRC 908CAD3A
Copy CRC 908CAD3A
Cannot be verified as accurate (confidence 2) [BBB99A0D], AccurateRip returned [E1483307]
Copy OK

Track 5

Filename D:\_EAC\Ahmad Jamal Trio - The Classic 1958-1962 Recordings (2013) [5CD] {Jazz Dynamics}\CD1\05 - There is No Greater Love.wav

Peak level 100.0 %
Track quality 100.0 %
Test CRC 541F0071
Copy CRC 541F0071
Cannot be verified as accurate (confidence 2) [34B6DDAA], AccurateRip returned [66A6AACE]
Copy OK

Track 6

Filename D:\_EAC\Ahmad Jamal Trio - The Classic 1958-1962 Recordings (2013) [5CD] {Jazz Dynamics}\CD1\06 - Poinciana.wav

Peak level 100.0 %
Track quality 100.0 %
Test CRC FEEA6344
Copy CRC FEEA6344
Cannot be verified as accurate (confidence 2) [C9AECC65], AccurateRip returned [418C7643]
Copy OK

Track 7

Filename D:\_EAC\Ahmad Jamal Trio - The Classic 1958-1962 Recordings (2013) [5CD] {Jazz Dynamics}\CD1\07 - Woody 'N You.wav

Peak level 100.0 %
Track quality 100.0 %
Test CRC BDEBC138
Copy CRC BDEBC138
Cannot be verified as accurate (confidence 2) [6B9185A4], AccurateRip returned [058040AF]
Copy OK

Track 8

Filename D:\_EAC\Ahmad Jamal Trio - The Classic 1958-1962 Recordings (2013) [5CD] {Jazz Dynamics}\CD1\08 - What’s New .wav

Peak level 96.5 %
Track quality 100.0 %
Test CRC 39949146
Copy CRC 39949146
Cannot be verified as accurate (confidence 2) [7766625D], AccurateRip returned [39BA335C]
Copy OK

Track 9

Filename D:\_EAC\Ahmad Jamal Trio - The Classic 1958-1962 Recordings (2013) [5CD] {Jazz Dynamics}\CD1\09 - Too Late Now.wav

Peak level 100.0 %
Track quality 100.0 %
Test CRC 961140AB
Copy CRC 961140AB
Cannot be verified as accurate (confidence 2) [BD93780A], AccurateRip returned [C70BF8E5]
Copy OK

Track 10

Filename D:\_EAC\Ahmad Jamal Trio - The Classic 1958-1962 Recordings (2013) [5CD] {Jazz Dynamics}\CD1\10 - All the Things You Are.wav

Peak level 100.0 %
Track quality 100.0 %
Test CRC A2E6DE07
Copy CRC A2E6DE07
Cannot be verified as accurate (confidence 2) [1003DD04], AccurateRip returned [07E0112B]
Copy OK

Track 11

Filename D:\_EAC\Ahmad Jamal Trio - The Classic 1958-1962 Recordings (2013) [5CD] {Jazz Dynamics}\CD1\11 - Cherokee.wav

Peak level 100.0 %
Track quality 99.9 %
Test CRC FF090802
Copy CRC FF090802
Cannot be verified as accurate (confidence 2) [6A41C95D], AccurateRip returned [86EF79D5]
Copy OK

Track 12

Filename D:\_EAC\Ahmad Jamal Trio - The Classic 1958-1962 Recordings (2013) [5CD] {Jazz Dynamics}\CD1\12 - It Might As Well Be Spring.wav

Peak level 79.1 %
Track quality 100.0 %
Test CRC 78802B4F
Copy CRC 78802B4F
Cannot be verified as accurate (confidence 2) [6EAFF3A5], AccurateRip returned [8CB5D0F6]
Copy OK

Track 13

Filename D:\_EAC\Ahmad Jamal Trio - The Classic 1958-1962 Recordings (2013) [5CD] {Jazz Dynamics}\CD1\13 - I'll Remember April.wav

Peak level 100.0 %
Track quality 100.0 %
Test CRC 0347830C
Copy CRC 0347830C
Cannot be verified as accurate (confidence 2) [8E6025A8], AccurateRip returned [7B741F0E]
Copy OK

Track 14

Filename D:\_EAC\Ahmad Jamal Trio - The Classic 1958-1962 Recordings (2013) [5CD] {Jazz Dynamics}\CD1\14 - My Funny Valentine.wav

Peak level 100.0 %
Track quality 100.0 %
Test CRC 6749E8F8
Copy CRC 6749E8F8
Cannot be verified as accurate (confidence 2) [FAFDC9DB], AccurateRip returned [B80DCBD1]
Copy OK

Track 15

Filename D:\_EAC\Ahmad Jamal Trio - The Classic 1958-1962 Recordings (2013) [5CD] {Jazz Dynamics}\CD1\15 - Gone With the Wind.wav

Peak level 81.2 %
Track quality 100.0 %
Test CRC 39A26010
Copy CRC 39A26010
Cannot be verified as accurate (confidence 2) [9C9A13EE], AccurateRip returned [AFF1C396]
Copy OK

Track 16

Filename D:\_EAC\Ahmad Jamal Trio - The Classic 1958-1962 Recordings (2013) [5CD] {Jazz Dynamics}\CD1\16 - Billy Boy.wav

Peak level 100.0 %
Track quality 100.0 %
Test CRC 96F05EFC
Copy CRC 96F05EFC
Cannot be verified as accurate (confidence 2) [83240271], AccurateRip returned [FAF01E4F]
Copy OK

Track 17

Filename D:\_EAC\Ahmad Jamal Trio - The Classic 1958-1962 Recordings (2013) [5CD] {Jazz Dynamics}\CD1\17 - It's You or No One.wav

Peak level 85.5 %
Track quality 99.9 %
Test CRC B8C197B9
Copy CRC B8C197B9
Cannot be verified as accurate (confidence 2) [13B994F3], AccurateRip returned [11C3EFE3]
Copy OK

Track 18

Filename D:\_EAC\Ahmad Jamal Trio - The Classic 1958-1962 Recordings (2013) [5CD] {Jazz Dynamics}\CD1\18 - They Can't Take That Away From Me.wav

Peak level 75.3 %
Track quality 100.0 %
Test CRC 3524D419
Copy CRC 3524D419
Cannot be verified as accurate (confidence 2) [858219E1], AccurateRip returned [4B693197]
Copy OK

Track 19

Filename D:\_EAC\Ahmad Jamal Trio - The Classic 1958-1962 Recordings (2013) [5CD] {Jazz Dynamics}\CD1\19 - Poor Butterfly.wav

Peak level 69.1 %
Track quality 100.0 %
Test CRC 2A9732D9
Copy CRC 2A9732D9
Cannot be verified as accurate (confidence 2) [F806FA3A], AccurateRip returned [FBD7EBCF]
Copy OK

Track 20

Filename D:\_EAC\Ahmad Jamal Trio - The Classic 1958-1962 Recordings (2013) [5CD] {Jazz Dynamics}\CD1\20 - Secret Love.wav

Peak level 100.0 %
Track quality 100.0 %
Test CRC 1E42ED3F
Copy CRC 1E42ED3F
Cannot be verified as accurate (confidence 2) [E21B5F95], AccurateRip returned [EDEB9BA7]
Copy OK

Track 21

Filename D:\_EAC\Ahmad Jamal Trio - The Classic 1958-1962 Recordings (2013) [5CD] {Jazz Dynamics}\CD1\21 - Taking a Chance On Love.wav

Peak level 100.0 %
Track quality 100.0 %
Test CRC F9016B5A
Copy CRC F9016B5A
Cannot be verified as accurate (confidence 2) [68062B5A], AccurateRip returned [A86C98DC]
Copy OK

Track 22

Filename D:\_EAC\Ahmad Jamal Trio - The Classic 1958-1962 Recordings (2013) [5CD] {Jazz Dynamics}\CD1\22 - Soft Winds.wav

Peak level 100.0 %
Track quality 100.0 %
Test CRC 9DE08C52
Copy CRC 9DE08C52
Cannot be verified as accurate (confidence 1) [1E40CFDB], AccurateRip returned [74F70A9C]
Copy OK


No tracks could be verified as accurate
You may have a different pressing from the one(s) in the database

No errors occurred

End of status report

Exact Audio Copy V0.99 prebeta 5 from 4. May 2009

EAC extraction logfile from 24. May 2014, 11:52

Ahmad Jamal Trio / The Classic 1958-1962 Recordings (CD2)

Used drive : PLEXTOR DVDR PX-L890SA Adapter: 6 ID: 0

Read mode : Secure
Utilize accurate stream : Yes
Defeat audio cache : Yes
Make use of C2 pointers : No

Read offset correction : 6
Overread into Lead-In and Lead-Out : No
Fill up missing offset samples with silence : Yes
Delete leading and trailing silent blocks : No
Null samples used in CRC calculations : Yes
Used interface : Native Win32 interface for Win NT & 2000
Gap handling : Appended to previous track

Used output format : User Defined Encoder
Selected bitrate : 1024 kBit/s
Quality : High
Add ID3 tag : No
Command line compressor : C:\Program Files (x86)\FLAC Frontend\tools\flac.exe
Additional command line options : -8 -V -T "ARTIST=%a" -T "TITLE=%t" -T "ALBUM=%g" -T "DATE=%y" -T "TRACKNUMBER=%n" -T "GENRE=%m" -T "COMMENT=EAC FLAC -8" %s


TOC of the extracted CD

Track | Start | Length | Start sector | End sector
––––––––––––––––––––––––––––-
1 | 0:00.00 | 4:05.32 | 0 | 18406
2 | 4:05.32 | 3:42.40 | 18407 | 35096
3 | 7:47.72 | 4:14.70 | 35097 | 54216
4 | 12:02.67 | 3:28.51 | 54217 | 69867
5 | 15:31.43 | 3:43.11 | 69868 | 86603
6 | 19:14.54 | 4:51.24 | 86604 | 108452
7 | 24:06.03 | 3:21.65 | 108453 | 123592
8 | 27:27.68 | 3:53.04 | 123593 | 141071
9 | 31:20.72 | 2:19.21 | 141072 | 151517
10 | 33:40.18 | 2:41.58 | 151518 | 163650
11 | 36:22.01 | 5:02.28 | 163651 | 186328
12 | 41:24.29 | 7:45.21 | 186329 | 221224
13 | 49:09.50 | 3:54.65 | 221225 | 238839
14 | 53:04.40 | 3:56.37 | 238840 | 256576
15 | 57:01.02 | 3:08.29 | 256577 | 270705
16 | 60:09.31 | 4:14.41 | 270706 | 289796
17 | 64:23.72 | 2:56.25 | 289797 | 303021
18 | 67:20.22 | 3:02.01 | 303022 | 316672
19 | 70:22.23 | 5:03.67 | 316673 | 339464
20 | 75:26.15 | 3:16.51 | 339465 | 354215


Track 1

Filename D:\_EAC\Ahmad Jamal Trio - The Classic 1958-1962 Recordings (2013) [5CD] {Jazz Dynamics}\CD2\01 - Taboo.wav

Pre-gap length 0:00:02.00

Peak level 99.9 %
Track quality 100.0 %
Test CRC 92163E54
Copy CRC 92163E54
Cannot be verified as accurate (confidence 1) [A87D0E1D], AccurateRip returned [3B5B7603]
Copy OK

Track 2

Filename D:\_EAC\Ahmad Jamal Trio - The Classic 1958-1962 Recordings (2013) [5CD] {Jazz Dynamics}\CD2\02 - Should I .wav

Peak level 100.0 %
Track quality 100.0 %
Test CRC CB9975BB
Copy CRC CB9975BB
Cannot be verified as accurate (confidence 1) [C6B5954A], AccurateRip returned [8A157AFA]
Copy OK

Track 3

Filename D:\_EAC\Ahmad Jamal Trio - The Classic 1958-1962 Recordings (2013) [5CD] {Jazz Dynamics}\CD2\03 - Stompin’ At the Savoy.wav

Peak level 100.0 %
Track quality 100.0 %
Test CRC 567FA561
Copy CRC 567FA561
Cannot be verified as accurate (confidence 1) [9EF50613], AccurateRip returned [E64E892D]
Copy OK

Track 4

Filename D:\_EAC\Ahmad Jamal Trio - The Classic 1958-1962 Recordings (2013) [5CD] {Jazz Dynamics}\CD2\04 - The Girl Next Door.wav

Peak level 100.0 %
Track quality 100.0 %
Test CRC 1A59F698
Copy CRC 1A59F698
Cannot be verified as accurate (confidence 1) [107DCF05], AccurateRip returned [3D822BC8]
Copy OK

Track 5

Filename D:\_EAC\Ahmad Jamal Trio - The Classic 1958-1962 Recordings (2013) [5CD] {Jazz Dynamics}\CD2\05 - I Wish I Knew.wav

Peak level 100.0 %
Track quality 99.9 %
Test CRC 3A914F0F
Copy CRC 3A914F0F
Cannot be verified as accurate (confidence 1) [5C89283F], AccurateRip returned [411AD2DF]
Copy OK

Track 6

Filename D:\_EAC\Ahmad Jamal Trio - The Classic 1958-1962 Recordings (2013) [5CD] {Jazz Dynamics}\CD2\06 - Cheek To Cheek.wav

Peak level 98.7 %
Track quality 100.0 %
Test CRC A385A548
Copy CRC A385A548
Cannot be verified as accurate (confidence 1) [8B4804D8], AccurateRip returned [98B5F36F]
Copy OK

Track 7

Filename D:\_EAC\Ahmad Jamal Trio - The Classic 1958-1962 Recordings (2013) [5CD] {Jazz Dynamics}\CD2\07 - Autumn in New York.wav

Peak level 98.4 %
Track quality 100.0 %
Test CRC 1221E8B2
Copy CRC 1221E8B2
Cannot be verified as accurate (confidence 1) [E39CCF91], AccurateRip returned [0D9FCD29]
Copy OK

Track 8

Filename D:\_EAC\Ahmad Jamal Trio - The Classic 1958-1962 Recordings (2013) [5CD] {Jazz Dynamics}\CD2\08 - Secret Love.wav

Peak level 96.5 %
Track quality 100.0 %
Test CRC 1A9E8FA7
Copy CRC 1A9E8FA7
Cannot be verified as accurate (confidence 1) [B722F3E8], AccurateRip returned [8EF5234D]
Copy OK

Track 9

Filename D:\_EAC\Ahmad Jamal Trio - The Classic 1958-1962 Recordings (2013) [5CD] {Jazz Dynamics}\CD2\09 - Squatty Roo.wav

Peak level 100.0 %
Track quality 100.0 %
Test CRC C3D5B2D9
Copy CRC C3D5B2D9
Cannot be verified as accurate (confidence 1) [72722D09], AccurateRip returned [05627262]
Copy OK

Track 10

Filename D:\_EAC\Ahmad Jamal Trio - The Classic 1958-1962 Recordings (2013) [5CD] {Jazz Dynamics}\CD2\10 - That's All.wav

Peak level 36.2 %
Track quality 100.0 %
Test CRC 1682701B
Copy CRC 1682701B
Cannot be verified as accurate (confidence 1) [3CF49DDF], AccurateRip returned [B6077E29]
Copy OK

Track 11

Filename D:\_EAC\Ahmad Jamal Trio - The Classic 1958-1962 Recordings (2013) [5CD] {Jazz Dynamics}\CD2\11 - This Can't Be Love.wav

Peak level 100.0 %
Track quality 100.0 %
Test CRC 7868D056
Copy CRC 7868D056
Cannot be verified as accurate (confidence 1) [DB7E40AE], AccurateRip returned [10EF7EE3]
Copy OK

Track 12

Filename D:\_EAC\Ahmad Jamal Trio - The Classic 1958-1962 Recordings (2013) [5CD] {Jazz Dynamics}\CD2\12 - Autumn Leaves.wav

Peak level 94.4 %
Track quality 100.0 %
Test CRC 5F53F86A
Copy CRC 5F53F86A
Cannot be verified as accurate (confidence 1) [C004E056], AccurateRip returned [8B3AA413]
Copy OK

Track 13

Filename D:\_EAC\Ahmad Jamal Trio - The Classic 1958-1962 Recordings (2013) [5CD] {Jazz Dynamics}\CD2\13 - Ahmad's Blues.wav

Peak level 100.0 %
Track quality 100.0 %
Test CRC E5C0802F
Copy CRC E5C0802F
Cannot be verified as accurate (confidence 1) [117AFEAA], AccurateRip returned [EFB59EB5]
Copy OK

Track 14

Filename D:\_EAC\Ahmad Jamal Trio - The Classic 1958-1962 Recordings (2013) [5CD] {Jazz Dynamics}\CD2\14 - Ole Devil Moon.wav

Peak level 100.0 %
Track quality 100.0 %
Test CRC E45BB79D
Copy CRC E45BB79D
Cannot be verified as accurate (confidence 1) [275D4E07], AccurateRip returned [4854B8FE]
Copy OK

Track 15

Filename D:\_EAC\Ahmad Jamal Trio - The Classic 1958-1962 Recordings (2013) [5CD] {Jazz Dynamics}\CD2\15 - Seleritus.wav

Peak level 100.0 %
Track quality 100.0 %
Test CRC 5334B264
Copy CRC 5334B264
Cannot be verified as accurate (confidence 1) [59A0F9A1], AccurateRip returned [2CB386A6]
Copy OK

Track 16

Filename D:\_EAC\Ahmad Jamal Trio - The Classic 1958-1962 Recordings (2013) [5CD] {Jazz Dynamics}\CD2\16 - It Could Happen To You.wav

Peak level 100.0 %
Track quality 100.0 %
Test CRC E3DB2E9F
Copy CRC E3DB2E9F
Cannot be verified as accurate (confidence 1) [E60031DE], AccurateRip returned [5A8C4162]
Copy OK

Track 17

Filename D:\_EAC\Ahmad Jamal Trio - The Classic 1958-1962 Recordings (2013) [5CD] {Jazz Dynamics}\CD2\17 - Ivy.wav

Peak level 85.8 %
Track quality 99.9 %
Test CRC C041FE1C
Copy CRC C041FE1C
Cannot be verified as accurate (confidence 1) [DFAA3AB5], AccurateRip returned [A3B29A50]
Copy OK

Track 18

Filename D:\_EAC\Ahmad Jamal Trio - The Classic 1958-1962 Recordings (2013) [5CD] {Jazz Dynamics}\CD2\18 - Tater Pie.wav

Peak level 100.0 %
Track quality 100.0 %
Test CRC 9DD8823C
Copy CRC 9DD8823C
Cannot be verified as accurate (confidence 1) [A0DE72D9], AccurateRip returned [EEB9D8E8]
Copy OK

Track 19

Filename D:\_EAC\Ahmad Jamal Trio - The Classic 1958-1962 Recordings (2013) [5CD] {Jazz Dynamics}\CD2\19 - Let's Fall In Love.wav

Peak level 100.0 %
Track quality 100.0 %
Test CRC 0753F8F2
Copy CRC 0753F8F2
Cannot be verified as accurate (confidence 1) [EA227621], AccurateRip returned [854EDE77]
Copy OK

Track 20

Filename D:\_EAC\Ahmad Jamal Trio - The Classic 1958-1962 Recordings (2013) [5CD] {Jazz Dynamics}\CD2\20 - Aki & Ukthay (Brother & Sister).wav

Peak level 100.0 %
Track quality 100.0 %
Test CRC B6F5E8A6
Copy CRC B6F5E8A6
Cannot be verified as accurate (confidence 1) [76BDD7C6], AccurateRip returned [9BD2160C]
Copy OK


No tracks could be verified as accurate
You may have a different pressing from the one(s) in the database

No errors occurred

End of status report

Exact Audio Copy V0.99 prebeta 5 from 4. May 2009

EAC extraction logfile from 24. May 2014, 14:05

Ahmad Jamal Trio / The Classic 1958-1962 Recordings (CD3)

Used drive : PLEXTOR DVDR PX-L890SA Adapter: 6 ID: 0

Read mode : Secure
Utilize accurate stream : Yes
Defeat audio cache : Yes
Make use of C2 pointers : No

Read offset correction : 6
Overread into Lead-In and Lead-Out : No
Fill up missing offset samples with silence : Yes
Delete leading and trailing silent blocks : No
Null samples used in CRC calculations : Yes
Used interface : Native Win32 interface for Win NT & 2000
Gap handling : Appended to previous track

Used output format : User Defined Encoder
Selected bitrate : 1024 kBit/s
Quality : High
Add ID3 tag : No
Command line compressor : C:\Program Files (x86)\FLAC Frontend\tools\flac.exe
Additional command line options : -8 -V -T "ARTIST=%a" -T "TITLE=%t" -T "ALBUM=%g" -T "DATE=%y" -T "TRACKNUMBER=%n" -T "GENRE=%m" -T "COMMENT=EAC FLAC -8" %s


TOC of the extracted CD

Track | Start | Length | Start sector | End sector
––––––––––––––––––––––––––––-
1 | 0:00.00 | 3:30.49 | 0 | 15798
2 | 3:30.49 | 4:35.60 | 15799 | 36483
3 | 8:06.34 | 3:39.64 | 36484 | 52972
4 | 11:46.23 | 4:46.11 | 52973 | 74433
5 | 16:32.34 | 3:01.01 | 74434 | 88009
6 | 19:33.35 | 5:16.47 | 88010 | 111756
7 | 24:50.07 | 2:47.21 | 111757 | 124302
8 | 27:37.28 | 5:46.49 | 124303 | 150301
9 | 33:24.02 | 3:04.30 | 150302 | 164131
10 | 36:28.32 | 3:20.39 | 164132 | 179170
11 | 39:48.71 | 1:35.55 | 179171 | 186350
12 | 41:24.51 | 4:43.16 | 186351 | 207591
13 | 46:07.67 | 3:03.04 | 207592 | 221320
14 | 49:10.71 | 4:56.05 | 221321 | 243525
15 | 54:07.01 | 2:40.00 | 243526 | 255525
16 | 56:47.01 | 5:04.52 | 255526 | 278377
17 | 61:51.53 | 4:00.28 | 278378 | 296405
18 | 65:52.06 | 3:59.44 | 296406 | 314374
19 | 69:51.50 | 4:02.43 | 314375 | 332567
20 | 73:54.18 | 2:30.33 | 332568 | 343850


Track 1

Filename D:\_EAC\Ahmad Jamal Trio - The Classic 1958-1962 Recordings (2013) [5CD] {Jazz Dynamics}\CD3\01 - You Don't Know What Love Is.wav

Pre-gap length 0:00:02.00

Peak level 100.0 %
Track quality 100.0 %
Test CRC ACEBD4B3
Copy CRC ACEBD4B3
Cannot be verified as accurate (confidence 1) [C927E8D0], AccurateRip returned [1638581F]
Copy OK

Track 2

Filename D:\_EAC\Ahmad Jamal Trio - The Classic 1958-1962 Recordings (2013) [5CD] {Jazz Dynamics}\CD3\02 - I Didn't Know What Time It Was.wav

Peak level 100.0 %
Track quality 100.0 %
Test CRC 2FE33EB4
Copy CRC 2FE33EB4
Cannot be verified as accurate (confidence 1) [4F87BA3E], AccurateRip returned [0AFBAD80]
Copy OK

Track 3

Filename D:\_EAC\Ahmad Jamal Trio - The Classic 1958-1962 Recordings (2013) [5CD] {Jazz Dynamics}\CD3\03 - So Beats My Heart For You.wav

Peak level 100.0 %
Track quality 100.0 %
Test CRC 33DA392C
Copy CRC 33DA392C
Cannot be verified as accurate (confidence 1) [EA1F02DF], AccurateRip returned [49AAC294]
Copy OK

Track 4

Filename D:\_EAC\Ahmad Jamal Trio - The Classic 1958-1962 Recordings (2013) [5CD] {Jazz Dynamics}\CD3\04 - A Gal In Calico.wav

Peak level 100.0 %
Track quality 100.0 %
Test CRC E69879D8
Copy CRC E69879D8
Cannot be verified as accurate (confidence 1) [07110502], AccurateRip returned [8DFEA5C1]
Copy OK

Track 5

Filename D:\_EAC\Ahmad Jamal Trio - The Classic 1958-1962 Recordings (2013) [5CD] {Jazz Dynamics}\CD3\05 - Our Delight.wav

Peak level 100.0 %
Track quality 100.0 %
Test CRC 1A9E635F
Copy CRC 1A9E635F
Cannot be verified as accurate (confidence 1) [D839BA1C], AccurateRip returned [A8F39C09]
Copy OK

Track 6

Filename D:\_EAC\Ahmad Jamal Trio - The Classic 1958-1962 Recordings (2013) [5CD] {Jazz Dynamics}\CD3\06 - Little Old Lady.wav

Peak level 100.0 %
Track quality 100.0 %
Test CRC 570C1138
Copy CRC 570C1138
Cannot be verified as accurate (confidence 1) [7A1E1BBA], AccurateRip returned [84E131C6]
Copy OK

Track 7

Filename D:\_EAC\Ahmad Jamal Trio - The Classic 1958-1962 Recordings (2013) [5CD] {Jazz Dynamics}\CD3\07 - For All We Know.wav

Peak level 99.3 %
Track quality 100.0 %
Test CRC A3501D78
Copy CRC A3501D78
Cannot be verified as accurate (confidence 1) [06A6AA77], AccurateRip returned [888F73FA]
Copy OK

Track 8

Filename D:\_EAC\Ahmad Jamal Trio - The Classic 1958-1962 Recordings (2013) [5CD] {Jazz Dynamics}\CD3\08 - Pavanne.wav

Peak level 100.0 %
Track quality 99.9 %
Test CRC 84D35BEE
Copy CRC 84D35BEE
Cannot be verified as accurate (confidence 1) [D3F08F92], AccurateRip returned [01DBBBEF]
Copy OK

Track 9

Filename D:\_EAC\Ahmad Jamal Trio - The Classic 1958-1962 Recordings (2013) [5CD] {Jazz Dynamics}\CD3\09 - Excerpt From The Blues.wav

Peak level 100.0 %
Track quality 100.0 %
Test CRC B8CF149D
Copy CRC B8CF149D
Cannot be verified as accurate (confidence 1) [940F49E2], AccurateRip returned [71D08004]
Copy OK

Track 10

Filename D:\_EAC\Ahmad Jamal Trio - The Classic 1958-1962 Recordings (2013) [5CD] {Jazz Dynamics}\CD3\10 - Easy To Love.wav

Peak level 99.9 %
Track quality 100.0 %
Test CRC 61BC3F8A
Copy CRC 61BC3F8A
Cannot be verified as accurate (confidence 1) [5049988A], AccurateRip returned [BD5BFBB3]
Copy OK

Track 11

Filename D:\_EAC\Ahmad Jamal Trio - The Classic 1958-1962 Recordings (2013) [5CD] {Jazz Dynamics}\CD3\11 - Time On My Hands.wav

Peak level 100.0 %
Track quality 100.0 %
Test CRC B457A5D7
Copy CRC B457A5D7
Cannot be verified as accurate (confidence 1) [1DF1F9FF], AccurateRip returned [3DDF611F]
Copy OK

Track 12

Filename D:\_EAC\Ahmad Jamal Trio - The Classic 1958-1962 Recordings (2013) [5CD] {Jazz Dynamics}\CD3\12 - Raincheck.wav

Peak level 100.0 %
Track quality 100.0 %
Test CRC 358D45D0
Copy CRC 358D45D0
Cannot be verified as accurate (confidence 1) [CB9A01C3], AccurateRip returned [8542BC60]
Copy OK

Track 13

Filename D:\_EAC\Ahmad Jamal Trio - The Classic 1958-1962 Recordings (2013) [5CD] {Jazz Dynamics}\CD3\13 - I'll Never Stop Loving You.wav

Peak level 100.0 %
Track quality 100.0 %
Test CRC 92890970
Copy CRC 92890970
Cannot be verified as accurate (confidence 1) [1B9D3D3D], AccurateRip returned [3B539E11]
Copy OK

Track 14

Filename D:\_EAC\Ahmad Jamal Trio - The Classic 1958-1962 Recordings (2013) [5CD] {Jazz Dynamics}\CD3\14 - Speak Low.wav

Peak level 100.0 %
Track quality 100.0 %
Test CRC E0669E0E
Copy CRC E0669E0E
Cannot be verified as accurate (confidence 1) [0C0CCC2A], AccurateRip returned [BD769E23]
Copy OK

Track 15

Filename D:\_EAC\Ahmad Jamal Trio - The Classic 1958-1962 Recordings (2013) [5CD] {Jazz Dynamics}\CD3\15 - Rhumba No.2.wav

Peak level 100.0 %
Track quality 100.0 %
Test CRC 319D4DA9
Copy CRC 319D4DA9
Cannot be verified as accurate (confidence 1) [768F07F4], AccurateRip returned [458A8A26]
Copy OK

Track 16

Filename D:\_EAC\Ahmad Jamal Trio - The Classic 1958-1962 Recordings (2013) [5CD] {Jazz Dynamics}\CD3\16 - We Kiss In The Shadow.wav

Peak level 77.5 %
Track quality 100.0 %
Test CRC 4CFED707
Copy CRC 4CFED707
Cannot be verified as accurate (confidence 1) [08FDEFC9], AccurateRip returned [AE5CDC77]
Copy OK

Track 17

Filename D:\_EAC\Ahmad Jamal Trio - The Classic 1958-1962 Recordings (2013) [5CD] {Jazz Dynamics}\CD3\17 - Sweet And Lovely.wav

Peak level 68.3 %
Track quality 100.0 %
Test CRC DE1C758A
Copy CRC DE1C758A
Cannot be verified as accurate (confidence 1) [68ADE151], AccurateRip returned [975B0B41]
Copy OK

Track 18

Filename D:\_EAC\Ahmad Jamal Trio - The Classic 1958-1962 Recordings (2013) [5CD] {Jazz Dynamics}\CD3\18 - The Party's Over.wav

Peak level 57.0 %
Track quality 100.0 %
Test CRC 994E457B
Copy CRC 994E457B
Cannot be verified as accurate (confidence 1) [8C102C4F], AccurateRip returned [4BA514FE]
Copy OK

Track 19

Filename D:\_EAC\Ahmad Jamal Trio - The Classic 1958-1962 Recordings (2013) [5CD] {Jazz Dynamics}\CD3\19 - Love For Sale.wav

Peak level 60.9 %
Track quality 100.0 %
Test CRC E1DCEFFC
Copy CRC E1DCEFFC
Cannot be verified as accurate (confidence 1) [53976B7B], AccurateRip returned [1F2B03FE]
Copy OK

Track 20

Filename D:\_EAC\Ahmad Jamal Trio - The Classic 1958-1962 Recordings (2013) [5CD] {Jazz Dynamics}\CD3\20 - Snow Fall.wav

Peak level 54.5 %
Track quality 99.9 %
Test CRC 1CFDED52
Copy CRC 1CFDED52
Cannot be verified as accurate (confidence 1) [E5C71289], AccurateRip returned [033E9511]
Copy OK


No tracks could be verified as accurate
You may have a different pressing from the one(s) in the database

No errors occurred

End of status report

Exact Audio Copy V0.99 prebeta 5 from 4. May 2009

EAC extraction logfile from 24. May 2014, 16:14

Ahmad Jamal Trio / The Classic 1958-1962 Recordings (CD4)

Used drive : PLEXTOR DVDR PX-L890SA Adapter: 6 ID: 0

Read mode : Secure
Utilize accurate stream : Yes
Defeat audio cache : Yes
Make use of C2 pointers : No

Read offset correction : 6
Overread into Lead-In and Lead-Out : No
Fill up missing offset samples with silence : Yes
Delete leading and trailing silent blocks : No
Null samples used in CRC calculations : Yes
Used interface : Native Win32 interface for Win NT & 2000
Gap handling : Appended to previous track

Used output format : User Defined Encoder
Selected bitrate : 1024 kBit/s
Quality : High
Add ID3 tag : No
Command line compressor : C:\Program Files (x86)\FLAC Frontend\tools\flac.exe
Additional command line options : -8 -V -T "ARTIST=%a" -T "TITLE=%t" -T "ALBUM=%g" -T "DATE=%y" -T "TRACKNUMBER=%n" -T "GENRE=%m" -T "COMMENT=EAC FLAC -8" %s


TOC of the extracted CD

Track | Start | Length | Start sector | End sector
––––––––––––––––––––––––––––-
1 | 0:00.00 | 7:41.57 | 0 | 34631
2 | 7:41.57 | 3:58.61 | 34632 | 52542
3 | 11:40.43 | 3:52.28 | 52543 | 69970
4 | 15:32.71 | 4:28.15 | 69971 | 90085
5 | 20:01.11 | 2:22.70 | 90086 | 100805
6 | 22:24.06 | 6:20.16 | 100806 | 129321
7 | 28:44.22 | 4:15.59 | 129322 | 148505
8 | 33:00.06 | 11:03.27 | 148506 | 198257
9 | 44:03.33 | 5:57.30 | 198258 | 225062
10 | 50:00.63 | 5:01.66 | 225063 | 247703
11 | 55:02.54 | 3:29.57 | 247704 | 263435
12 | 58:32.36 | 6:14.47 | 263436 | 291532
13 | 64:47.08 | 9:35.06 | 291533 | 334663
14 | 74:22.14 | 2:40.10 | 334664 | 346673


Track 1

Filename D:\_EAC\Ahmad Jamal Trio - The Classic 1958-1962 Recordings (2013) [5CD] {Jazz Dynamics}\CD4\01 - Broadway.wav

Pre-gap length 0:00:02.00

Peak level 63.8 %
Track quality 100.0 %
Test CRC 83CAAFBE
Copy CRC 83CAAFBE
Cannot be verified as accurate (confidence 2) [682B5841], AccurateRip returned [8A3BD83C]
Copy OK

Track 2

Filename D:\_EAC\Ahmad Jamal Trio - The Classic 1958-1962 Recordings (2013) [5CD] {Jazz Dynamics}\CD4\02 - Willow Weep For Me.wav

Peak level 100.0 %
Track quality 100.0 %
Test CRC 75429CE9
Copy CRC 75429CE9
Cannot be verified as accurate (confidence 2) [3A9D499F], AccurateRip returned [DE6C812D]
Copy OK

Track 3

Filename D:\_EAC\Ahmad Jamal Trio - The Classic 1958-1962 Recordings (2013) [5CD] {Jazz Dynamics}\CD4\03 - Autumn Leaves.wav

Peak level 91.1 %
Track quality 100.0 %
Test CRC 89C27E18
Copy CRC 89C27E18
Cannot be verified as accurate (confidence 2) [E3CBA30C], AccurateRip returned [150C0105]
Copy OK

Track 4

Filename D:\_EAC\Ahmad Jamal Trio - The Classic 1958-1962 Recordings (2013) [5CD] {Jazz Dynamics}\CD4\04 - Isn't It Romantic.wav

Peak level 87.8 %
Track quality 100.0 %
Test CRC 646F1088
Copy CRC 646F1088
Cannot be verified as accurate (confidence 2) [08EC7EA5], AccurateRip returned [B6DD496B]
Copy OK

Track 5

Filename D:\_EAC\Ahmad Jamal Trio - The Classic 1958-1962 Recordings (2013) [5CD] {Jazz Dynamics}\CD4\05 - The Breeze And I.wav

Peak level 48.8 %
Track quality 100.0 %
Test CRC C8C9AF20
Copy CRC C8C9AF20
Cannot be verified as accurate (confidence 2) [5FB9F83B], AccurateRip returned [EA551598]
Copy OK

Track 6

Filename D:\_EAC\Ahmad Jamal Trio - The Classic 1958-1962 Recordings (2013) [5CD] {Jazz Dynamics}\CD4\06 - Time On My Hands.wav

Peak level 100.0 %
Track quality 99.9 %
Test CRC 53EE07FD
Copy CRC 53EE07FD
Cannot be verified as accurate (confidence 2) [EF0D83FB], AccurateRip returned [F1FF2AC1]
Copy OK

Track 7

Filename D:\_EAC\Ahmad Jamal Trio - The Classic 1958-1962 Recordings (2013) [5CD] {Jazz Dynamics}\CD4\07 - Angel Eyes.wav

Peak level 99.8 %
Track quality 100.0 %
Test CRC 1C06088B
Copy CRC 1C06088B
Cannot be verified as accurate (confidence 2) [6D56E2A1], AccurateRip returned [7BDEF16E]
Copy OK

Track 8

Filename D:\_EAC\Ahmad Jamal Trio - The Classic 1958-1962 Recordings (2013) [5CD] {Jazz Dynamics}\CD4\08 - You Go To My Head.wav

Peak level 100.0 %
Track quality 100.0 %
Test CRC 269A8EC5
Copy CRC 269A8EC5
Cannot be verified as accurate (confidence 2) [F13690AC], AccurateRip returned [18A21810]
Copy OK

Track 9

Filename D:\_EAC\Ahmad Jamal Trio - The Classic 1958-1962 Recordings (2013) [5CD] {Jazz Dynamics}\CD4\09 - Star Eyes.wav

Peak level 94.7 %
Track quality 100.0 %
Test CRC 0E4AFCAA
Copy CRC 0E4AFCAA
Cannot be verified as accurate (confidence 2) [EAAB08E5], AccurateRip returned [D8B44145]
Copy OK

Track 10

Filename D:\_EAC\Ahmad Jamal Trio - The Classic 1958-1962 Recordings (2013) [5CD] {Jazz Dynamics}\CD4\10 - All Of You.wav

Peak level 100.0 %
Track quality 100.0 %
Test CRC C1A020AF
Copy CRC C1A020AF
Cannot be verified as accurate (confidence 2) [393146A2], AccurateRip returned [0AF7EC61]
Copy OK

Track 11

Filename D:\_EAC\Ahmad Jamal Trio - The Classic 1958-1962 Recordings (2013) [5CD] {Jazz Dynamics}\CD4\11 - You're Blase.wav

Peak level 94.5 %
Track quality 100.0 %
Test CRC 53E80086
Copy CRC 53E80086
Cannot be verified as accurate (confidence 2) [5B43C326], AccurateRip returned [54546321]
Copy OK

Track 12

Filename D:\_EAC\Ahmad Jamal Trio - The Classic 1958-1962 Recordings (2013) [5CD] {Jazz Dynamics}\CD4\12 - What Is This Thing Called Love .wav

Peak level 99.5 %
Track quality 100.0 %
Test CRC FD4FEE55
Copy CRC FD4FEE55
Cannot be verified as accurate (confidence 1) [A13A7336], AccurateRip returned [26643659]
Copy OK

Track 13

Filename D:\_EAC\Ahmad Jamal Trio - The Classic 1958-1962 Recordings (2013) [5CD] {Jazz Dynamics}\CD4\13 - Poinciana.wav

Peak level 100.0 %
Track quality 100.0 %
Test CRC 14823C94
Copy CRC 14823C94
Cannot be verified as accurate (confidence 1) [326DE337], AccurateRip returned [0EE6F5D7]
Copy OK

Track 14

Filename D:\_EAC\Ahmad Jamal Trio - The Classic 1958-1962 Recordings (2013) [5CD] {Jazz Dynamics}\CD4\14 - Autumn Leaves (1955 Studio Version).wav

Peak level 99.8 %
Track quality 100.0 %
Test CRC 673BEEFE
Copy CRC 673BEEFE
Cannot be verified as accurate (confidence 1) [D1185CD1], AccurateRip returned [08DB5CA0]
Copy OK


No tracks could be verified as accurate
You may have a different pressing from the one(s) in the database

No errors occurred

End of status report

Exact Audio Copy V0.99 prebeta 5 from 4. May 2009

EAC extraction logfile from 24. May 2014, 17:55

Ahmad Jamal Trio / The Classic 1958-1962 Recordings (CD5)

Used drive : PLEXTOR DVDR PX-L890SA Adapter: 6 ID: 0

Read mode : Secure
Utilize accurate stream : Yes
Defeat audio cache : Yes
Make use of C2 pointers : No

Read offset correction : 6
Overread into Lead-In and Lead-Out : No
Fill up missing offset samples with silence : Yes
Delete leading and trailing silent blocks : No
Null samples used in CRC calculations : Yes
Used interface : Native Win32 interface for Win NT & 2000
Gap handling : Appended to previous track

Used output format : User Defined Encoder
Selected bitrate : 1024 kBit/s
Quality : High
Add ID3 tag : No
Command line compressor : C:\Program Files (x86)\FLAC Frontend\tools\flac.exe
Additional command line options : -8 -V -T "ARTIST=%a" -T "TITLE=%t" -T "ALBUM=%g" -T "DATE=%y" -T "TRACKNUMBER=%n" -T "GENRE=%m" -T "COMMENT=EAC FLAC -8" %s


TOC of the extracted CD

Track | Start | Length | Start sector | End sector
––––––––––––––––––––––––––––-
1 | 0:00.00 | 6:12.27 | 0 | 27926
2 | 6:12.27 | 5:15.31 | 27927 | 51582
3 | 11:27.58 | 4:20.38 | 51583 | 71120
4 | 15:48.21 | 4:35.64 | 71121 | 91809
5 | 20:24.10 | 6:15.47 | 91810 | 119981
6 | 26:39.57 | 4:13.29 | 119982 | 138985
7 | 30:53.11 | 5:08.39 | 138986 | 162124
8 | 36:01.50 | 7:05.24 | 162125 | 194023
9 | 43:06.74 | 4:33.06 | 194024 | 214504
10 | 47:40.05 | 4:03.22 | 214505 | 232751
11 | 51:43.27 | 4:33.49 | 232752 | 253275
12 | 56:17.01 | 4:27.42 | 253276 | 273342
13 | 60:44.43 | 3:19.30 | 273343 | 288297
14 | 64:03.73 | 3:14.05 | 288298 | 302852
15 | 67:18.03 | 2:54.44 | 302853 | 315946
16 | 70:12.47 | 2:34.62 | 315947 | 327558
17 | 72:47.34 | 3:06.07 | 327559 | 341515
18 | 75:53.41 | 2:41.72 | 341516 | 353662


Track 1

Filename D:\_EAC\Ahmad Jamal Trio - The Classic 1958-1962 Recordings (2013) [5CD] {Jazz Dynamics}\CD5\01 - Medley- I'll Take Romance,My Funny Valentine.wav

Pre-gap length 0:00:02.00

Peak level 94.9 %
Track quality 100.0 %
Test CRC AC4E1637
Copy CRC AC4E1637
Cannot be verified as accurate (confidence 1) [EF26EE14], AccurateRip returned [ADA6FB6A]
Copy OK

Track 2

Filename D:\_EAC\Ahmad Jamal Trio - The Classic 1958-1962 Recordings (2013) [5CD] {Jazz Dynamics}\CD5\02 - Like Someone In Love.wav

Peak level 100.0 %
Track quality 100.0 %
Test CRC 6AD8147F
Copy CRC 6AD8147F
Cannot be verified as accurate (confidence 1) [20B929E2], AccurateRip returned [A768A0B9]
Copy OK

Track 3

Filename D:\_EAC\Ahmad Jamal Trio - The Classic 1958-1962 Recordings (2013) [5CD] {Jazz Dynamics}\CD5\03 - Falling In Love With Love.wav

Peak level 91.2 %
Track quality 100.0 %
Test CRC F345FEDA
Copy CRC F345FEDA
Cannot be verified as accurate (confidence 1) [B336EC7C], AccurateRip returned [AB595B9D]
Copy OK

Track 4

Filename D:\_EAC\Ahmad Jamal Trio - The Classic 1958-1962 Recordings (2013) [5CD] {Jazz Dynamics}\CD5\04 - The Best Thing For You.wav

Peak level 100.0 %
Track quality 100.0 %
Test CRC B7E4DE8D
Copy CRC B7E4DE8D
Cannot be verified as accurate (confidence 1) [C986C763], AccurateRip returned [AB4AC05A]
Copy OK

Track 5

Filename D:\_EAC\Ahmad Jamal Trio - The Classic 1958-1962 Recordings (2013) [5CD] {Jazz Dynamics}\CD5\05 - April In Paris.wav

Peak level 100.0 %
Track quality 100.0 %
Test CRC 568C2F8F
Copy CRC 568C2F8F
Cannot be verified as accurate (confidence 1) [2F1D9163], AccurateRip returned [5303FB88]
Copy OK

Track 6

Filename D:\_EAC\Ahmad Jamal Trio - The Classic 1958-1962 Recordings (2013) [5CD] {Jazz Dynamics}\CD5\06 - The Second Time Around.wav

Peak level 97.9 %
Track quality 100.0 %
Test CRC 8B793BA8
Copy CRC 8B793BA8
Cannot be verified as accurate (confidence 1) [F7A7CD3A], AccurateRip returned [A6CC216D]
Copy OK

Track 7

Filename D:\_EAC\Ahmad Jamal Trio - The Classic 1958-1962 Recordings (2013) [5CD] {Jazz Dynamics}\CD5\07 - We Live In Two Different Worlds.wav

Peak level 100.0 %
Track quality 100.0 %
Test CRC 1823425C
Copy CRC 1823425C
Cannot be verified as accurate (confidence 1) [59F2DBCF], AccurateRip returned [BD8665E9]
Copy OK

Track 8

Filename D:\_EAC\Ahmad Jamal Trio - The Classic 1958-1962 Recordings (2013) [5CD] {Jazz Dynamics}\CD5\08 - Night Mist Blues.wav

Peak level 100.0 %
Track quality 100.0 %
Test CRC 5625ECB3
Copy CRC 5625ECB3
Cannot be verified as accurate (confidence 1) [81E4346B], AccurateRip returned [62540F4D]
Copy OK

Track 9

Filename D:\_EAC\Ahmad Jamal Trio - The Classic 1958-1962 Recordings (2013) [5CD] {Jazz Dynamics}\CD5\09 - Darn That Dream.wav

Peak level 100.0 %
Track quality 100.0 %
Test CRC B13B9C74
Copy CRC B13B9C74
Cannot be verified as accurate (confidence 1) [1136A5A5], AccurateRip returned [7464E749]
Copy OK

Track 10

Filename D:\_EAC\Ahmad Jamal Trio - The Classic 1958-1962 Recordings (2013) [5CD] {Jazz Dynamics}\CD5\10 - On Green Dolphin Street.wav

Peak level 100.0 %
Track quality 100.0 %
Test CRC E1C8CB7D
Copy CRC E1C8CB7D
Cannot be verified as accurate (confidence 1) [0363BDD0], AccurateRip returned [3902795D]
Copy OK

Track 11

Filename D:\_EAC\Ahmad Jamal Trio - The Classic 1958-1962 Recordings (2013) [5CD] {Jazz Dynamics}\CD5\11 - Poinciana (1955 Studio Version).wav

Peak level 99.9 %
Track quality 100.0 %
Test CRC 4EE69AB2
Copy CRC 4EE69AB2
Cannot be verified as accurate (confidence 1) [CB045936], AccurateRip returned [D7F11A8A]
Copy OK

Track 12

Filename D:\_EAC\Ahmad Jamal Trio - The Classic 1958-1962 Recordings (2013) [5CD] {Jazz Dynamics}\CD5\12 - Pavanne (1955 Studio Version).wav

Peak level 95.5 %
Track quality 100.0 %
Test CRC C6F20D59
Copy CRC C6F20D59
Cannot be verified as accurate (confidence 1) [E0B87435], AccurateRip returned [C58F6693]
Copy OK

Track 13

Filename D:\_EAC\Ahmad Jamal Trio - The Classic 1958-1962 Recordings (2013) [5CD] {Jazz Dynamics}\CD5\13 - All Of You (1955 Studio Version).wav

Peak level 86.4 %
Track quality 100.0 %
Test CRC 151E457E
Copy CRC 151E457E
Cannot be verified as accurate (confidence 1) [B12E2080], AccurateRip returned [4B6E0B4A]
Copy OK

Track 14

Filename D:\_EAC\Ahmad Jamal Trio - The Classic 1958-1962 Recordings (2013) [5CD] {Jazz Dynamics}\CD5\14 - Darn That Dream (1955 Studio Version).wav

Peak level 84.9 %
Track quality 100.0 %
Test CRC 2D0D85FF
Copy CRC 2D0D85FF
Cannot be verified as accurate (confidence 1) [0969CE32], AccurateRip returned [4DB970D3]
Copy OK

Track 15

Filename D:\_EAC\Ahmad Jamal Trio - The Classic 1958-1962 Recordings (2013) [5CD] {Jazz Dynamics}\CD5\15 - Ahmad's Blues (1952 Studio Version).wav

Peak level 91.9 %
Track quality 100.0 %
Test CRC 85EE85DC
Copy CRC 85EE85DC
Cannot be verified as accurate (confidence 1) [9BED2347], AccurateRip returned [214AA080]
Copy OK

Track 16

Filename D:\_EAC\Ahmad Jamal Trio - The Classic 1958-1962 Recordings (2013) [5CD] {Jazz Dynamics}\CD5\16 - A Gal In Calico (1952 Studio Version).wav

Peak level 79.7 %
Track quality 100.0 %
Test CRC 179E292A
Copy CRC 179E292A
Cannot be verified as accurate (confidence 1) [E143C4F1], AccurateRip returned [E5D2DB0B]
Copy OK

Track 17

Filename D:\_EAC\Ahmad Jamal Trio - The Classic 1958-1962 Recordings (2013) [5CD] {Jazz Dynamics}\CD5\17 - Aki & Ukthay (Brother & Sister) (1952 Studio Version).wav

Peak level 72.2 %
Track quality 100.0 %
Test CRC 48999120
Copy CRC 48999120
Cannot be verified as accurate (confidence 1) [6EC7046B], AccurateRip returned [246887C6]
Copy OK

Track 18

Filename D:\_EAC\Ahmad Jamal Trio - The Classic 1958-1962 Recordings (2013) [5CD] {Jazz Dynamics}\CD5\18 - Billy Boy (1952 Studio Version).wav

Peak level 90.3 %
Track quality 100.0 %
Test CRC 6A156E90
Copy CRC 6A156E90
Cannot be verified as accurate (confidence 1) [60DBA40B], AccurateRip returned [A99398B8]
Copy OK


No tracks could be verified as accurate
You may have a different pressing from the one(s) in the database

No errors occurred

End of status report


Ahmad Jamal Trio - The Classic 1958-1962 Recordings (2013) {5CD Set Jazz Dynamics 24-bit Remaster}

Ahmad Jamal Trio - The Classic 1958-1962 Recordings (2013) {5CD Set Jazz Dynamics 24-bit Remaster}



===