Tags
Language
Tags

Alice Coltrane - Journey in Satchidananda (Japanese SHM-CD) (1971/2021)

Posted By: delpotro
Alice Coltrane - Journey in Satchidananda (Japanese SHM-CD) (1971/2021)

Alice Coltrane - Journey in Satchidananda (Japanese SHM-CD) (1971/2021)
XLD Rip | FLAC (tracks+log+.cue) - 221 Mb | MP3 CBR 320 kbps - 86 Mb | 00:37:28
Avant-Garde Jazz, Spiritual Jazz | Label: Impulse! Records

Journey in Satchidananda is the fourth solo album by Alice Coltrane. Its title (and title track) reflects Coltrane's inspiration by Swami Satchidananda whom Coltrane had become close to while being his disciple. "Shiva-Loka", or "realm of Shiva", refers to the realm of the third member of the Hindu trinity, the "dissolver of creation". "Stopover Bombay" refers to a five-week stay in India and Sri Lanka on which Coltrane was due to go in December 1970. "Something About John Coltrane" is based on themes by her late husband, John Coltrane. "Isis and Osiris", on which Charlie Haden replaces Cecil McBee on bass, and Vishnu Wood plays oud, indicates Coltrane's interest in Middle Eastern and North African music and culture. The presence of the tamboura, played by Tulsi, reflects Coltrane's interest in Indian classical music and religion.
Tracklist:
1. Journey In Satchidananda (06:33)
2. Shiva-Loka (06:33)
3. Stopover Bombay (02:50)
4. Something About John Coltrane (10:40)
5. Isis And Osiris (11:32)

X Lossless Decoder version 20210101 (153.1)

XLD extraction logfile from 2021-07-21 15:00:22 +0100

Alice Coltrane / Journey In Satchidananda

Used drive : HL-DT-ST DVDRW GS41N (revision UA04)
Media type : Pressed CD

Ripper mode : XLD Secure Ripper
Disable audio cache : OK for the drive with a cache less than 1375KiB
Make use of C2 pointers : NO
Read offset correction : 6
Max retry count : 100
Gap status : Analyzed, Appended (except HTOA)

TOC of the extracted CD
Track | Start | Length | Start sector | End sector
––––––––––––––––––––––––––––-
1 | 00:00:00 | 06:41:02 | 0 | 30076
2 | 06:41:02 | 06:38:00 | 30077 | 59926
3 | 13:19:02 | 02:54:65 | 59927 | 73041
4 | 16:13:67 | 09:45:28 | 73042 | 116944
5 | 25:59:20 | 11:29:40 | 116945 | 168659

List of alternate offset correction values
# | Absolute | Relative | Confidence
–––––––––––––––––––––
1 | 24 | 18 | 3

AccurateRip Summary (DiscID: 0006d88b-00207b95-3408c805)
Track 01 : OK (v2, confidence 3/3, with different offset)
Track 02 : OK (v2, confidence 3/3, with different offset)
Track 03 : OK (v2, confidence 3/3, with different offset)
Track 04 : OK (v2, confidence 3/3, with different offset)
Track 05 : OK (v2, confidence 3/3, with different offset)
->All tracks accurately ripped.

All Tracks
Album gain : -0.37 dB
Peak : 0.684875
Statistics
Read error : 0
Jitter error (maybe fixed) : 0
Retry sector count : 2
Damaged sector count : 0

Track 01
Filename : /Users/Joanna/Desktop/Rips/Alice Coltrane - Journey in Satchidananda (1970)/01 Alice Coltrane - Journey In Satchidananda.flac
Pre-gap length : 00:02:00

Track gain : -0.12 dB
Peak : 0.619873
CRC32 hash (test run) : A6173D68
CRC32 hash : A6173D68
CRC32 hash (skip zero) : 4978445B
AccurateRip v1 signature : 4E6FC98A
AccurateRip v2 signature : 15A3DC0E (0E55A5A4 w/correction)
->Accurately ripped with different offset (v2, confidence 3/3, offset +18)
Statistics
Read error : 0
Jitter error (maybe fixed) : 0
Retry sector count : 0
Damaged sector count : 0

Track 02
Filename : /Users/Joanna/Desktop/Rips/Alice Coltrane - Journey in Satchidananda (1970)/02 Alice Coltrane - Shiva-Loka.flac
Pre-gap length : 00:04:61

Track gain : -1.67 dB
Peak : 0.614746
CRC32 hash (test run) : 03D1D4DF
CRC32 hash : 03D1D4DF
CRC32 hash (skip zero) : 58E80988
AccurateRip v1 signature : 0C9DC02E
AccurateRip v2 signature : 66EE9BFF (0E220CD4 w/correction)
->Accurately ripped with different offset (v2, confidence 3/3, offset +18)
Statistics
Read error : 0
Jitter error (maybe fixed) : 0
Retry sector count : 2
Damaged sector count : 0

Track 03
Filename : /Users/Joanna/Desktop/Rips/Alice Coltrane - Journey in Satchidananda (1970)/03 Alice Coltrane - Stopover Bombay.flac
Pre-gap length : 00:04:61

Track gain : -0.86 dB
Peak : 0.580963
CRC32 hash (test run) : 6294CF67
CRC32 hash : 6294CF67
CRC32 hash (skip zero) : 60A486F9
AccurateRip v1 signature : 03D538CB
AccurateRip v2 signature : 05138433 (DE890460 w/correction)
->Accurately ripped with different offset (v2, confidence 3/3, offset +18)
Statistics
Read error : 0
Jitter error (maybe fixed) : 0
Retry sector count : 0
Damaged sector count : 0

Track 04
Filename : /Users/Joanna/Desktop/Rips/Alice Coltrane - Journey in Satchidananda (1970)/04 Alice Coltrane - Something About John Coltrane.flac
Pre-gap length : 00:04:61

Track gain : 0.18 dB
Peak : 0.671448
CRC32 hash (test run) : 668B1673
CRC32 hash : 668B1673
CRC32 hash (skip zero) : B5433E75
AccurateRip v1 signature : 52EE56A5
AccurateRip v2 signature : FEDCD84A (F010585A w/correction)
->Accurately ripped with different offset (v2, confidence 3/3, offset +18)
Statistics
Read error : 0
Jitter error (maybe fixed) : 0
Retry sector count : 0
Damaged sector count : 0

Track 05
Filename : /Users/Joanna/Desktop/Rips/Alice Coltrane - Journey in Satchidananda (1970)/05 Alice Coltrane - Isis And Osiris.flac
Pre-gap length : 00:04:47

Track gain : 0.13 dB
Peak : 0.684875
CRC32 hash (test run) : 34740F16
CRC32 hash : 34740F16
CRC32 hash (skip zero) : E7A78491
AccurateRip v1 signature : 24000794
AccurateRip v2 signature : 5442BF8D (F74D254A w/correction)
->Accurately ripped with different offset (v2, confidence 3/3, offset +18)
Statistics
Read error : 0
Jitter error (maybe fixed) : 0
Retry sector count : 0
Damaged sector count : 0

No errors occurred

End of status report

––-BEGIN XLD SIGNATURE––-
6c_wUW8X9mpKUmM2SK2REIHoamhU__GJVVil_WNahyxdgJebrYnoTvg2cLo61lU_dpGqDOX7TjSsC3CwbUZPBkUKWCLyoS9wFZDrSB0
––-END XLD SIGNATURE––-

Thanks to the Original ripper !