Tags
Language
Tags

Allen Ravenstine - Waiting for the Bomb (2018)

Posted By: delpotro
Allen Ravenstine - Waiting for the Bomb (2018)

Allen Ravenstine - Waiting for the Bomb (2018)
XLD Rip | FLAC (tracks+log+.cue) - 323 Mb | MP3 CBR 320 kbps - 154 Mb | 01:06:54
Experimental, Chamber Jazz, Electronic | Label: ReR Megacorp

"Eccentricity in music is tricky in that it's difficult to embrace it in moderation. There's risk of having it come off as either overly (and gratingly) deliberate, or teetering over the precipice into full-blown novelty. Pere Ubu co-founder Allen Ravenstine's Waiting For The Bomb is one of these rare exceptions where peculiarity, nuance and genuine warmth align in such a way that it's perched right on that edge and all the more evocative because of it. One of the album's most striking and disorienting attributes is its wide and volatile sound palette. Structured episodically, its eighteen vignettes jump between discrete sonic worlds. Dense clusters of raw sci-fi synth noise sit up against soundtracky miniatures while elsewhere, placid ambience emerges from stiff computer funk. Yet as one surrenders to the strange lurching quality of the journey, the uneasiness it produces somehow becomes grounding. Given Ravenstine's post-punk pedigree, it's unsurprising that this defiant sense of malaise and contradiction isn't just a byproduct of his playful genre tourism. It's actually a key unifying element that even lurks on the periphery of the album's most serene or seemingly innocuous moments. You can hear it in the way that the plasticky squareness of his sample-library orchestrations chafe against live brass and percussion on 'Spirits'. The prickly synthesizer on 'Venus Calling' creeps like toxic fumes through a genteel jazz arrangement. On 'Insomnia' Joe Sorbara's rapid drum kit scatterings punctuate a lugubrious throbbing bed of sound, yet as the ersatz fanfares begin to protrude you're not quite sure whether to be terrified or to laugh–or do both. The record's accompanying notes mention Ravenstine's childhood, steeped in second-hand Cold War paranoia. Waiting for the Bomb seems to embody that tension perfectly – a young, unbridled imagination haunted by both the grave threat, and perverse futuristic allure of total annihilation. (Nick Storring)"
Tracklist:
01. Sentimental Duet (01:36)
02. Waiting for the Bomb (03:05)
03. The Ladies in the Garden (03:42)
04. Bombay Tar (03:21)
05. If Only There Was More Time (03:16)
06. In the Ether (03:29)
07. Tin Wallah (03:21)
08. Day Shift (03:15)
09. The 537 to White Plains (03:39)
10. Save Our Ship (04:25)
11. Out Late (09:43)
12. Waiting (01:44)
13. Spirits (04:24)
14. Insomnia (03:13)
15. Bump in the Night (03:33)
16. Shoot This Dog (04:18)
17. Venus Calling (03:01)
18. Short Wave (04:00)

X Lossless Decoder version 20170729 (150.3)

XLD extraction logfile from 2018-10-17 16:35:55 +0100

Allen Ravenstine / Waiting For The Bomb

Used drive : MATSHITA DVD-R UJ-8A8 (revision HA13)
Media type : Pressed CD

Ripper mode : XLD Secure Ripper
Disable audio cache : OK for the drive with a cache less than 1375KiB
Make use of C2 pointers : NO
Read offset correction : 102
Max retry count : 50
Gap status : Analyzed, Appended

TOC of the extracted CD
Track | Start | Length | Start sector | End sector
––––––––––––––––––––––––––––-
1 | 00:00:00 | 01:35:63 | 0 | 7187
2 | 01:35:63 | 03:04:45 | 7188 | 21032
3 | 04:40:33 | 03:41:02 | 21033 | 37609
4 | 08:21:35 | 03:20:35 | 37610 | 52644
5 | 11:41:70 | 03:15:01 | 52645 | 67270
6 | 14:56:71 | 03:28:22 | 67271 | 82892
7 | 18:25:18 | 03:20:02 | 82893 | 97894
8 | 21:45:20 | 03:14:30 | 97895 | 112474
9 | 24:59:50 | 03:38:10 | 112475 | 128834
10 | 28:37:60 | 04:24:01 | 128835 | 148635
11 | 33:01:61 | 09:42:51 | 148636 | 192336
12 | 42:44:37 | 01:43:10 | 192337 | 200071
13 | 44:27:47 | 04:23:10 | 200072 | 219806
14 | 48:50:57 | 03:12:17 | 219807 | 234223
15 | 52:02:74 | 03:32:71 | 234224 | 250194
16 | 55:35:70 | 04:17:60 | 250195 | 269529
17 | 59:53:55 | 03:00:64 | 269530 | 283093
18 | 62:54:44 | 03:59:62 | 283094 | 301080

AccurateRip Summary
Disc not found in AccurateRip DB.

All Tracks
Album gain : -0.92 dB
Peak : 0.936249
Statistics
Read error : 0
Jitter error (maybe fixed) : 0
Retry sector count : 0
Damaged sector count : 0

Track 01
Filename : /Users/edwardsharp/Downloads/Allen Ravenstine - Waiting For The Bomb (2018)/01 - Sentimental Duet.flac
Pre-gap length : 00:02:00

Track gain : -2.34 dB
Peak : 0.658295
CRC32 hash (test run) : 09CFC745
CRC32 hash : 09CFC745
CRC32 hash (skip zero) : 3FF9CE18
AccurateRip v1 signature : BE438A29
AccurateRip v2 signature : E41F9353
->Track not present in AccurateRip database.
Statistics
Read error : 0
Jitter error (maybe fixed) : 0
Retry sector count : 0
Damaged sector count : 0

Track 02
Filename : /Users/edwardsharp/Downloads/Allen Ravenstine - Waiting For The Bomb (2018)/02 - Waiting For The Bomb.flac
Pre-gap length : 00:03:00

Track gain : 1.44 dB
Peak : 0.769135
CRC32 hash (test run) : 737F44AD
CRC32 hash : 737F44AD
CRC32 hash (skip zero) : 4CA2D425
AccurateRip v1 signature : 12F8C175
AccurateRip v2 signature : 1E2729DD
->Track not present in AccurateRip database.
Statistics
Read error : 0
Jitter error (maybe fixed) : 0
Retry sector count : 0
Damaged sector count : 0

Track 03
Filename : /Users/edwardsharp/Downloads/Allen Ravenstine - Waiting For The Bomb (2018)/03 - The Ladies In The Garden.flac
Pre-gap length : 00:03:00

Track gain : -1.05 dB
Peak : 0.885437
CRC32 hash (test run) : 309EE7C7
CRC32 hash : 309EE7C7
CRC32 hash (skip zero) : E510BAF3
AccurateRip v1 signature : 9E8041B9
AccurateRip v2 signature : 69740EC9
->Track not present in AccurateRip database.
Statistics
Read error : 0
Jitter error (maybe fixed) : 0
Retry sector count : 0
Damaged sector count : 0

Track 04
Filename : /Users/edwardsharp/Downloads/Allen Ravenstine - Waiting For The Bomb (2018)/04 - Bombay Tar.flac
Pre-gap length : 00:02:00

Track gain : 2.82 dB
Peak : 0.936249
CRC32 hash (test run) : 86B583CC
CRC32 hash : 86B583CC
CRC32 hash (skip zero) : 6841028D
AccurateRip v1 signature : 69EC1E14
AccurateRip v2 signature : 2CCF2263
->Track not present in AccurateRip database.
Statistics
Read error : 0
Jitter error (maybe fixed) : 0
Retry sector count : 0
Damaged sector count : 0

Track 05
Filename : /Users/edwardsharp/Downloads/Allen Ravenstine - Waiting For The Bomb (2018)/05 - If Only There Was More Time.flac
Pre-gap length : 00:03:00

Track gain : -1.91 dB
Peak : 0.721985
CRC32 hash (test run) : CBC2DD13
CRC32 hash : CBC2DD13
CRC32 hash (skip zero) : EA350779
AccurateRip v1 signature : 6EE44DD0
AccurateRip v2 signature : 49CB4C5E
->Track not present in AccurateRip database.
Statistics
Read error : 0
Jitter error (maybe fixed) : 0
Retry sector count : 0
Damaged sector count : 0

Track 06
Filename : /Users/edwardsharp/Downloads/Allen Ravenstine - Waiting For The Bomb (2018)/06 - In The Ether.flac
Pre-gap length : 00:03:00

Track gain : -1.34 dB
Peak : 0.745605
CRC32 hash (test run) : 4549BCC0
CRC32 hash : 4549BCC0
CRC32 hash (skip zero) : CB181E47
AccurateRip v1 signature : 13D29131
AccurateRip v2 signature : AC96A15A
->Track not present in AccurateRip database.
Statistics
Read error : 0
Jitter error (maybe fixed) : 0
Retry sector count : 0
Damaged sector count : 0

Track 07
Filename : /Users/edwardsharp/Downloads/Allen Ravenstine - Waiting For The Bomb (2018)/07 - Tin Wallah.flac
Pre-gap length : 00:03:00

Track gain : -0.34 dB
Peak : 0.856079
CRC32 hash (test run) : 1E82B333
CRC32 hash : 1E82B333
CRC32 hash (skip zero) : FE0A3999
AccurateRip v1 signature : 81D277DF
AccurateRip v2 signature : 708A6523
->Track not present in AccurateRip database.
Statistics
Read error : 0
Jitter error (maybe fixed) : 0
Retry sector count : 0
Damaged sector count : 0

Track 08
Filename : /Users/edwardsharp/Downloads/Allen Ravenstine - Waiting For The Bomb (2018)/08 - Day Shift.flac
Pre-gap length : 00:03:00

Track gain : -3.78 dB
Peak : 0.735626
CRC32 hash (test run) : 2C1BE58D
CRC32 hash : 2C1BE58D
CRC32 hash (skip zero) : 674681BA
AccurateRip v1 signature : 38AAF739
AccurateRip v2 signature : 3DDC7748
->Track not present in AccurateRip database.
Statistics
Read error : 0
Jitter error (maybe fixed) : 0
Retry sector count : 0
Damaged sector count : 0

Track 09
Filename : /Users/edwardsharp/Downloads/Allen Ravenstine - Waiting For The Bomb (2018)/09 - The 537 To White Plains.flac
Pre-gap length : 00:03:00

Track gain : 0.78 dB
Peak : 0.646088
CRC32 hash (test run) : CA28ADD5
CRC32 hash : CA28ADD5
CRC32 hash (skip zero) : 5F1791F6
AccurateRip v1 signature : C7D8C5BF
AccurateRip v2 signature : 5812B2D2
->Track not present in AccurateRip database.
Statistics
Read error : 0
Jitter error (maybe fixed) : 0
Retry sector count : 0
Damaged sector count : 0

Track 10
Filename : /Users/edwardsharp/Downloads/Allen Ravenstine - Waiting For The Bomb (2018)/10 - Save Our Ship.flac
Pre-gap length : 00:03:00

Track gain : -1.82 dB
Peak : 0.851166
CRC32 hash (test run) : 6E67A796
CRC32 hash : 6E67A796
CRC32 hash (skip zero) : 73ACF30A
AccurateRip v1 signature : A1D96933
AccurateRip v2 signature : 6B817391
->Track not present in AccurateRip database.
Statistics
Read error : 0
Jitter error (maybe fixed) : 0
Retry sector count : 0
Damaged sector count : 0

Track 11
Filename : /Users/edwardsharp/Downloads/Allen Ravenstine - Waiting For The Bomb (2018)/11 - Out Late.flac
Pre-gap length : 00:03:00

Track gain : 1.17 dB
Peak : 0.926819
CRC32 hash (test run) : 6F1375F6
CRC32 hash : 6F1375F6
CRC32 hash (skip zero) : 112C689D
AccurateRip v1 signature : 19E1D527
AccurateRip v2 signature : C1D760B5
->Track not present in AccurateRip database.
Statistics
Read error : 0
Jitter error (maybe fixed) : 0
Retry sector count : 0
Damaged sector count : 0

Track 12
Filename : /Users/edwardsharp/Downloads/Allen Ravenstine - Waiting For The Bomb (2018)/12 - Waiting.flac
Pre-gap length : 00:03:00

Track gain : -1.48 dB
Peak : 0.844604
CRC32 hash (test run) : E62A3CA8
CRC32 hash : E62A3CA8
CRC32 hash (skip zero) : 6CAAC05E
AccurateRip v1 signature : 3A8BAD2A
AccurateRip v2 signature : 0D9DD308
->Track not present in AccurateRip database.
Statistics
Read error : 0
Jitter error (maybe fixed) : 0
Retry sector count : 0
Damaged sector count : 0

Track 13
Filename : /Users/edwardsharp/Downloads/Allen Ravenstine - Waiting For The Bomb (2018)/13 - Spirits.flac
Pre-gap length : 00:03:00

Track gain : 3.80 dB
Peak : 0.703888
CRC32 hash (test run) : 536DC18E
CRC32 hash : 536DC18E
CRC32 hash (skip zero) : C75D3856
AccurateRip v1 signature : 41D22A04
AccurateRip v2 signature : 74DC1845
->Track not present in AccurateRip database.
Statistics
Read error : 0
Jitter error (maybe fixed) : 0
Retry sector count : 0
Damaged sector count : 0

Track 14
Filename : /Users/edwardsharp/Downloads/Allen Ravenstine - Waiting For The Bomb (2018)/14 - Insomnia.flac
Pre-gap length : 00:03:00

Track gain : 1.73 dB
Peak : 0.807251
CRC32 hash (test run) : 23B1962C
CRC32 hash : 23B1962C
CRC32 hash (skip zero) : 31F41607
AccurateRip v1 signature : AB2E85E9
AccurateRip v2 signature : F4AE7197
->Track not present in AccurateRip database.
Statistics
Read error : 0
Jitter error (maybe fixed) : 0
Retry sector count : 0
Damaged sector count : 0

Track 15
Filename : /Users/edwardsharp/Downloads/Allen Ravenstine - Waiting For The Bomb (2018)/15 - Bump In The Night.flac
Pre-gap length : 00:03:00

Track gain : 3.37 dB
Peak : 0.837799
CRC32 hash (test run) : 88C332A1
CRC32 hash : 88C332A1
CRC32 hash (skip zero) : 1B81E201
AccurateRip v1 signature : 30B4AB13
AccurateRip v2 signature : 01CCEBDD
->Track not present in AccurateRip database.
Statistics
Read error : 0
Jitter error (maybe fixed) : 0
Retry sector count : 0
Damaged sector count : 0

Track 16
Filename : /Users/edwardsharp/Downloads/Allen Ravenstine - Waiting For The Bomb (2018)/16 - Shoot This Dog.flac
Pre-gap length : 00:03:00

Track gain : -0.29 dB
Peak : 0.623566
CRC32 hash (test run) : 7DBE79C3
CRC32 hash : 7DBE79C3
CRC32 hash (skip zero) : AD5D624A
AccurateRip v1 signature : E6980B97
AccurateRip v2 signature : B53D0515
->Track not present in AccurateRip database.
Statistics
Read error : 0
Jitter error (maybe fixed) : 0
Retry sector count : 0
Damaged sector count : 0

Track 17
Filename : /Users/edwardsharp/Downloads/Allen Ravenstine - Waiting For The Bomb (2018)/17 - Venus Calling.flac
Pre-gap length : 00:03:00

Track gain : -2.15 dB
Peak : 0.685089
CRC32 hash (test run) : 5D026215
CRC32 hash : 5D026215
CRC32 hash (skip zero) : 5A0C15F6
AccurateRip v1 signature : DDD7B63B
AccurateRip v2 signature : C29BC6F6
->Track not present in AccurateRip database.
Statistics
Read error : 0
Jitter error (maybe fixed) : 0
Retry sector count : 0
Damaged sector count : 0

Track 18
Filename : /Users/edwardsharp/Downloads/Allen Ravenstine - Waiting For The Bomb (2018)/18 - Short Wave.flac
Pre-gap length : 00:03:00

Track gain : 3.39 dB
Peak : 0.592896
CRC32 hash (test run) : ECAD6403
CRC32 hash : ECAD6403
CRC32 hash (skip zero) : D13ACB67
AccurateRip v1 signature : 1F08CE1C
AccurateRip v2 signature : B8B2B959
->Track not present in AccurateRip database.
Statistics
Read error : 0
Jitter error (maybe fixed) : 0
Retry sector count : 0
Damaged sector count : 0

No errors occurred

End of status report

––-BEGIN XLD SIGNATURE––-
tjjtGUwRvKXVI2HiexOxFLL_skj7EnJj5dLYnEbEXvgdF8Nw5e0HQB1FOSY.0_vi3BKsBmsJdKA31tUGgQb2l3IF5Hin6oOvT9gPPoi
––-END XLD SIGNATURE––-

Thanks to the Original ripper Vldmar74 !