Tags
Language
Tags
June 2024
Su Mo Tu We Th Fr Sa
26 27 28 29 30 31 1
2 3 4 5 6 7 8
9 10 11 12 13 14 15
16 17 18 19 20 21 22
23 24 25 26 27 28 29
30 1 2 3 4 5 6

Alternative Guitar Summit - Honoring Pat Martino, Vol. 1 (2022)

Posted By: delpotro
Alternative Guitar Summit - Honoring Pat Martino, Vol. 1 (2022)

Alternative Guitar Summit - Honoring Pat Martino, Vol. 1 (2022)
EAC Rip | FLAC (tracks+log+.cue) - 330 Mb | MP3 CBR 320 kbps - 136 Mb | 00:59:08
Jazz, Post-Bop, Fusion | Label: HighNote Records

There are a mere handful of guitarists that have changed the way we think about the guitar over the past five or six decades. Pat Martino is perhaps one of the greatest and best-known of those icons. The term “genius” is overused today, but Pat Martino was definitely one. His life story was the very definition of the word. Before Martino's passing in November, 2021, the Alternative Guitar Summit honored him and his enormous contribution to jazz in this set of studio recordings by 14 jazz guitarists playing selections from his imaginative and varied catalog of compositions. Producer Joel Harrison is thrilled to have brought together this crew of great musicians to show their love for him while HighNote Records is proud to present this first volume of their recordings.
Tracklist:
1. Inside Out (feat. Adam Rogers & Peter Bernstein) (06:42)
2. Black Glass (feat. Kurt Rosenwinkel) (04:13)
3. Line Games (feat. Fareed Haque) (06:35)
4. Willow (feat. Sheryl Bailey & Ed Cherry) (06:59)
5. Noshufuru (feat. Rez Abbasi & Jeff Miles) (07:19)
6. Lament (feat. Russell Malone) (05:30)
7. On the Stairs (feat. Dave Stryker & Paul Bollenback) (06:35)
8. Joyous Lake (feat. Nir Felder & Oz Noy) (09:22)
9. Country Road (feat. Joel Harrison) (05:49)

Exact Audio Copy V1.6 from 23. October 2020

EAC extraction logfile from 31. May 2022, 16:11

Alternative Guitar Summit / Honoring Pat Martino Vol. 1

Used drive : ASUS BW-16D1X-U Adapter: 1 ID: 1

Read mode : Secure
Utilize accurate stream : Yes
Defeat audio cache : Yes
Make use of C2 pointers : No

Read offset correction : 6
Overread into Lead-In and Lead-Out : No
Fill up missing offset samples with silence : Yes
Delete leading and trailing silent blocks : No
Null samples used in CRC calculations : Yes
Used interface : Native Win32 interface for Win NT & 2000
Gap handling : Appended to previous track

Used output format : User Defined Encoder
Selected bitrate : 1024 kBit/s
Quality : High
Add ID3 tag : No
Command line compressor : C:\\Program Files (x86)\Exact Audio Copy\Flac/Flac.exe
Additional command line options : -8 -V -T "ARTIST=%artist%" -T "TITLE=%title%" -T "ALBUM=%albumtitle%" -T "DATE=%year%" -T "TRACKNUMBER=%tracknr%" -T "GENRE=%genre%" -T "PERFORMER=%albuminterpret%" -T "COMPOSER=%composer%" %haslyrics%–tag-from-file=LYRICS="%lyricsfile%"%haslyrics% -T "ALBUMARTIST=%albumartist%" -T "DISCNUMBER=%cdnumber%" -T "TOTALDISCS=%totalcds%" -T "TOTALTRACKS=%numtracks%" -T "COMMENT=%comment%" %source% -o %dest%


TOC of the extracted CD

Track | Start | Length | Start sector | End sector
––––––––––––––––––––––––––––-
1 | 0:00.00 | 6:42.64 | 0 | 30213
2 | 6:42.64 | 4:13.12 | 30214 | 49200
3 | 10:56.01 | 6:35.42 | 49201 | 78867
4 | 17:31.43 | 6:59.62 | 78868 | 110354
5 | 24:31.30 | 7:19.18 | 110355 | 143297
6 | 31:50.48 | 5:30.19 | 143298 | 168066
7 | 37:20.67 | 6:35.29 | 168067 | 197720
8 | 43:56.21 | 9:22.27 | 197721 | 239897
9 | 53:18.48 | 5:49.27 | 239898 | 266099


Track 1

Filename Z:\home\albicant\Music\compact_disc\music\Alternative Guitar Summit - Honoring Pat Martino Vol. 1 (2022) [CD FLAC]\01 - Inside Out.wav

Pre-gap length 0:00:02.00

Peak level 96.7 %
Extraction speed 4.7 X
Track quality 100.0 %
Test CRC F7F8B9F8
Copy CRC F7F8B9F8
Track not present in AccurateRip database
Copy OK

Track 2

Filename Z:\home\albicant\Music\compact_disc\music\Alternative Guitar Summit - Honoring Pat Martino Vol. 1 (2022) [CD FLAC]\02 - Black Glass.wav

Peak level 95.5 %
Extraction speed 5.1 X
Track quality 100.0 %
Test CRC 3C874FCE
Copy CRC 3C874FCE
Track not present in AccurateRip database
Copy OK

Track 3

Filename Z:\home\albicant\Music\compact_disc\music\Alternative Guitar Summit - Honoring Pat Martino Vol. 1 (2022) [CD FLAC]\03 - Line Games.wav

Peak level 96.2 %
Extraction speed 6.0 X
Track quality 100.0 %
Test CRC E10994A7
Copy CRC E10994A7
Track not present in AccurateRip database
Copy OK

Track 4

Filename Z:\home\albicant\Music\compact_disc\music\Alternative Guitar Summit - Honoring Pat Martino Vol. 1 (2022) [CD FLAC]\04 - Willow.wav

Peak level 96.2 %
Extraction speed 6.7 X
Track quality 100.0 %
Test CRC 128E3DDA
Copy CRC 128E3DDA
Track not present in AccurateRip database
Copy OK

Track 5

Filename Z:\home\albicant\Music\compact_disc\music\Alternative Guitar Summit - Honoring Pat Martino Vol. 1 (2022) [CD FLAC]\05 - Noshufuru.wav

Peak level 96.0 %
Extraction speed 6.5 X
Track quality 99.9 %
Test CRC D05FC929
Copy CRC D05FC929
Track not present in AccurateRip database
Copy OK

Track 6

Filename Z:\home\albicant\Music\compact_disc\music\Alternative Guitar Summit - Honoring Pat Martino Vol. 1 (2022) [CD FLAC]\06 - Lament.wav

Peak level 95.5 %
Extraction speed 7.5 X
Track quality 100.0 %
Test CRC 8F363E16
Copy CRC 8F363E16
Track not present in AccurateRip database
Copy OK

Track 7

Filename Z:\home\albicant\Music\compact_disc\music\Alternative Guitar Summit - Honoring Pat Martino Vol. 1 (2022) [CD FLAC]\07 - On the Stairs.wav

Peak level 96.7 %
Extraction speed 6.8 X
Track quality 99.9 %
Test CRC 9F0DD6AF
Copy CRC 9F0DD6AF
Track not present in AccurateRip database
Copy OK

Track 8

Filename Z:\home\albicant\Music\compact_disc\music\Alternative Guitar Summit - Honoring Pat Martino Vol. 1 (2022) [CD FLAC]\08 - Joyous Lake.wav

Peak level 95.5 %
Extraction speed 8.8 X
Track quality 100.0 %
Test CRC 30ECC191
Copy CRC 30ECC191
Track not present in AccurateRip database
Copy OK

Track 9

Filename Z:\home\albicant\Music\compact_disc\music\Alternative Guitar Summit - Honoring Pat Martino Vol. 1 (2022) [CD FLAC]\09 - Country Road.wav

Peak level 95.5 %
Extraction speed 9.0 X
Track quality 100.0 %
Test CRC DC0C4249
Copy CRC DC0C4249
Track not present in AccurateRip database
Copy OK


None of the tracks are present in the AccurateRip database

No errors occurred

End of status report

–– CUETools DB Plugin V2.1.6

[CTDB TOCID: uSVMaAhQ3c3wvIoDR02GtEx6vas-] found
Submit result: uSVMaAhQ3c3wvIoDR02GtEx6vas- has been confirmed
Track | CTDB Status
1 | (1/1) Accurately ripped
2 | (1/1) Accurately ripped
3 | (1/1) Accurately ripped
4 | (1/1) Accurately ripped
5 | (1/1) Accurately ripped
6 | (1/1) Accurately ripped
7 | (1/1) Accurately ripped
8 | (1/1) Accurately ripped
9 | (1/1) Accurately ripped


==== Log checksum 4567AAAA22548B7722A17E9A542DAE67831A0FB9204B04CA410EB9F178F6371C ====

Thanks to the Original ripper !