Subcategories
Tags
Language
Tags

Animal Collective - Tangerine Reef (2018)

Posted By: delpotro
Animal Collective - Tangerine Reef (2018)

Animal Collective - Tangerine Reef (2018)
EAC Rip | FLAC (tracks+log+.cue) - 290 Mb | MP3 CBR 320 kbps - 143 Mb | 00:52:50
Indie, Electronic, Psychedelic | Label: Domino Records

Tangerine Reef is a full-length audiovisual album by Animal Collective (Avey Tare, Deakin and Geologist), in collaboration with Coral Morphologic, to commemorate the 2018 International Year of the Reef. Tangerine Reef is a visual tone poem consisting of time-lapse and slow pans across surreal aquascapes of naturally fluorescent coral and cameos by alien-like reef creatures (note: no CGI or artificial enhancement was used in this film). Tangerine Reef is the sight and sound of a literal underwater collective of animals.

In 2017, the Borscht Film Festival commissioned Coral Orgy, a collaborative site-specific performance by Animal Collective and Coral Morphologic ‘celebrating the cosmic synchronicity of sex on the reef’ in the Frank Gehry-designed New World Center on Miami Beach. The success of this performance ultimately led to this studio recording of Tangerine Reef and a subsequent performance at David Lynch’s Festival of Disruption earlier this spring at Brooklyn Steel in Brooklyn, NY.
Tracklist:
1. Hair Cutter (04:01)
2. Buffalo Tomato (04:49)
3. Inspector Gadget (04:19)
4. Buxom (04:40)
5. Coral Understanding (03:44)
6. Airpipe (To a New Transition) (06:03)
7. Jake and Me (04:25)
8. Coral by Numbers (02:26)
9. Hip Sponge (03:53)
10. Coral Realization (03:00)
11. Lundsten Coral (03:05)
12. Palythoa (04:11)
13. Best of Times (Worst of All) (04:09)

Exact Audio Copy V1.3 from 2. September 2016

EAC extraction logfile from 16. August 2018, 15:23

Animal Collective / Tangerine Reef

Used drive : ASUS DRW-24F1ST c Adapter: 1 ID: 0

Read mode : Secure
Utilize accurate stream : Yes
Defeat audio cache : Yes
Make use of C2 pointers : No

Read offset correction : 6
Overread into Lead-In and Lead-Out : No
Fill up missing offset samples with silence : Yes
Delete leading and trailing silent blocks : No
Null samples used in CRC calculations : Yes
Used interface : Native Win32 interface for Win NT & 2000
Gap handling : Appended to previous track

Used output format : User Defined Encoder
Selected bitrate : 1024 kBit/s
Quality : High
Add ID3 tag : No
Command line compressor : C:\Program Files (x86)\Exact Audio Copy\Flac\flac.exe
Additional command line options : -8 -e -p -V -T "ARTIST=%artist%" -T "TITLE=%title%" -T "ALBUM=%albumtitle%" -T "DATE=%year%" -T "TRACKNUMBER=%tracknr%" -T "GENRE=%genre%" -T "PERFORMER=%albuminterpret%" -T "COMPOSER=%composer%" %haslyrics%–tag-from-file=LYRICS="%lyricsfile%"%haslyrics% -T "ALBUMARTIST=%albumartist%" -T "DISCNUMBER=%cdnumber%" -T "TOTALDISCS=%totalcds%" -T "TOTALTRACKS=%numtracks%" -T "COMMENT=%comment%" %source% -o %dest%


TOC of the extracted CD

Track | Start | Length | Start sector | End sector
––––––––––––––––––––––––––––-
1 | 0:00.00 | 4:01.33 | 0 | 18107
2 | 4:01.33 | 4:49.01 | 18108 | 39783
3 | 8:50.34 | 4:19.03 | 39784 | 59211
4 | 13:09.37 | 4:40.15 | 59212 | 80226
5 | 17:49.52 | 3:44.51 | 80227 | 97077
6 | 21:34.28 | 6:03.30 | 97078 | 124332
7 | 27:37.58 | 4:25.48 | 124333 | 144255
8 | 32:03.31 | 2:26.27 | 144256 | 155232
9 | 34:29.58 | 3:53.47 | 155233 | 172754
10 | 38:23.30 | 3:00.55 | 172755 | 186309
11 | 41:24.10 | 3:05.29 | 186310 | 200213
12 | 44:29.39 | 4:11.38 | 200214 | 219076
13 | 48:41.02 | 4:09.25 | 219077 | 237776


Track 1

Filename C:\EAC Rips\Animal Collective - Tangerine Reef [FLAC] (2018) {WIGCD430}\01. Hair Cutter.wav

Pre-gap length 0:00:02.00

Peak level 97.3 %
Extraction speed 5.1 X
Track quality 100.0 %
Test CRC 64F7C6E1
Copy CRC 64F7C6E1
Track not present in AccurateRip database
Copy OK

Track 2

Filename C:\EAC Rips\Animal Collective - Tangerine Reef [FLAC] (2018) {WIGCD430}\02. Buffalo Tomato.wav

Peak level 97.5 %
Extraction speed 5.8 X
Track quality 100.0 %
Test CRC 57077B9A
Copy CRC 57077B9A
Track not present in AccurateRip database
Copy OK

Track 3

Filename C:\EAC Rips\Animal Collective - Tangerine Reef [FLAC] (2018) {WIGCD430}\03. Inspector Gadget.wav

Peak level 97.3 %
Extraction speed 6.2 X
Track quality 100.0 %
Test CRC 749BAD63
Copy CRC 749BAD63
Track not present in AccurateRip database
Copy OK

Track 4

Filename C:\EAC Rips\Animal Collective - Tangerine Reef [FLAC] (2018) {WIGCD430}\04. Buxom.wav

Peak level 97.2 %
Extraction speed 5.7 X
Track quality 99.9 %
Test CRC 7F2DA596
Copy CRC 7F2DA596
Track not present in AccurateRip database
Copy OK

Track 5

Filename C:\EAC Rips\Animal Collective - Tangerine Reef [FLAC] (2018) {WIGCD430}\05. Coral Understanding.wav

Peak level 97.3 %
Extraction speed 7.1 X
Track quality 100.0 %
Test CRC 38B13B73
Copy CRC 38B13B73
Track not present in AccurateRip database
Copy OK

Track 6

Filename C:\EAC Rips\Animal Collective - Tangerine Reef [FLAC] (2018) {WIGCD430}\06. Airpipe (to a New Transition).wav

Peak level 97.3 %
Extraction speed 8.0 X
Track quality 100.0 %
Test CRC 30468A9F
Copy CRC 30468A9F
Track not present in AccurateRip database
Copy OK

Track 7

Filename C:\EAC Rips\Animal Collective - Tangerine Reef [FLAC] (2018) {WIGCD430}\07. Jake and Me.wav

Peak level 97.1 %
Extraction speed 8.2 X
Track quality 100.0 %
Test CRC 0CCCACE0
Copy CRC 0CCCACE0
Track not present in AccurateRip database
Copy OK

Track 8

Filename C:\EAC Rips\Animal Collective - Tangerine Reef [FLAC] (2018) {WIGCD430}\08. Coral By Numbers.wav

Peak level 97.7 %
Extraction speed 7.6 X
Track quality 100.0 %
Test CRC 3CD1DD4C
Copy CRC 3CD1DD4C
Track not present in AccurateRip database
Copy OK

Track 9

Filename C:\EAC Rips\Animal Collective - Tangerine Reef [FLAC] (2018) {WIGCD430}\09. Hip Sponge.wav

Peak level 97.5 %
Extraction speed 8.6 X
Track quality 100.0 %
Test CRC 8FC7F862
Copy CRC 8FC7F862
Track not present in AccurateRip database
Copy OK

Track 10

Filename C:\EAC Rips\Animal Collective - Tangerine Reef [FLAC] (2018) {WIGCD430}\10. Coral Realization.wav

Peak level 97.3 %
Extraction speed 8.4 X
Track quality 100.0 %
Test CRC 058FF804
Copy CRC 058FF804
Track not present in AccurateRip database
Copy OK

Track 11

Filename C:\EAC Rips\Animal Collective - Tangerine Reef [FLAC] (2018) {WIGCD430}\11. Lundsten Coral.wav

Peak level 97.1 %
Extraction speed 8.8 X
Track quality 100.0 %
Test CRC 987700CB
Copy CRC 987700CB
Track not present in AccurateRip database
Copy OK

Track 12

Filename C:\EAC Rips\Animal Collective - Tangerine Reef [FLAC] (2018) {WIGCD430}\12. Palythoa.wav

Peak level 97.2 %
Extraction speed 9.5 X
Track quality 100.0 %
Test CRC CF0E8E27
Copy CRC CF0E8E27
Track not present in AccurateRip database
Copy OK

Track 13

Filename C:\EAC Rips\Animal Collective - Tangerine Reef [FLAC] (2018) {WIGCD430}\13. Best of Times (Worst of All).wav

Peak level 97.6 %
Extraction speed 7.7 X
Track quality 99.9 %
Test CRC 22E4B7C3
Copy CRC 22E4B7C3
Track not present in AccurateRip database
Copy OK


None of the tracks are present in the AccurateRip database

No errors occurred

End of status report

–– CUETools DB Plugin V2.1.6

[CTDB TOCID: f5rZfdArA.vwSraVPMC3PWiHtko-] disk not present in database
Submit result: f5rZfdArA.vwSraVPMC3PWiHtko- has been uploaded


==== Log checksum A7ABB54D49CBEDF09A0D2D5C0798E0D3D096D1489AC5C4A90B5D48551BE4FD85 ====

Thanks to the Original ripper swissconsin !