Tags
Language
Tags
May 2024
Su Mo Tu We Th Fr Sa
28 29 30 1 2 3 4
5 6 7 8 9 10 11
12 13 14 15 16 17 18
19 20 21 22 23 24 25
26 27 28 29 30 31 1

Arcane Allies - Sunra Oscillations (2023)

Posted By: delpotro
Arcane Allies - Sunra Oscillations (2023)

Arcane Allies - Sunra Oscillations (2023)
XLD Rip | FLAC (tracks+log+.cue) - 198 Mb | MP3 CBR 320 kbps - 87 Mb | 00:37:57
Krautrock, Progressive Electronic | Label: The Acid Test Recordings, Pink Tank Records

Acid Test and Pink Tank are ecstatic to bring to you the new LP from Arcane Allies – Sunra Oscillations. Based in Germany, their mindset is reflected in their name – Arcane Allies - a mysterious secret to those in the psych hive mind. Arcane Allies are the sound of hypnotic synths and rhythmic propulsion - ethereal infused danceable ecstasy beats that tap into the molecule flow of your body.

Within that flow that is ‘Sunra Oscillations’ you will find Arcane Allies plugging into the infinite cosmos of your mind as ‘Accumulation’ brings forth waves of joy and beauty in the beats that cascade and flow into ‘Circulation’ as you can feel your soul been caressed. It is a journey of Kosmiche transcendence where every lingering note can make you feel that just maybe you dropped a tab and opened up a portal to the infinite void, as you leave the world for somewhere more beautiful.

Find within the interconnectedness that links Neu, Cluster and Tangerine Dream with Derrick May and of course Sun Ra.
Tracklist:
01 Accumulation
02 Circulation
03 Orgonia
04 Sinus
05 Image of Motion

X Lossless Decoder version 20230627 (156.1)

XLD extraction logfile from 2024-02-20 15:20:46 -0500

Arcane Allies / Sunra Oscillation

Used drive : MATSHITA DVD-R UJ-898 (revision HC10)
Media type : Pressed CD

Ripper mode : XLD Secure Ripper
Disable audio cache : OK for the drive with a cache less than 1375KiB
Make use of C2 pointers : NO
Read offset correction : 102
Max retry count : 100
Gap status : Analyzed, Appended (except HTOA)

TOC of the extracted CD
Track | Start | Length | Start sector | End sector
––––––––––––––––––––––––––––-
1 | 00:00:00 | 09:14:67 | 0 | 41616
2 | 09:14:67 | 07:17:00 | 41617 | 74391
3 | 16:31:67 | 09:31:67 | 74392 | 117283
4 | 26:03:59 | 06:02:04 | 117284 | 144437
5 | 32:05:63 | 05:52:12 | 144438 | 170849

AccurateRip Summary
Disc not found in AccurateRip DB.

All Tracks
Album gain : -6.09 dB
Peak : 0.961212
Statistics
Read error : 0
Jitter error (maybe fixed) : 0
Retry sector count : 0
Damaged sector count : 0

Track 01
Filename : /Users/mimi/Music/Arcane Allies - Sunra Oscillation (Unknown Year) [FLAC]/01 Accumulation.flac
Pre-gap length : 00:02:00

Track gain : -6.43 dB
Peak : 0.949158
CRC32 hash (test run) : 4A0FBB5F
CRC32 hash : 4A0FBB5F
CRC32 hash (skip zero) : 81F3D70E
AccurateRip v1 signature : 153F44DC
AccurateRip v2 signature : BF57A0D1
->Track not present in AccurateRip database.
Statistics
Read error : 0
Jitter error (maybe fixed) : 0
Retry sector count : 0
Damaged sector count : 0

Track 02
Filename : /Users/mimi/Music/Arcane Allies - Sunra Oscillation (Unknown Year) [FLAC]/02 Circulation.flac

Track gain : -6.87 dB
Peak : 0.961151
CRC32 hash (test run) : D0416488
CRC32 hash : D0416488
CRC32 hash (skip zero) : A54B8856
AccurateRip v1 signature : C134617A
AccurateRip v2 signature : 79AAF435
->Track not present in AccurateRip database.
Statistics
Read error : 0
Jitter error (maybe fixed) : 0
Retry sector count : 0
Damaged sector count : 0

Track 03
Filename : /Users/mimi/Music/Arcane Allies - Sunra Oscillation (Unknown Year) [FLAC]/03 Orgonia.flac

Track gain : -5.36 dB
Peak : 0.961121
CRC32 hash (test run) : AB1E4697
CRC32 hash : AB1E4697
CRC32 hash (skip zero) : 51688FD0
AccurateRip v1 signature : 4C4EAFF5
AccurateRip v2 signature : 4B07DD85
->Track not present in AccurateRip database.
Statistics
Read error : 0
Jitter error (maybe fixed) : 0
Retry sector count : 0
Damaged sector count : 0

Track 04
Filename : /Users/mimi/Music/Arcane Allies - Sunra Oscillation (Unknown Year) [FLAC]/04 Sinus.flac

Track gain : -5.98 dB
Peak : 0.958221
CRC32 hash (test run) : 3117FD6A
CRC32 hash : 3117FD6A
CRC32 hash (skip zero) : E013D8E0
AccurateRip v1 signature : E8855DD5
AccurateRip v2 signature : C91C06BC
->Track not present in AccurateRip database.
Statistics
Read error : 0
Jitter error (maybe fixed) : 0
Retry sector count : 0
Damaged sector count : 0

Track 05
Filename : /Users/mimi/Music/Arcane Allies - Sunra Oscillation (Unknown Year) [FLAC]/05 Image of Motion.flac

Track gain : -5.54 dB
Peak : 0.961212
CRC32 hash (test run) : 3EF856E5
CRC32 hash : 3EF856E5
CRC32 hash (skip zero) : 98605F8D
AccurateRip v1 signature : 77D2835E
AccurateRip v2 signature : E69BA641
->Track not present in AccurateRip database.
Statistics
Read error : 0
Jitter error (maybe fixed) : 0
Retry sector count : 0
Damaged sector count : 0

No errors occurred

End of status report

––-BEGIN XLD SIGNATURE––-
_uxVkY6SKfjG4gjZcWElJ.xLqk5suXe1j56D0TjzalcxQcCiaaV_bon9AOJmc6jQC16DD84Z48Bt3vbhzV2bs4oTpp5BYmrRz2Y1yCW
––-END XLD SIGNATURE––-

Thanks to the Original ripper !